<?xml version="1.0" standalone="no"?>
<!DOCTYPE svg PUBLIC "-//W3C//DTD SVG 1.1//EN" "http://www.w3.org/Graphics/SVG/1.1/DTD/svg11.dtd" >
<svg xmlns="http://www.w3.org/2000/svg">
<metadata></metadata>
<defs>
<font id="segoe_uiregular" horiz-adv-x="1159" >
<font-face units-per-em="2048" ascent="1638" descent="-410" />
<missing-glyph horiz-adv-x="561" />
<glyph horiz-adv-x="2048" />
<glyph horiz-adv-x="2048" />
<glyph unicode="&#xd;" horiz-adv-x="199" />
<glyph unicode=" "  horiz-adv-x="561" />
<glyph unicode="&#x09;" horiz-adv-x="561" />
<glyph unicode="&#xa0;" horiz-adv-x="561" />
<glyph unicode="!" horiz-adv-x="582" d="M180 92q0 46 32.5 78.5t78.5 32.5q45 0 78 -32.5t33 -78.5t-33 -78t-78 -32q-46 0 -78.5 32t-32.5 78zM203 1434h172l-19 -1030h-135z" />
<glyph unicode="&#x22;" horiz-adv-x="803" d="M163 987v447h145v-447h-145zM495 987v447h145v-447h-145z" />
<glyph unicode="#" horiz-adv-x="1210" d="M33 520l20 106h265l61 300h-277l21 106h277l84 402h126l-84 -402h252l86 402h123l-84 -402h263l-23 -106h-261l-63 -300h281l-27 -106h-275l-88 -397h-126l86 397h-250l-84 -397h-125l84 397h-262zM440 626h254l64 300h-252z" />
<glyph unicode="$" horiz-adv-x="1104" d="M162 1059q0 145 99 250.5t251 126.5v180h104v-176q196 -6 271 -56v-170q-102 80 -271 86v-528q208 -99 284.5 -191.5t76.5 -210.5q0 -142 -95.5 -238.5t-265.5 -123.5v-217h-104v209q-213 0 -346 86v174q58 -51 158.5 -85.5t187.5 -34.5v512q-220 106 -285 195.5 t-65 211.5zM330 1080q0 -86 40 -141t142 -111v466q-84 -17 -133 -74.5t-49 -139.5zM616 148q193 42 193 208q0 138 -193 244v-452z" />
<glyph unicode="%" horiz-adv-x="1676" d="M80 1073q0 178 93 280.5t251 102.5q153 0 237.5 -95t84.5 -267t-94.5 -275.5t-247.5 -103.5q-148 0 -236 97.5t-88 260.5zM213 1082q0 -121 54 -188.5t147 -67.5q94 0 147 70t53 194q0 121 -52.5 188.5t-143.5 67.5q-95 0 -150 -70.5t-55 -193.5zM301 -10l919 1444h144 l-920 -1444h-143zM934 336q0 178 94 281.5t250 103.5q152 0 237 -96t85 -269q0 -171 -94.5 -274.5t-247.5 -103.5q-148 0 -236 98t-88 260zM1067 344q0 -119 54 -186.5t147 -67.5q94 0 147 70.5t53 193.5q0 122 -52.5 188t-143.5 66q-96 0 -150.5 -70t-54.5 -194z" />
<glyph unicode="&#x26;" horiz-adv-x="1639" d="M119 390q0 153 87 261.5t246 177.5q-30 22 -60 51.5t-53.5 67t-38 83t-14.5 99.5q0 79 28.5 140t78.5 103t118 63.5t147 21.5q78 0 142.5 -21.5t111 -61.5t72.5 -96t26 -125q0 -120 -68.5 -199.5t-205.5 -135.5q69 -27 125 -66t103.5 -87t88.5 -103t81 -114 q81 113 122 249t41 285q0 38 -4.5 71.5t-12.5 66.5h159q8 -33 9.5 -62.5t3.5 -70.5q0 -91 -19 -183t-51 -178.5t-74.5 -164.5t-89.5 -143q35 -48 64 -83.5t58.5 -59.5t61 -35.5t71.5 -11.5q30 0 61 8t64 20v-152q-36 -14 -75.5 -21t-77.5 -7q-57 0 -100.5 15.5t-80.5 44 t-71.5 69.5t-72.5 93q-40 -43 -92.5 -83t-116.5 -71t-140 -49.5t-165 -18.5q-108 0 -198 27t-154 79.5t-99.5 129.5t-35.5 177zM286 395q0 -68 25 -120t68.5 -86.5t101.5 -52t125 -17.5q76 0 140 16.5t118 44t98 64t80 76.5q-61 95 -112.5 162.5t-104 116.5t-112 84 t-137.5 65q-63 -25 -116 -55.5t-91.5 -72t-60.5 -96.5t-22 -129zM442 1130q0 -41 12.5 -77t35 -67t52.5 -55t64 -41q126 44 188 102.5t62 147.5q0 50 -18.5 85t-47 58t-63.5 33.5t-69 10.5q-98 0 -156.5 -53t-59.5 -144z" />
<glyph unicode="'" horiz-adv-x="471" d="M163 987v447h145v-447h-145z" />
<glyph unicode="(" horiz-adv-x="618" d="M140 547q0 521 310 887h148q-314 -380 -314 -885q0 -501 312 -875h-146q-310 354 -310 873z" />
<glyph unicode=")" horiz-adv-x="618" d="M22 1434h148q312 -366 312 -887q0 -519 -312 -873h-146q312 374 312 875q0 505 -314 885z" />
<glyph unicode="*" horiz-adv-x="854" d="M76 1104l45 125l262 -99l-23 304h138l-23 -304l263 99l42 -125l-274 -56l190 -243l-110 -76l-156 265l-158 -265l-110 76l190 243z" />
<glyph unicode="+" horiz-adv-x="1401" d="M232 530v134h403v403h133v-403h404v-134h-404v-403h-133v403h-403z" />
<glyph unicode="," horiz-adv-x="444" d="M39 -264l117 492h160l-160 -492h-117z" />
<glyph unicode="-" horiz-adv-x="819" d="M144 506v129h546v-129h-546z" />
<glyph unicode="." horiz-adv-x="444" d="M112 90q0 46 32.5 79.5t78.5 33.5q47 0 80 -33.5t33 -79.5t-33 -79t-80 -33q-46 0 -78.5 33t-32.5 79z" />
<glyph unicode="/" horiz-adv-x="798" d="M-28 -238l686 1672h155l-688 -1672h-153z" />
<glyph unicode="0" horiz-adv-x="1104" d="M86 688q0 188 31.5 332t92.5 241.5t151.5 147t207.5 49.5q451 0 451 -735q0 -180 -32.5 -319t-94 -234.5t-151 -145t-203.5 -49.5q-108 0 -192.5 47.5t-142.5 138.5t-88 223.5t-30 303.5zM254 696q0 -581 301 -581q297 0 297 592q0 612 -291 612q-307 0 -307 -623z" />
<glyph unicode="1" horiz-adv-x="1104" d="M228 1069v166q54 15 114.5 40.5t119 57t110.5 66t90 67.5h62v-1466h-164v1239q-19 -19 -55.5 -43.5t-82 -48.5t-96 -45t-98.5 -33z" />
<glyph unicode="2" horiz-adv-x="1104" d="M109 0v71q0 92 20 162t66 133t120.5 126t182.5 142q78 56 130.5 107t84.5 102t45.5 103.5t13.5 111.5q0 66 -20.5 115t-56 81.5t-83.5 48.5t-104 16q-48 0 -94 -13t-89.5 -36t-84 -55t-75.5 -71v176q69 67 154.5 102.5t208.5 35.5q88 0 163 -25.5t130 -74.5t86.5 -121 t31.5 -165q0 -85 -19.5 -154t-59 -130t-99.5 -117t-141 -114q-101 -72 -166.5 -123t-104 -95.5t-54 -89t-15.5 -102.5h714v-147h-885z" />
<glyph unicode="3" horiz-adv-x="1104" d="M123 53v176q145 -114 332 -114q75 0 135.5 19t104 55t67 87t23.5 115q0 281 -400 281h-119v139h113q354 0 354 264q0 244 -270 244q-152 0 -285 -102v159q137 82 326 82q90 0 163 -25t125 -70t80.5 -108t28.5 -139q0 -283 -286 -364v-4q73 -8 135 -35.5t107 -71.5 t70.5 -103.5t25.5 -131.5q0 -97 -36.5 -176.5t-103 -136t-159.5 -87.5t-205 -31q-205 0 -326 78z" />
<glyph unicode="4" horiz-adv-x="1104" d="M14 337v142q94 106 190 226.5t183.5 244.5t162 247.5t125.5 236.5h175v-947h184v-150h-184v-337h-162v337h-674zM199 487h489v702q-75 -131 -142 -234t-127.5 -187t-115.5 -152t-104 -129z" />
<glyph unicode="5" horiz-adv-x="1104" d="M164 35v174q146 -94 299 -94q78 0 140.5 23t106.5 64t67.5 99t23.5 127q0 140 -94 219.5t-273 79.5q-29 0 -61 -1t-64 -2.5t-62.5 -3.5t-55.5 -5l49 719h663v-148h-521l-29 -421q32 2 68 3.5t64 1.5q114 0 204 -30t152.5 -85.5t95 -136t32.5 -180.5q0 -105 -36 -190 t-102.5 -146t-160.5 -94t-209 -33q-200 0 -297 60z" />
<glyph unicode="6" horiz-adv-x="1104" d="M111 631q0 187 41.5 339.5t118 261t184.5 167.5t241 59q148 0 238 -41v-155q-111 57 -234 57q-96 0 -173 -43t-132 -121.5t-84.5 -189.5t-29.5 -247h4q99 179 327 179q94 0 169.5 -32t129 -90.5t82.5 -139.5t29 -180q0 -105 -34 -193t-94 -152t-143 -99.5t-180 -35.5 q-108 0 -193.5 45t-145 129.5t-90.5 206.5t-31 275zM291 469q0 -74 21 -138.5t59 -112.5t90.5 -75.5t116.5 -27.5q62 0 113 23.5t87 65.5t56 100.5t20 129.5q0 75 -19 135t-54.5 102t-87.5 64.5t-118 22.5q-61 0 -113 -23t-90 -62.5t-59.5 -92t-21.5 -111.5z" />
<glyph unicode="7" horiz-adv-x="1104" d="M98 1286v148h912v-95q-33 -57 -79.5 -142t-98.5 -191t-106 -228t-101 -252t-82.5 -263.5t-51.5 -262.5h-176q18 128 55.5 261.5t85 262t100.5 247.5t103 219t91.5 176.5t66.5 119.5h-719z" />
<glyph unicode="8" horiz-adv-x="1104" d="M90 400q0 57 18 114.5t51.5 107.5t83 91t112.5 65q-93 52 -148 133.5t-55 180.5q0 79 30.5 146t84.5 116t128 76.5t160 27.5q87 0 161 -28t128 -77t84 -116t30 -145q0 -99 -55 -180.5t-146 -133.5q62 -24 111 -65t82.5 -91t51.5 -107.5t18 -114.5q0 -94 -34 -172 t-95.5 -133.5t-147 -86.5t-188.5 -31q-102 0 -187 31t-147 86.5t-96.5 133.5t-34.5 172zM268 414q0 -67 20.5 -121t58 -92t91 -58.5t118.5 -20.5q63 0 116 21t91.5 59t60 92t21.5 120q0 60 -20.5 112.5t-58.5 92.5t-91 63t-119 23q-62 0 -114.5 -21.5t-91 -60t-60.5 -92 t-22 -117.5zM319 1079q0 -51 18.5 -94.5t51 -76t75.5 -51t92 -18.5t92.5 19t75.5 51.5t51 76t19 93.5q0 52 -18.5 96t-50.5 76t-75.5 50.5t-93.5 18.5q-53 0 -96.5 -19t-75 -51.5t-48.5 -76.5t-17 -94z" />
<glyph unicode="9" horiz-adv-x="1104" d="M94 979q0 106 34.5 194t96 151.5t146 98.5t184.5 35q108 0 191.5 -43.5t140.5 -127t87 -205.5t30 -279q0 -197 -39 -350.5t-114 -260t-183 -162t-246 -55.5q-142 0 -250 50v157q119 -67 254 -67q97 0 173.5 40t129.5 116.5t81 188.5t28 257h-4q-92 -185 -320 -185 q-92 0 -169 32.5t-133 92t-87 141.5t-31 181zM262 1001q0 -76 20.5 -136t58.5 -101.5t91.5 -63.5t118.5 -22q57 0 107.5 21.5t88 58t59 86t21.5 106.5q0 83 -21.5 151t-59.5 116.5t-90.5 75t-114.5 26.5q-59 0 -110 -23.5t-88.5 -66t-59 -101t-21.5 -127.5z" />
<glyph unicode=":" horiz-adv-x="444" d="M112 90q0 46 32.5 79.5t78.5 33.5q47 0 80 -33.5t33 -79.5t-33 -79t-80 -33q-46 0 -78.5 33t-32.5 79zM112 936q0 46 32.5 78t78.5 32q47 0 80 -32t33 -78t-33 -79t-80 -33q-46 0 -78.5 33t-32.5 79z" />
<glyph unicode=";" horiz-adv-x="444" d="M39 -264l117 492h160l-160 -492h-117zM114 936q0 46 32.5 78t79.5 32q46 0 79 -32t33 -78t-33 -79t-79 -33q-47 0 -79.5 33t-32.5 79z" />
<glyph unicode="&#x3c;" horiz-adv-x="1401" d="M272 559v59l860 482v-150l-642 -356v-4l642 -314v-149z" />
<glyph unicode="=" horiz-adv-x="1401" d="M232 318v132h940v-132h-940zM232 744v132h940v-132h-940z" />
<glyph unicode="&#x3e;" horiz-adv-x="1401" d="M272 127v149l644 312v6l-644 356v150l860 -482v-59z" />
<glyph unicode="?" horiz-adv-x="918" d="M131 1186v176q153 96 317 96q76 0 143 -20t117.5 -59.5t79.5 -98.5t29 -137q0 -74 -26 -132t-65.5 -106.5t-85.5 -90.5t-85.5 -83.5t-65.5 -86.5t-26 -99q0 -46 11 -83.5t22 -63.5h-161q-9 26 -16 67.5t-7 82.5q0 64 25.5 115.5t63.5 96.5t83 86.5t83 84t63.5 89 t25.5 102.5q0 48 -18.5 85t-50.5 62t-74 37.5t-89 12.5q-169 0 -293 -133zM314 92q0 47 33 78q33 33 78 33t78 -33q33 -31 33 -78q0 -46 -33 -78q-34 -32 -78 -32t-78 32q-33 32 -33 78z" />
<glyph unicode="@" horiz-adv-x="1956" d="M172 606q0 366 233.5 607t596.5 241q340 0 563 -202t223 -527q0 -238 -117.5 -390.5t-286.5 -152.5q-219 0 -220 238h-5q-73 -238 -287 -238q-137 0 -220.5 101t-83.5 272q0 226 115.5 375.5t303.5 149.5q72 0 128.5 -37t72.5 -93h4q2 28 10 115h125q-47 -551 -47 -561 q0 -207 119 -207q108 0 179.5 117t71.5 303q0 275 -174 449t-482 174q-297 0 -491 -208t-194 -520q0 -307 184.5 -495.5t497.5 -188.5q247 0 422 82v-124q-173 -74 -432 -74q-364 0 -586.5 219.5t-222.5 574.5zM708 553q0 -118 51.5 -186t137.5 -68q124 0 196.5 123.5 t72.5 327.5q0 214 -181 214q-124 0 -200.5 -118t-76.5 -293z" />
<glyph unicode="A" horiz-adv-x="1321" d="M22 0l550 1434h174l552 -1434h-186l-152 402h-608l-143 -402h-187zM408 553h497l-225 611q-11 30 -22 96h-4q-10 -61 -23 -96z" />
<glyph unicode="B" horiz-adv-x="1174" d="M188 0v1434h408q186 0 295 -91t109 -237q0 -122 -66 -212t-182 -128v-4q145 -17 232 -109.5t87 -240.5q0 -184 -132 -298t-333 -114h-418zM356 152h228q148 0 229.5 70t81.5 192q0 254 -346 254h-193v-516zM356 819h172q138 0 217 66.5t79 187.5q0 209 -275 209h-193 v-463z" />
<glyph unicode="C" horiz-adv-x="1268" d="M94 690q0 344 207 556t525 212q204 0 338 -59v-179q-154 86 -340 86q-247 0 -400.5 -165t-153.5 -441q0 -262 143.5 -417.5t376.5 -155.5q216 0 374 96v-163q-159 -84 -396 -84q-306 0 -490 197t-184 517z" />
<glyph unicode="D" horiz-adv-x="1436" d="M188 0v1434h396q758 0 758 -699q0 -332 -210.5 -533.5t-563.5 -201.5h-380zM356 152h214q282 0 439 151t157 428q0 551 -586 551h-224v-1130z" />
<glyph unicode="E" horiz-adv-x="1036" d="M188 0v1434h728v-152h-560v-477h518v-151h-518v-502h592v-152h-760z" />
<glyph unicode="F" horiz-adv-x="1000" d="M188 0v1434h728v-152h-560v-496h518v-151h-518v-635h-168z" />
<glyph unicode="G" horiz-adv-x="1405" d="M94 698q0 333 210.5 546.5t533.5 213.5q234 0 393 -76v-186q-174 110 -412 110q-241 0 -395 -166t-154 -430q0 -272 143 -427.5t388 -155.5q168 0 291 67v402h-314v152h482v-650q-216 -122 -480 -122q-307 0 -496.5 198t-189.5 524z" />
<glyph unicode="H" horiz-adv-x="1454" d="M188 0v1434h168v-629h742v629h168v-1434h-168v654h-742v-654h-168z" />
<glyph unicode="I" horiz-adv-x="545" d="M188 0v1434h168v-1434h-168z" />
<glyph unicode="J" horiz-adv-x="731" d="M20 0v166q54 -39 140 -39q227 0 227 385v922h168v-920q0 -255 -108 -396.5t-289 -141.5q-84 0 -138 24z" />
<glyph unicode="K" horiz-adv-x="1188" d="M188 0v1434h168v-674h4q14 22 38 49l536 625h209l-615 -688l658 -746h-234l-554 656q-31 37 -38 50h-4v-706h-168z" />
<glyph unicode="L" horiz-adv-x="964" d="M188 0v1434h168v-1282h576v-152h-744z" />
<glyph unicode="M" horiz-adv-x="1839" d="M188 0v1434h222l440 -1000q51 -115 66 -172h6q43 118 69 176l449 996h210v-1434h-167v962q0 114 14 279h-4q-24 -97 -43 -139l-490 -1102h-82l-489 1094q-21 48 -43 147h-4q8 -86 8 -281v-960h-162z" />
<glyph unicode="N" horiz-adv-x="1532" d="M188 0v1434h218l718 -1125q45 -70 58 -96h4q-10 62 -10 211v1010h168v-1434h-206l-738 1143q-28 43 -46 90h-6q8 -46 8 -197v-1036h-168z" />
<glyph unicode="O" horiz-adv-x="1544" d="M94 700q0 346 187 552t509 206q297 0 478.5 -200t181.5 -523q0 -351 -186 -555t-498 -204q-305 0 -488.5 201t-183.5 523zM270 715q0 -265 137.5 -426.5t358.5 -161.5q236 0 372 154t136 431q0 284 -132 439t-364 155q-226 0 -367 -163t-141 -428z" />
<glyph unicode="P" horiz-adv-x="1147" d="M188 0v1434h394q230 0 356.5 -112t126.5 -316t-140.5 -334t-379.5 -130h-189v-542h-168zM356 694h176q174 0 265.5 79.5t91.5 224.5q0 284 -336 284h-197v-588z" />
<glyph unicode="Q" horiz-adv-x="1544" d="M94 700q0 347 187 552q188 206 509 206q296 0 478 -200t182 -523q0 -351 -186 -555q-44 -49 -94 -84l403 -289h-305l-270 202q-106 -33 -232 -33q-304 0 -489 201q-183 201 -183 523zM270 715q0 -264 137 -427q138 -161 359 -161q236 0 372 154t136 431q0 285 -132 439 q-132 155 -364 155q-226 0 -367 -163t-141 -428z" />
<glyph unicode="R" horiz-adv-x="1225" d="M188 0v1434h428q94 0 173.5 -23.5t138 -71.5t91.5 -119.5t33 -167.5q0 -75 -22.5 -137.5t-64 -111.5t-100 -83.5t-131.5 -53.5v-4q36 -16 62.5 -36.5t50.5 -48.5t47.5 -63.5t52.5 -82.5l269 -431h-200l-240 402q-33 56 -64 95.5t-63.5 64.5t-70 36.5t-84.5 11.5h-138 v-610h-168zM356 762h228q63 0 116.5 19t92.5 54.5t61 87t22 115.5q0 115 -74.5 179.5t-215.5 64.5h-230v-520z" />
<glyph unicode="S" horiz-adv-x="1088" d="M121 58v198q34 -30 81.5 -54t100 -40.5t105.5 -25.5t98 -9q155 0 231.5 57.5t76.5 165.5q0 58 -25.5 101t-70.5 78.5t-106.5 68t-132.5 68.5q-75 38 -140 77t-113 86t-75.5 106.5t-27.5 139.5q0 98 43 170.5t113 119.5t159.5 70t182.5 23q212 0 309 -51v-189 q-127 88 -326 88q-55 0 -110 -11.5t-98 -37.5t-70 -67t-27 -100q0 -55 20.5 -95t60.5 -73t97.5 -64t132.5 -68q77 -38 146 -80t121 -93t82.5 -113t30.5 -142q0 -106 -41.5 -179.5t-112 -119.5t-162.5 -66.5t-194 -20.5q-34 0 -84 5.5t-102 16t-98.5 26t-74.5 34.5z" />
<glyph unicode="T" horiz-adv-x="1073" d="M41 1282v152h995v-152h-414v-1282h-168v1282h-413z" />
<glyph unicode="U" horiz-adv-x="1407" d="M170 557v877h168v-866q0 -441 372 -441q359 0 359 426v881h168v-854q0 -604 -545 -604q-522 0 -522 581z" />
<glyph unicode="V" horiz-adv-x="1272" d="M18 1434h187l397 -1137q19 -55 29 -127h4q8 60 33 129l405 1135h181l-531 -1434h-185z" />
<glyph unicode="W" horiz-adv-x="1913" d="M26 1434h185l305 -1100q19 -69 24 -144h5q5 53 31 144l317 1100h161l304 -1108q16 -57 24 -134h4q4 52 27 138l293 1104h182l-405 -1434h-197l-295 1048q-19 67 -23 146h-4q-6 -74 -26 -144l-297 -1050h-195z" />
<glyph unicode="X" horiz-adv-x="1208" d="M26 0l480 721l-442 713h206l293 -504q29 -50 51 -100h4q32 66 56 104l305 500h193l-451 -711l457 -723h-205l-330 549q-15 25 -33 71h-4q-10 -23 -34 -71l-340 -549h-206z" />
<glyph unicode="Y" horiz-adv-x="1132" d="M18 1434h191l321 -648q6 -12 35 -88h3q10 34 38 88l336 648h178l-473 -904v-530h-168v526z" />
<glyph unicode="Z" horiz-adv-x="1168" d="M33 0v47l833 1235h-766v152h1024v-40l-840 -1242h820v-152h-1071z" />
<glyph unicode="[" horiz-adv-x="618" d="M200 -326v1760h368v-119h-222v-1522h222v-119h-368z" />
<glyph unicode="\" horiz-adv-x="776" d="M-26 1434h155l669 -1674h-151z" />
<glyph unicode="]" horiz-adv-x="618" d="M53 -207h221v1522h-221v119h367v-1760h-367v119z" />
<glyph unicode="^" horiz-adv-x="1401" d="M230 624l422 834h65l457 -834h-150l-332 619h-6l-309 -619h-147z" />
<glyph unicode="_" horiz-adv-x="850" d="M0 -178h850v-119h-850v119z" />
<glyph unicode="`" horiz-adv-x="549" d="M82 1546h168l221 -328h-127z" />
<glyph unicode="a" horiz-adv-x="1042" d="M90 272q0 287 338 334l307 43q0 261 -211 261q-185 0 -334 -126v168q151 96 348 96q361 0 361 -382v-666h-164v160h-4q-107 -184 -315 -184q-153 0 -239.5 81t-86.5 215zM258 284q0 -75 53.5 -122.5t142.5 -47.5q122 0 201.5 85.5t79.5 216.5v102l-247 -34 q-114 -16 -172 -56.5t-58 -143.5z" />
<glyph unicode="b" horiz-adv-x="1204" d="M166 0v1516h164v-672h4q121 204 354 204q197 0 308.5 -137.5t111.5 -368.5q0 -257 -125 -411.5t-342 -154.5q-203 0 -307 172h-4v-148h-164zM330 418q0 -127 82.5 -215.5t209.5 -88.5q149 0 233.5 114t84.5 317q0 171 -79 268t-214 97q-143 0 -230 -99.5t-87 -249.5v-143 z" />
<glyph unicode="c" horiz-adv-x="946" d="M96 488q0 253 145 406.5t387 153.5q135 0 238 -50v-168q-114 80 -244 80q-157 0 -257.5 -112.5t-100.5 -295.5q0 -180 94.5 -284t253.5 -104q134 0 252 89v-156q-118 -71 -280 -71q-219 0 -353.5 142.5t-134.5 369.5z" />
<glyph unicode="d" horiz-adv-x="1206" d="M96 488q0 254 128 407t341 153q211 0 307 -166h4v634h164v-1516h-164v174h-4q-114 -198 -352 -198q-193 0 -308.5 137.5t-115.5 374.5zM264 496q0 -177 82.5 -279.5t221.5 -102.5q137 0 222.5 99t85.5 250v151q0 124 -82 210t-208 86q-150 0 -236 -110t-86 -304z" />
<glyph unicode="e" horiz-adv-x="1071" d="M96 508q0 239 135.5 389.5t336.5 150.5t311 -130t110 -361v-86h-723q4 -171 92 -264t242 -93q173 0 318 114v-154q-135 -98 -357 -98q-217 0 -341 139.5t-124 392.5zM268 610h553q-1 142 -68.5 221t-187.5 79q-116 0 -197 -83t-100 -217z" />
<glyph unicode="f" horiz-adv-x="641" d="M53 884v140h175v166q0 161 93 254.5t232 93.5q75 0 119 -18v-148q-48 27 -109 27q-172 0 -172 -217v-158h240v-140h-240v-884h-163v884h-175z" />
<glyph unicode="g" horiz-adv-x="1206" d="M96 479q0 261 125.5 415t343.5 154q207 0 307 -166h4v142h164v-942q0 -564 -540 -564q-190 0 -332 72v164q173 -96 330 -96q378 0 378 402v112h-4q-117 -196 -352 -196q-191 0 -307.5 136.5t-116.5 366.5zM264 490q0 -171 82.5 -273.5t218.5 -102.5q138 0 224.5 98 t86.5 251v151q0 122 -82.5 209t-205.5 87q-152 0 -238 -110.5t-86 -309.5z" />
<glyph unicode="h" d="M166 0v1516h164v-662h4q118 194 336 194q346 0 346 -417v-631h-164v590q0 320 -238 320q-120 0 -202 -92.5t-82 -237.5v-580h-164z" />
<glyph unicode="i" horiz-adv-x="496" d="M144 1390q0 46 31 76.5t75 30.5q45 0 76.5 -30.5t31.5 -76.5q0 -44 -31.5 -75t-76.5 -31q-44 0 -75 30t-31 76zM166 0v1024h164v-1024h-164z" />
<glyph unicode="j" horiz-adv-x="496" d="M-198 -297q74 -45 140 -45q224 0 224 358v1008h164v-981q0 -252 -101.5 -388.5t-290.5 -136.5q-70 0 -136 32v153zM144 1390q0 46 31 76.5t75 30.5q45 0 76.5 -30.5t31.5 -76.5q0 -44 -31.5 -75t-76.5 -31q-44 0 -75 30t-31 76z" />
<glyph unicode="k" horiz-adv-x="1018" d="M166 0v1516h164v-961h4l430 469h215l-475 -494l512 -530h-230l-452 492h-4v-492h-164z" />
<glyph unicode="l" horiz-adv-x="496" d="M166 0v1516h164v-1516h-164z" />
<glyph unicode="m" horiz-adv-x="1764" d="M166 0v1024h164v-162h4q109 186 318 186q105 0 183 -58.5t107 -153.5q114 212 340 212q338 0 338 -417v-631h-164v588q0 170 -52.5 246t-176.5 76q-105 0 -178.5 -96t-73.5 -230v-584h-164v608q0 302 -233 302q-108 0 -178 -90.5t-70 -235.5v-584h-164z" />
<glyph unicode="n" d="M166 0v1024h164v-170h4q116 194 336 194q168 0 257 -108.5t89 -313.5v-626h-164v584q0 326 -238 326q-123 0 -203.5 -92.5t-80.5 -233.5v-584h-164z" />
<glyph unicode="o" horiz-adv-x="1200" d="M96 500q0 258 141 403t381 145q229 0 357.5 -141t128.5 -391q0 -245 -138.5 -392.5t-371.5 -147.5q-227 0 -362.5 143.5t-135.5 380.5zM264 506q0 -182 93 -287t249 -105q159 0 244.5 103t85.5 293q0 192 -85.5 296t-244.5 104q-158 0 -250 -107.5t-92 -296.5z" />
<glyph unicode="p" horiz-adv-x="1204" d="M166 -471v1495h164v-180h4q121 204 354 204q198 0 309 -137.5t111 -368.5q0 -257 -125 -411.5t-342 -154.5q-199 0 -307 172h-4v-619h-164zM330 418q0 -127 82.5 -215.5t209.5 -88.5q149 0 233.5 114t84.5 317q0 171 -79 268t-214 97q-143 0 -230 -99.5t-87 -249.5v-143z " />
<glyph unicode="q" horiz-adv-x="1206" d="M96 488q0 255 128 407.5t344 152.5q210 0 304 -166h4v142h164v-1495h-164v647h-4q-107 -200 -350 -200q-193 0 -309.5 137.5t-116.5 374.5zM264 492q0 -177 83 -277.5t214 -100.5q144 0 229.5 98.5t85.5 248.5v149q0 126 -82.5 213t-209.5 87q-148 0 -234 -109.5 t-86 -308.5z" />
<glyph unicode="r" horiz-adv-x="712" d="M166 0v1024h164v-211h4q35 108 107 168.5t161 60.5q64 0 98 -14v-170q-43 33 -124 33q-105 0 -175.5 -99t-70.5 -270v-522h-164z" />
<glyph unicode="s" horiz-adv-x="869" d="M104 37v176q134 -99 295 -99q216 0 216 144q0 41 -18.5 69.5t-50 50.5t-74 39.5t-91.5 36.5q-68 27 -119.5 54.5t-86 62t-52 78.5t-17.5 103q0 72 33 127.5t88 93t125.5 56.5t145.5 19q133 0 238 -46v-166q-113 74 -260 74q-46 0 -83 -10.5t-63.5 -29.5t-41 -45.5 t-14.5 -58.5q0 -40 14.5 -67t42.5 -48t68 -38t91 -37q68 -26 122 -53.5t92 -62t58.5 -79.5t20.5 -107q0 -76 -33.5 -132t-89.5 -93t-129 -55t-153 -18q-158 0 -274 61z" />
<glyph unicode="t" horiz-adv-x="694" d="M43 884v140h176v250l164 53v-303h258v-140h-258v-577q0 -103 35 -147t116 -44q62 0 107 34v-140q-58 -32 -153 -32q-269 0 -269 300v606h-176z" />
<glyph unicode="u" d="M144 412v612h163v-586q0 -324 248 -324q120 0 197.5 88.5t77.5 231.5v590h164v-1024h-164v162h-4q-102 -186 -316 -186q-366 0 -366 436z" />
<glyph unicode="v" horiz-adv-x="981" d="M14 1024h180l260 -744q29 -82 36 -143h4q10 77 32 139l272 748h173l-408 -1024h-161z" />
<glyph unicode="w" horiz-adv-x="1480" d="M24 1024h172l212 -770q10 -35 14 -92h8q3 44 18 94l236 768h150l212 -772q10 -37 15 -92h8q2 39 17 92l208 772h162l-307 -1024h-170l-211 733q-12 42 -16 95h-4q-3 -36 -21 -93l-229 -735h-164z" />
<glyph unicode="x" horiz-adv-x="940" d="M26 0l349 502l-334 522h191l198 -350q22 -39 43 -80h4l256 430h181l-344 -518l338 -506h-191l-201 332q-19 31 -45 78h-4q-5 -9 -47 -78l-205 -332h-189z" />
<glyph unicode="y" horiz-adv-x="991" d="M14 1024h182l277 -788q5 -15 21 -78h6q5 24 20 76l291 790h170l-471 -1188q-126 -318 -354 -318q-64 0 -107 13v147q53 -18 97 -18q124 0 186 148l82 194z" />
<glyph unicode="z" horiz-adv-x="926" d="M33 0v51l606 833h-549v140h790v-47l-606 -837h600v-140h-841z" />
<glyph unicode="{" horiz-adv-x="618" d="M92 496v116q156 10 156 216v292q0 310 307 314v-128q-159 -4 -159 -198v-293q0 -210 -150 -258v-4q150 -45 150 -256v-289q0 -111 35.5 -158.5t123.5 -49.5v-126q-307 4 -307 310v300q0 202 -156 212z" />
<glyph unicode="|" horiz-adv-x="490" d="M172 -482v2048h148v-2048h-148z" />
<glyph unicode="}" horiz-adv-x="618" d="M66 -200q87 2 123.5 50t36.5 158v289q0 211 149 256v4q-149 48 -149 258v293q0 194 -160 198v128q306 -4 306 -314v-292q0 -206 156 -216v-116q-156 -10 -156 -212v-300q0 -306 -306 -310v126z" />
<glyph unicode="~" horiz-adv-x="1401" d="M209 440q5 143 79.5 226.5t201.5 83.5q106 0 235 -88q132 -90 197 -90q61 0 98 49t39 129h135q-7 -148 -80.5 -229t-199.5 -81q-109 0 -265 109q-97 67 -159 67q-140 0 -146 -176h-135z" />
<glyph unicode="&#xa2;" horiz-adv-x="1104" d="M184 649q0 219 114.5 366.5t307.5 184.5v213h125v-203q123 -2 221 -51v-172q-101 71 -221 78v-785q122 12 221 86v-157q-96 -59 -221 -69v-189h-125v191q-193 22 -307.5 161t-114.5 346zM352 666q0 -150 68 -249t186 -126v761q-119 -31 -186.5 -133.5t-67.5 -252.5z" />
<glyph unicode="&#xa3;" horiz-adv-x="1104" d="M106 0v135q218 69 218 313v187h-197v141h197v254q0 188 109 308t282 120q117 0 213 -41v-155q-100 57 -211 57q-229 0 -229 -307v-236h296v-141h-296v-156q0 -242 -193 -339h711v-140h-900z" />
<glyph unicode="&#xa5;" horiz-adv-x="1104" d="M68 1434h192l250 -514q28 -58 47 -111h4q13 42 49 117l252 508h180l-356 -656h285v-139h-334v-207h334v-139h-334v-293h-164v293h-344v139h344v207h-344v139h291z" />
<glyph unicode="&#xa8;" horiz-adv-x="848" d="M125 1317q0 42 28.5 70t69.5 28t71 -28.5t30 -69.5t-29 -70t-69 -29q-42 0 -71.5 29.5t-29.5 69.5zM512 1317q0 42 28 70t68 28q42 0 71 -28.5t29 -69.5t-28 -70t-70 -29q-40 0 -69 28t-29 71z" />
<glyph unicode="&#xa9;" horiz-adv-x="1823" d="M162 717q0 311 219.5 530.5t530.5 219.5q310 0 529.5 -219.5t219.5 -530.5t-219.5 -530.5t-529.5 -219.5q-311 0 -530.5 219.5t-219.5 530.5zM250 717q0 -274 194 -467.5t468 -193.5t467.5 193.5t193.5 467.5t-193.5 468t-467.5 194t-468 -194t-194 -468zM483 698 q0 218 133 348t346 130q121 0 217 -53v-150q-86 72 -229 72q-141 0 -232.5 -90t-91.5 -242q0 -148 93.5 -237t237.5 -89q132 0 226 78v-136q-105 -69 -248 -69q-192 0 -322 125t-130 313z" />
<glyph unicode="&#xab;" horiz-adv-x="1036" d="M92 536l299 344h166l-303 -344l303 -336h-166zM479 536l299 344h170l-307 -344l305 -336h-168z" />
<glyph unicode="&#xad;" horiz-adv-x="819" d="M144 506v129h546v-129h-546z" />
<glyph unicode="&#xae;" horiz-adv-x="1823" d="M312 854q0 249 175.5 424.5t424.5 175.5q248 0 423.5 -175.5t175.5 -424.5t-175.5 -424t-423.5 -175q-249 0 -424.5 175t-175.5 424zM406 854q0 -209 148.5 -357t358.5 -148q209 0 356.5 148t147.5 357q0 210 -147.5 358t-356.5 148q-210 0 -358.5 -148t-148.5 -358z M677 479v763h215q133 0 205.5 -56t72.5 -152q0 -78 -51 -133.5t-142 -74.5v-3q63 -14 126 -141l100 -203h-138l-83 183q-63 138 -136 138h-52v-321h-117zM794 898h94q158 0 158 123q0 71 -42.5 96.5t-134.5 25.5h-75v-245z" />
<glyph unicode="&#xb4;" horiz-adv-x="578" d="M135 1218l223 328h166l-262 -328h-127z" />
<glyph unicode="&#xb8;" horiz-adv-x="420" d="M51 -340q43 -6 70 -6q141 0 141 90q0 78 -129 78q-10 0 -41 -4v182h108v-104q88 0 139.5 -40t51.5 -112q0 -176 -275 -176q-38 0 -65 2v90z" />
<glyph unicode="&#xbb;" horiz-adv-x="1036" d="M90 200l308 338l-308 342h170l299 -342l-299 -338h-170zM482 200l302 338l-302 342h165l301 -342l-301 -338h-165z" />
<glyph unicode="&#xc2;" horiz-adv-x="1321" d="M22 0l550 1434h174l552 -1434h-186l-152 402h-608l-143 -402h-187zM363 1565l215 332h133l216 -332h-122l-164 230l-165 -230h-113zM408 553h497l-225 611q-11 30 -22 96h-4q-10 -61 -23 -96z" />
<glyph unicode="&#xc7;" horiz-adv-x="1268" d="M94 690q0 344 207 556t525 212q204 0 338 -59v-179q-154 86 -340 86q-247 0 -400.5 -165t-153.5 -441q0 -262 143.5 -417.5t376.5 -155.5q216 0 374 96v-163q-159 -84 -396 -84q-306 0 -490 197t-184 517zM620 -340q43 -6 70 -6q141 0 141 90q0 78 -129 78q-10 0 -41 -4 v182h108v-104q88 0 139.5 -40t51.5 -112q0 -176 -275 -176q-38 0 -65 2v90z" />
<glyph unicode="&#xce;" horiz-adv-x="545" d="M-4 1567l215 332h133l216 -332h-122l-164 230l-165 -230h-113zM188 0v1434h168v-1434h-168z" />
<glyph unicode="&#xd6;" horiz-adv-x="1544" d="M94 700q0 346 187 552t509 206q297 0 478.5 -200t181.5 -523q0 -351 -186 -555t-498 -204q-305 0 -488.5 201t-183.5 523zM270 715q0 -265 137.5 -426.5t358.5 -161.5q236 0 372 154t136 431q0 284 -132 439t-364 155q-226 0 -367 -163t-141 -428zM483 1662q0 42 28.5 70 t69.5 28t71 -28.5t30 -69.5t-29 -70t-69 -29q-42 0 -71.5 29.5t-29.5 69.5zM870 1662q0 42 28 70t68 28q42 0 71 -28.5t29 -69.5t-28 -70t-70 -29q-40 0 -69 28t-29 71z" />
<glyph unicode="&#xdb;" horiz-adv-x="1407" d="M170 557v877h168v-866q0 -441 372 -441q359 0 359 426v881h168v-854q0 -604 -545 -604q-522 0 -522 581zM423 1567l215 332h133l216 -332h-122l-164 230l-165 -230h-113z" />
<glyph unicode="&#xdc;" horiz-adv-x="1407" d="M170 557v877h168v-866q0 -441 372 -441q359 0 359 426v881h168v-854q0 -604 -545 -604q-522 0 -522 581zM410 1666q0 42 28.5 70t69.5 28t71 -28.5t30 -69.5t-29 -70t-69 -29q-42 0 -71.5 29.5t-29.5 69.5zM797 1666q0 42 28 70t68 28q42 0 71 -28.5t29 -69.5t-28 -70 t-70 -29q-40 0 -69 28t-29 71z" />
<glyph unicode="&#xe2;" horiz-adv-x="1042" d="M90 272q0 287 338 334l307 43q0 261 -211 261q-185 0 -334 -126v168q151 96 348 96q361 0 361 -382v-666h-164v160h-4q-107 -184 -315 -184q-153 0 -239.5 81t-86.5 215zM242 1218l215 332h133l216 -332h-122l-164 230l-165 -230h-113zM258 284q0 -75 53.5 -122.5 t142.5 -47.5q122 0 201.5 85.5t79.5 216.5v102l-247 -34q-114 -16 -172 -56.5t-58 -143.5z" />
<glyph unicode="&#xe7;" horiz-adv-x="946" d="M96 488q0 253 145 406.5t387 153.5q135 0 238 -50v-168q-114 80 -244 80q-157 0 -257.5 -112.5t-100.5 -295.5q0 -180 94.5 -284t253.5 -104q134 0 252 89v-156q-118 -71 -280 -71q-219 0 -353.5 142.5t-134.5 369.5zM438 -340q43 -6 70 -6q141 0 141 90q0 78 -129 78 q-10 0 -41 -4v182h108v-104q88 0 139.5 -40t51.5 -112q0 -176 -275 -176q-38 0 -65 2v90z" />
<glyph unicode="&#xee;" horiz-adv-x="496" d="M-45 1218l215 332h133l216 -332h-122l-164 230l-165 -230h-113zM166 0v1024h164v-1024h-164z" />
<glyph unicode="&#xf6;" horiz-adv-x="1200" d="M96 500q0 258 141 403t381 145q229 0 357.5 -141t128.5 -391q0 -245 -138.5 -392.5t-371.5 -147.5q-227 0 -362.5 143.5t-135.5 380.5zM264 506q0 -182 93 -287t249 -105q159 0 244.5 103t85.5 293q0 192 -85.5 296t-244.5 104q-158 0 -250 -107.5t-92 -296.5zM308 1317 q0 42 28.5 70t69.5 28t71 -28.5t30 -69.5t-29 -70t-69 -29q-42 0 -71.5 29.5t-29.5 69.5zM695 1317q0 42 28 70t68 28q42 0 71 -28.5t29 -69.5t-28 -70t-70 -29q-40 0 -69 28t-29 71z" />
<glyph unicode="&#xfb;" d="M144 412v612h163v-586q0 -324 248 -324q120 0 197.5 88.5t77.5 231.5v590h164v-1024h-164v162h-4q-102 -186 -316 -186q-366 0 -366 436zM290 1218l215 332h133l216 -332h-122l-164 230l-165 -230h-113z" />
<glyph unicode="&#xfc;" d="M144 412v612h163v-586q0 -324 248 -324q120 0 197.5 88.5t77.5 231.5v590h164v-1024h-164v162h-4q-102 -186 -316 -186q-366 0 -366 436zM285 1317q0 42 28.5 70t69.5 28t71 -28.5t30 -69.5t-29 -70t-69 -29q-42 0 -71.5 29.5t-29.5 69.5zM672 1317q0 42 28 70t68 28 q42 0 71 -28.5t29 -69.5t-28 -70t-70 -29q-40 0 -69 28t-29 71z" />
<glyph unicode="&#x100;" horiz-adv-x="1321" d="M22 0l550 1434h174l552 -1434h-186l-152 402h-608l-143 -402h-187zM404 1567v109h508v-109h-508zM408 553h497l-225 611q-11 30 -22 96h-4q-10 -61 -23 -96z" />
<glyph unicode="&#x101;" horiz-adv-x="1042" d="M90 272q0 287 338 334l307 43q0 261 -211 261q-185 0 -334 -126v168q151 96 348 96q361 0 361 -382v-666h-164v160h-4q-107 -184 -315 -184q-153 0 -239.5 81t-86.5 215zM258 284q0 -75 53.5 -122.5t142.5 -47.5q122 0 201.5 85.5t79.5 216.5v102l-247 -34 q-114 -16 -172 -56.5t-58 -143.5zM292 1218v109h508v-109h-508z" />
<glyph unicode="&#x102;" horiz-adv-x="1321" d="M22 0l550 1434h174l552 -1434h-186l-152 402h-608l-143 -402h-187zM383 1819h100q12 -155 172 -155q68 0 116.5 42t58.5 113h102q-10 -113 -88.5 -182.5t-190.5 -69.5q-117 0 -191 69t-79 183zM408 553h497l-225 611q-11 30 -22 96h-4q-10 -61 -23 -96z" />
<glyph unicode="&#x103;" horiz-adv-x="1042" d="M90 272q0 287 338 334l307 43q0 261 -211 261q-185 0 -334 -126v168q151 96 348 96q361 0 361 -382v-666h-164v160h-4q-107 -184 -315 -184q-153 0 -239.5 81t-86.5 215zM256 1470h100q12 -155 172 -155q68 0 116.5 42t58.5 113h102q-10 -113 -88.5 -182.5t-190.5 -69.5 q-117 0 -191 69t-79 183zM258 284q0 -75 53.5 -122.5t142.5 -47.5q122 0 201.5 85.5t79.5 216.5v102l-247 -34q-114 -16 -172 -56.5t-58 -143.5z" />
<glyph unicode="&#x104;" horiz-adv-x="1321" d="M22 0l550 1434h174l552 -1434h-186l-152 402h-608l-143 -402h-187zM408 553h497l-225 611q-11 30 -22 96h-4q-10 -61 -23 -96zM951 -250q0 122 157 250h119q-150 -141 -150 -223q0 -70 68 -70q30 0 56 13v-107q-30 -13 -82 -13q-76 0 -122 40t-46 110z" />
<glyph unicode="&#x105;" horiz-adv-x="1042" d="M90 272q0 287 338 334l307 43q0 261 -211 261q-185 0 -334 -126v168q151 96 348 96q361 0 361 -382v-666h-164v160h-4q-107 -184 -315 -184q-153 0 -239.5 81t-86.5 215zM258 284q0 -75 53.5 -122.5t142.5 -47.5q122 0 201.5 85.5t79.5 216.5v102l-247 -34 q-114 -16 -172 -56.5t-58 -143.5zM574 -250q0 122 157 250h119q-150 -141 -150 -223q0 -70 68 -70q30 0 56 13v-107q-30 -13 -82 -13q-76 0 -122 40t-46 110z" />
<glyph unicode="&#x106;" horiz-adv-x="1268" d="M94 690q0 344 207 556t525 212q204 0 338 -59v-179q-154 86 -340 86q-247 0 -400.5 -165t-153.5 -441q0 -262 143.5 -417.5t376.5 -155.5q216 0 374 96v-163q-159 -84 -396 -84q-306 0 -490 197t-184 517zM604 1566l223 328h166l-262 -328h-127z" />
<glyph unicode="&#x107;" horiz-adv-x="946" d="M96 488q0 253 145 406.5t387 153.5q135 0 238 -50v-168q-114 80 -244 80q-157 0 -257.5 -112.5t-100.5 -295.5q0 -180 94.5 -284t253.5 -104q134 0 252 89v-156q-118 -71 -280 -71q-219 0 -353.5 142.5t-134.5 369.5zM426 1218l223 328h166l-262 -328h-127z" />
<glyph unicode="&#x108;" horiz-adv-x="1268" d="M94 690q0 344 207 556t525 212q204 0 338 -59v-179q-154 86 -340 86q-247 0 -400.5 -165t-153.5 -441q0 -262 143.5 -417.5t376.5 -155.5q216 0 374 96v-163q-159 -84 -396 -84q-306 0 -490 197t-184 517zM483 1568l215 332h133l216 -332h-122l-164 230l-165 -230h-113z " />
<glyph unicode="&#x109;" horiz-adv-x="946" d="M96 488q0 253 145 406.5t387 153.5q135 0 238 -50v-168q-114 80 -244 80q-157 0 -257.5 -112.5t-100.5 -295.5q0 -180 94.5 -284t253.5 -104q134 0 252 89v-156q-118 -71 -280 -71q-219 0 -353.5 142.5t-134.5 369.5zM276 1218l215 332h133l216 -332h-122l-164 230 l-165 -230h-113z" />
<glyph unicode="&#x10a;" horiz-adv-x="1268" d="M94 690q0 344 207 556t525 212q204 0 338 -59v-179q-154 86 -340 86q-247 0 -400.5 -165t-153.5 -441q0 -262 143.5 -417.5t376.5 -155.5q216 0 374 96v-163q-159 -84 -396 -84q-306 0 -490 197t-184 517zM669 1666q0 40 29 68t70 28t69.5 -27.5t28.5 -68.5t-28.5 -70 t-69.5 -29q-40 0 -69.5 28.5t-29.5 70.5z" />
<glyph unicode="&#x10b;" horiz-adv-x="946" d="M96 488q0 253 145 406.5t387 153.5q135 0 238 -50v-168q-114 80 -244 80q-157 0 -257.5 -112.5t-100.5 -295.5q0 -180 94.5 -284t253.5 -104q134 0 252 89v-156q-118 -71 -280 -71q-219 0 -353.5 142.5t-134.5 369.5zM496 1317q0 40 29 68t70 28t69.5 -27.5t28.5 -68.5 t-28.5 -70t-69.5 -29q-40 0 -69.5 28.5t-29.5 70.5z" />
<glyph unicode="&#x10c;" horiz-adv-x="1268" d="M94 690q0 344 207 556t525 212q204 0 338 -59v-179q-154 86 -340 86q-247 0 -400.5 -165t-153.5 -441q0 -262 143.5 -417.5t376.5 -155.5q216 0 374 96v-163q-159 -84 -396 -84q-306 0 -490 197t-184 517zM492 1896h115l164 -229l164 229h119l-214 -330h-132z" />
<glyph unicode="&#x10d;" horiz-adv-x="946" d="M96 488q0 253 145 406.5t387 153.5q135 0 238 -50v-168q-114 80 -244 80q-157 0 -257.5 -112.5t-100.5 -295.5q0 -180 94.5 -284t253.5 -104q134 0 252 89v-156q-118 -71 -280 -71q-219 0 -353.5 142.5t-134.5 369.5zM296 1548h115l164 -229l164 229h119l-214 -330h-132z " />
<glyph unicode="&#x10e;" horiz-adv-x="1436" d="M188 0v1434h396q758 0 758 -699q0 -332 -210.5 -533.5t-563.5 -201.5h-380zM356 152h214q282 0 439 151t157 428q0 551 -586 551h-224v-1130zM400 1896h115l164 -229l164 229h119l-214 -330h-132z" />
<glyph unicode="&#x10f;" horiz-adv-x="1381" d="M96 488q0 254 128 407t341 153q211 0 307 -166h4v634h164v-1516h-164v174h-4q-114 -198 -352 -198q-193 0 -308.5 137.5t-115.5 374.5zM264 496q0 -177 82.5 -279.5t221.5 -102.5q137 0 222.5 99t85.5 250v151q0 124 -82 210t-208 86q-150 0 -236 -110t-86 -304z M1170 1256l117 260h172l-166 -260h-123z" />
<glyph unicode="&#x110;" horiz-adv-x="1436" d="M28 641v155h160v638h396q758 0 758 -699q0 -334 -210.5 -534.5t-563.5 -200.5h-380v641h-160zM356 152h214q282 0 439 151t157 428q0 551 -586 551h-224v-486h336v-155h-336v-489z" />
<glyph unicode="&#x111;" horiz-adv-x="1206" d="M96 488q0 254 128 407t341 153q208 0 307 -166h4v320h-331v134h331v180h164v-180h136v-134h-136v-1202h-164v174h-4q-114 -198 -352 -198q-193 0 -308.5 137.5t-115.5 374.5zM264 496q0 -177 82.5 -279.5t221.5 -102.5q136 0 222 99t86 250v151q0 124 -82 210t-208 86 q-150 0 -236 -110t-86 -304z" />
<glyph unicode="&#x112;" horiz-adv-x="1036" d="M188 0v1434h728v-152h-560v-477h518v-151h-518v-502h592v-152h-760zM316 1566v109h508v-109h-508z" />
<glyph unicode="&#x113;" horiz-adv-x="1071" d="M96 508q0 239 135.5 389.5t336.5 150.5t311 -130t110 -361v-86h-723q4 -171 92 -264t242 -93q173 0 318 114v-154q-135 -98 -357 -98q-217 0 -341 139.5t-124 392.5zM268 610h553q-1 142 -68.5 221t-187.5 79q-116 0 -197 -83t-100 -217zM312 1218v109h508v-109h-508z " />
<glyph unicode="&#x114;" horiz-adv-x="1036" d="M188 0v1434h728v-152h-560v-477h518v-151h-518v-502h592v-152h-760zM280 1820h100q12 -155 172 -155q68 0 116.5 42t58.5 113h102q-10 -113 -88.5 -182.5t-190.5 -69.5q-117 0 -191 69t-79 183z" />
<glyph unicode="&#x115;" horiz-adv-x="1071" d="M96 508q0 239 135.5 389.5t336.5 150.5t311 -130t110 -361v-86h-723q4 -171 92 -264t242 -93q173 0 318 114v-154q-135 -98 -357 -98q-217 0 -341 139.5t-124 392.5zM268 610h553q-1 142 -68.5 221t-187.5 79q-116 0 -197 -83t-100 -217zM282 1470h100q12 -155 172 -155 q68 0 116.5 42t58.5 113h102q-10 -113 -88.5 -182.5t-190.5 -69.5q-117 0 -191 69t-79 183z" />
<glyph unicode="&#x116;" horiz-adv-x="1036" d="M188 0v1434h728v-152h-560v-477h518v-151h-518v-502h592v-152h-760zM451 1666q0 40 29 68t70 28t69.5 -27.5t28.5 -68.5t-28.5 -70t-69.5 -29q-40 0 -69.5 28.5t-29.5 70.5z" />
<glyph unicode="&#x117;" horiz-adv-x="1071" d="M96 508q0 239 135.5 389.5t336.5 150.5t311 -130t110 -361v-86h-723q4 -171 92 -264t242 -93q173 0 318 114v-154q-135 -98 -357 -98q-217 0 -341 139.5t-124 392.5zM268 610h553q-1 142 -68.5 221t-187.5 79q-116 0 -197 -83t-100 -217zM477 1317q0 40 29 68t70 28 t69.5 -27.5t28.5 -68.5t-28.5 -70t-69.5 -29q-40 0 -69.5 28.5t-29.5 70.5z" />
<glyph unicode="&#x118;" horiz-adv-x="1036" d="M188 0v1434h728v-152h-560v-477h518v-151h-518v-502h592v-152h-760zM589 -250q0 122 157 250h119q-150 -141 -150 -223q0 -70 68 -70q30 0 56 13v-107q-30 -13 -82 -13q-76 0 -122 40t-46 110z" />
<glyph unicode="&#x119;" horiz-adv-x="1071" d="M96 508q0 239 135.5 389.5t336.5 150.5t311 -130t110 -361v-86h-723q4 -171 92 -264t242 -93q173 0 318 114v-154q-135 -98 -357 -98q-217 0 -341 139.5t-124 392.5zM268 610h553q-1 142 -68.5 221t-187.5 79q-116 0 -197 -83t-100 -217zM479 -250q0 122 157 250h119 q-150 -141 -150 -223q0 -70 68 -70q30 0 56 13v-107q-30 -13 -82 -13q-76 0 -122 40t-46 110z" />
<glyph unicode="&#x11a;" horiz-adv-x="1036" d="M188 0v1434h728v-152h-560v-477h518v-151h-518v-502h592v-152h-760zM279 1896h115l164 -229l164 229h119l-214 -330h-132z" />
<glyph unicode="&#x11b;" horiz-adv-x="1071" d="M96 508q0 239 135.5 389.5t336.5 150.5t311 -130t110 -361v-86h-723q4 -171 92 -264t242 -93q173 0 318 114v-154q-135 -98 -357 -98q-217 0 -341 139.5t-124 392.5zM268 610h553q-1 142 -68.5 221t-187.5 79q-116 0 -197 -83t-100 -217zM282 1548h115l164 -229l164 229 h119l-214 -330h-132z" />
<glyph unicode="&#x11c;" horiz-adv-x="1405" d="M94 698q0 333 210.5 546.5t533.5 213.5q234 0 393 -76v-186q-174 110 -412 110q-241 0 -395 -166t-154 -430q0 -272 143 -427.5t388 -155.5q168 0 291 67v402h-314v152h482v-650q-216 -122 -480 -122q-307 0 -496.5 198t-189.5 524zM497 1568l215 332h133l216 -332h-122 l-164 230l-165 -230h-113z" />
<glyph unicode="&#x11d;" horiz-adv-x="1206" d="M96 479q0 261 125.5 415t343.5 154q207 0 307 -166h4v142h164v-942q0 -564 -540 -564q-190 0 -332 72v164q173 -96 330 -96q378 0 378 402v112h-4q-117 -196 -352 -196q-191 0 -307.5 136.5t-116.5 366.5zM264 490q0 -171 82.5 -273.5t218.5 -102.5q138 0 224.5 98 t86.5 251v151q0 122 -82.5 209t-205.5 87q-152 0 -238 -110.5t-86 -309.5zM301 1218l215 332h133l216 -332h-122l-164 230l-165 -230h-113z" />
<glyph unicode="&#x11e;" horiz-adv-x="1405" d="M94 698q0 333 210.5 546.5t533.5 213.5q234 0 393 -76v-186q-174 110 -412 110q-241 0 -395 -166t-154 -430q0 -272 143 -427.5t388 -155.5q168 0 291 67v402h-314v152h482v-650q-216 -122 -480 -122q-307 0 -496.5 198t-189.5 524zM519 1817h100q12 -155 172 -155 q68 0 116.5 42t58.5 113h102q-10 -113 -88.5 -182.5t-190.5 -69.5q-117 0 -191 69t-79 183z" />
<glyph unicode="&#x11f;" horiz-adv-x="1206" d="M96 479q0 261 125.5 415t343.5 154q207 0 307 -166h4v142h164v-942q0 -564 -540 -564q-190 0 -332 72v164q173 -96 330 -96q378 0 378 402v112h-4q-117 -196 -352 -196q-191 0 -307.5 136.5t-116.5 366.5zM264 490q0 -171 82.5 -273.5t218.5 -102.5q138 0 224.5 98 t86.5 251v151q0 122 -82.5 209t-205.5 87q-152 0 -238 -110.5t-86 -309.5zM319 1470h100q12 -155 172 -155q68 0 116.5 42t58.5 113h102q-10 -113 -88.5 -182.5t-190.5 -69.5q-117 0 -191 69t-79 183z" />
<glyph unicode="&#x120;" horiz-adv-x="1405" d="M94 698q0 333 210.5 546.5t533.5 213.5q234 0 393 -76v-186q-174 110 -412 110q-241 0 -395 -166t-154 -430q0 -272 143 -427.5t388 -155.5q168 0 291 67v402h-314v152h482v-650q-216 -122 -480 -122q-307 0 -496.5 198t-189.5 524zM699 1666q0 40 29 68t70 28 t69.5 -27.5t28.5 -68.5t-28.5 -70t-69.5 -29q-40 0 -69.5 28.5t-29.5 70.5z" />
<glyph unicode="&#x121;" horiz-adv-x="1206" d="M96 479q0 261 125.5 415t343.5 154q207 0 307 -166h4v142h164v-942q0 -564 -540 -564q-190 0 -332 72v164q173 -96 330 -96q378 0 378 402v112h-4q-117 -196 -352 -196q-191 0 -307.5 136.5t-116.5 366.5zM264 490q0 -171 82.5 -273.5t218.5 -102.5q138 0 224.5 98 t86.5 251v151q0 122 -82.5 209t-205.5 87q-152 0 -238 -110.5t-86 -309.5zM476 1317q0 40 29 68t70 28t69.5 -27.5t28.5 -68.5t-28.5 -70t-69.5 -29q-40 0 -69.5 28.5t-29.5 70.5z" />
<glyph unicode="&#x122;" horiz-adv-x="1405" d="M94 698q0 333 210.5 546.5t533.5 213.5q234 0 393 -76v-186q-174 110 -412 110q-241 0 -395 -166t-154 -430q0 -272 143 -427.5t388 -155.5q168 0 291 67v402h-314v152h482v-650q-216 -122 -480 -122q-307 0 -496.5 198t-189.5 524zM596 -379l117 260h172l-166 -260h-123 z" />
<glyph unicode="&#x123;" horiz-adv-x="1206" d="M96 479q0 261 125.5 415t343.5 154q209 0 307 -166h4v142h164v-942q0 -564 -540 -564q-193 0 -332 72v164q174 -96 330 -96q378 0 378 402v112h-4q-116 -196 -352 -196q-190 0 -307 137.5t-117 365.5zM264 490q0 -170 83 -273t218 -103q139 0 225 97.5t86 251.5v151 q0 121 -82 208.5t-206 87.5q-154 0 -239 -111t-85 -309zM471 1218l166 260h123l-117 -260h-172z" />
<glyph unicode="&#x124;" horiz-adv-x="1454" d="M188 0v1434h168v-629h742v629h168v-1434h-168v654h-742v-654h-168zM442 1566l215 332h133l216 -332h-122l-164 230l-165 -230h-113z" />
<glyph unicode="&#x125;" d="M166 0v1516h164v-662h4q118 194 336 194q346 0 346 -417v-631h-164v590q0 320 -238 320q-120 0 -202 -92.5t-82 -237.5v-580h-164zM348 1647l215 332h133l216 -332h-122l-164 230l-165 -230h-113z" />
<glyph unicode="&#x126;" horiz-adv-x="1454" d="M28 1028v152h160v254h168v-254h742v254h168v-254h160v-152h-160v-1028h-168v654h-742v-654h-168v1028h-160zM356 805h742v223h-742v-223z" />
<glyph unicode="&#x127;" d="M30 1202v134h136v180h164v-180h332v-134h-332v-348h4q120 194 336 194q168 0 257 -107t89 -310v-631h-164v590q0 320 -238 320q-120 0 -202 -92.5t-82 -237.5v-580h-164v1202h-136z" />
<glyph unicode="&#x128;" horiz-adv-x="545" d="M-48 1548q0 107 48 171.5t134 64.5q65 0 149 -52q74 -44 128 -44q84 0 84 116h98q0 -105 -48 -171.5t-130 -66.5q-71 0 -162 52q-77 43 -119 43q-88 0 -88 -113h-94zM188 0v1434h168v-1434h-168z" />
<glyph unicode="&#x129;" horiz-adv-x="496" d="M-83 1202q0 107 48 171.5t134 64.5q65 0 149 -52q74 -44 128 -44q84 0 84 116h98q0 -105 -48 -171.5t-130 -66.5q-71 0 -162 52q-77 43 -119 43q-88 0 -88 -113h-94zM166 0v1024h164v-1024h-164z" />
<glyph unicode="&#x12a;" horiz-adv-x="545" d="M19 1566v109h508v-109h-508zM188 0v1434h168v-1434h-168z" />
<glyph unicode="&#x12b;" horiz-adv-x="496" d="M-17 1218v109h508v-109h-508zM166 0v1024h164v-1024h-164z" />
<glyph unicode="&#x12c;" horiz-adv-x="545" d="M-2 1818h100q12 -155 172 -155q68 0 116.5 42t58.5 113h102q-10 -113 -88.5 -182.5t-190.5 -69.5q-117 0 -191 69t-79 183zM188 0v1434h168v-1434h-168z" />
<glyph unicode="&#x12d;" horiz-adv-x="496" d="M-37 1470h100q12 -155 172 -155q68 0 116.5 42t58.5 113h102q-10 -113 -88.5 -182.5t-190.5 -69.5q-117 0 -191 69t-79 183zM166 0v1024h164v-1024h-164z" />
<glyph unicode="&#x12e;" horiz-adv-x="545" d="M80 -250q0 122 157 250h119q-150 -141 -150 -223q0 -70 68 -70q30 0 56 13v-107q-30 -13 -82 -13q-76 0 -122 40t-46 110zM188 0v1434h168v-1434h-168z" />
<glyph unicode="&#x12f;" horiz-adv-x="496" d="M55 -250q0 122 157 250h119q-150 -141 -150 -223q0 -70 68 -70q30 0 56 13v-107q-30 -13 -82 -13q-76 0 -122 40t-46 110zM144 1390q0 46 31 76.5t75 30.5q45 0 76.5 -30.5t31.5 -76.5q0 -44 -31.5 -75t-76.5 -31q-44 0 -75 30t-31 76zM166 0v1024h164v-1024h-164z" />
<glyph unicode="&#x130;" horiz-adv-x="545" d="M173 1666q0 40 29 68t70 28t69.5 -27.5t28.5 -68.5t-28.5 -70t-69.5 -29q-40 0 -69.5 28.5t-29.5 70.5zM188 0v1434h168v-1434h-168z" />
<glyph unicode="&#x131;" horiz-adv-x="496" d="M166 0v1024h164v-1024h-164z" />
<glyph unicode="&#x132;" horiz-adv-x="1276" d="M188 0v1434h168v-1434h-168zM567 0v166q54 -39 140 -39q227 0 227 385v922h168v-920q0 -255 -108 -396.5t-289 -141.5q-84 0 -138 24z" />
<glyph unicode="&#x133;" horiz-adv-x="1014" d="M144 1390q0 46 31 76.5t75 30.5q45 0 76.5 -30.5t31.5 -76.5q0 -44 -31.5 -75t-76.5 -31q-44 0 -75 30t-31 76zM166 0v1024h164v-1024h-164zM320 -297q74 -45 140 -45q224 0 224 358v1008h164v-981q0 -252 -101.5 -388.5t-290.5 -136.5q-70 0 -136 32v153zM662 1390 q0 46 31 76.5t75 30.5q45 0 76.5 -30.5t31.5 -76.5q0 -44 -31.5 -75t-76.5 -31q-44 0 -75 30t-31 76z" />
<glyph unicode="&#x134;" horiz-adv-x="731" d="M20 0v166q54 -39 140 -39q227 0 227 385v922h168v-920q0 -255 -108 -396.5t-289 -141.5q-84 0 -138 24zM190 1566l215 332h133l216 -332h-122l-164 230l-165 -230h-113z" />
<glyph unicode="&#x135;" horiz-adv-x="496" d="M-198 -297q74 -45 140 -45q224 0 224 358v1008h164v-981q0 -252 -101.5 -388.5t-290.5 -136.5q-70 0 -136 32v153zM-37 1218l215 332h133l216 -332h-122l-164 230l-165 -230h-113z" />
<glyph unicode="&#x136;" horiz-adv-x="1188" d="M188 0v1434h168v-674h4q14 22 38 49l536 625h209l-615 -688l658 -746h-234l-554 656q-31 37 -38 50h-4v-706h-168zM453 -379l117 260h172l-166 -260h-123z" />
<glyph unicode="&#x137;" horiz-adv-x="1018" d="M166 0v1516h164v-961h4l430 469h215l-475 -494l512 -530h-230l-452 492h-4v-492h-164zM354 -379l117 260h172l-166 -260h-123z" />
<glyph unicode="&#x138;" horiz-adv-x="1018" d="M166 0v1024h164v-469h4l430 469h215l-475 -494l512 -530h-230l-452 492h-4v-492h-164z" />
<glyph unicode="&#x139;" horiz-adv-x="964" d="M188 0v1434h168v-1282h576v-152h-744zM467 1566l223 328h166l-262 -328h-127z" />
<glyph unicode="&#x13a;" horiz-adv-x="496" d="M142 1651l223 328h166l-262 -328h-127zM166 0v1516h164v-1516h-164z" />
<glyph unicode="&#x13b;" horiz-adv-x="964" d="M188 0v1434h168v-1282h576v-152h-744zM426 -340q43 -6 70 -6q141 0 141 90q0 78 -129 78q-10 0 -41 -4v182h108v-104q88 0 139.5 -40t51.5 -112q0 -176 -275 -176q-38 0 -65 2v90z" />
<glyph unicode="&#x13c;" horiz-adv-x="496" d="M137 -340q43 -6 70 -6q141 0 141 90q0 78 -129 78q-10 0 -41 -4v182h108v-104q88 0 139.5 -40t51.5 -112q0 -176 -275 -176q-38 0 -65 2v90zM166 0v1516h164v-1516h-164z" />
<glyph unicode="&#x13d;" horiz-adv-x="964" d="M188 0v1434h168v-1282h576v-152h-744zM616 1174l117 260h172l-166 -260h-123z" />
<glyph unicode="&#x13e;" horiz-adv-x="629" d="M166 0v1516h164v-1516h-164zM418 1250l117 260h172l-166 -260h-123z" />
<glyph unicode="&#x13f;" horiz-adv-x="964" d="M188 0v1434h168v-1282h576v-152h-744zM637 765q0 40 29 68t70 28t69.5 -27.5t28.5 -68.5t-28.5 -70t-69.5 -29q-40 0 -69.5 28.5t-29.5 70.5z" />
<glyph unicode="&#x140;" horiz-adv-x="645" d="M166 0v1516h164v-1516h-164zM450 765q0 40 29 68t70 28t69.5 -27.5t28.5 -68.5t-28.5 -70t-69.5 -29q-40 0 -69.5 28.5t-29.5 70.5z" />
<glyph unicode="&#x141;" horiz-adv-x="964" d="M33 450v152l155 96v736h168v-631l328 203v-154l-328 -200v-500h576v-152h-744v547z" />
<glyph unicode="&#x142;" horiz-adv-x="561" d="M22 459v157l170 119v781h164v-670l174 122v-157l-174 -123v-688h-164v578z" />
<glyph unicode="&#x143;" horiz-adv-x="1532" d="M188 0v1434h218l718 -1125q45 -70 58 -96h4q-10 62 -10 211v1010h168v-1434h-206l-738 1143q-28 43 -46 90h-6q8 -46 8 -197v-1036h-168zM617 1566l223 328h166l-262 -328h-127z" />
<glyph unicode="&#x144;" d="M166 0v1024h164v-170h4q116 194 336 194q168 0 257 -108.5t89 -313.5v-626h-164v584q0 326 -238 326q-123 0 -203.5 -92.5t-80.5 -233.5v-584h-164zM447 1218l223 328h166l-262 -328h-127z" />
<glyph unicode="&#x145;" horiz-adv-x="1532" d="M188 0v1434h218l718 -1125q45 -70 58 -96h4q-10 62 -10 211v1010h168v-1434h-206l-738 1143q-28 43 -46 90h-6q8 -46 8 -197v-1036h-168zM581 -379l117 260h172l-166 -260h-123z" />
<glyph unicode="&#x146;" d="M166 0v1024h164v-170h4q116 194 336 194q168 0 257 -108.5t89 -313.5v-626h-164v584q0 326 -238 326q-123 0 -203.5 -92.5t-80.5 -233.5v-584h-164zM404 -379l117 260h172l-166 -260h-123z" />
<glyph unicode="&#x147;" horiz-adv-x="1532" d="M188 0v1434h218l718 -1125q45 -70 58 -96h4q-10 62 -10 211v1010h168v-1434h-206l-738 1143q-28 43 -46 90h-6q8 -46 8 -197v-1036h-168zM484 1896h115l164 -229l164 229h119l-214 -330h-132z" />
<glyph unicode="&#x148;" d="M166 0v1024h164v-170h4q116 194 336 194q168 0 257 -108.5t89 -313.5v-626h-164v584q0 326 -238 326q-123 0 -203.5 -92.5t-80.5 -233.5v-584h-164zM320 1548h115l164 -229l164 229h119l-214 -330h-132z" />
<glyph unicode="&#x149;" horiz-adv-x="1241" d="M-41 1012l111 446h147l-140 -446h-118zM248 0v1024h164v-170h4q116 194 336 194q168 0 257 -108.5t89 -313.5v-626h-164v584q0 326 -238 326q-123 0 -203.5 -92.5t-80.5 -233.5v-584h-164z" />
<glyph unicode="&#x14a;" horiz-adv-x="1532" d="M188 0v1434h218l718 -1066q2 -2 58 -104h4q-10 72 -10 220v950h168v-1370q0 -486 -365 -486q-76 0 -137 31v165q78 -44 141 -44q189 0 189 270l-772 1143q-22 32 -46 90h-6q8 -53 8 -197v-1036h-168z" />
<glyph unicode="&#x14b;" d="M166 0v1024h164v-170h4q117 194 336 194q346 0 346 -422v-600q0 -448 -358 -448q-76 0 -138 31v165q78 -44 142 -44q190 0 190 270v584q0 326 -238 326q-122 0 -203 -92.5t-81 -233.5v-584h-164z" />
<glyph unicode="&#x14c;" horiz-adv-x="1544" d="M94 700q0 346 187 552t509 206q297 0 478.5 -200t181.5 -523q0 -351 -186 -555t-498 -204q-305 0 -488.5 201t-183.5 523zM270 715q0 -265 137.5 -426.5t358.5 -161.5q236 0 372 154t136 431q0 284 -132 439t-364 155q-226 0 -367 -163t-141 -428zM524 1566v109h508v-109 h-508z" />
<glyph unicode="&#x14d;" horiz-adv-x="1200" d="M96 500q0 258 141 403t381 145q229 0 357.5 -141t128.5 -391q0 -245 -138.5 -392.5t-371.5 -147.5q-227 0 -362.5 143.5t-135.5 380.5zM264 506q0 -182 93 -287t249 -105q159 0 244.5 103t85.5 293q0 192 -85.5 296t-244.5 104q-158 0 -250 -107.5t-92 -296.5zM356 1218 v109h508v-109h-508z" />
<glyph unicode="&#x14e;" horiz-adv-x="1544" d="M94 700q0 346 187 552t509 206q297 0 478.5 -200t181.5 -523q0 -351 -186 -555t-498 -204q-305 0 -488.5 201t-183.5 523zM270 715q0 -265 137.5 -426.5t358.5 -161.5q236 0 372 154t136 431q0 284 -132 439t-364 155q-226 0 -367 -163t-141 -428zM508 1820h100 q12 -155 172 -155q68 0 116.5 42t58.5 113h102q-10 -113 -88.5 -182.5t-190.5 -69.5q-117 0 -191 69t-79 183z" />
<glyph unicode="&#x14f;" horiz-adv-x="1200" d="M96 500q0 258 141 403t381 145q229 0 357.5 -141t128.5 -391q0 -245 -138.5 -392.5t-371.5 -147.5q-227 0 -362.5 143.5t-135.5 380.5zM264 506q0 -182 93 -287t249 -105q159 0 244.5 103t85.5 293q0 192 -85.5 296t-244.5 104q-158 0 -250 -107.5t-92 -296.5zM346 1470 h100q12 -155 172 -155q68 0 116.5 42t58.5 113h102q-10 -113 -88.5 -182.5t-190.5 -69.5q-117 0 -191 69t-79 183z" />
<glyph unicode="&#x150;" horiz-adv-x="1544" d="M94 700q0 346 187 552t509 206q297 0 478.5 -200t181.5 -523q0 -351 -186 -555t-498 -204q-305 0 -488.5 201t-183.5 523zM270 715q0 -265 137.5 -426.5t358.5 -161.5q236 0 372 154t136 431q0 284 -132 439t-364 155q-226 0 -367 -163t-141 -428zM545 1568l206 318h130 l-240 -318h-96zM786 1568l209 318h133l-245 -318h-97z" />
<glyph unicode="&#x151;" horiz-adv-x="1200" d="M96 500q0 258 141 403t381 145q229 0 357.5 -141t128.5 -391q0 -245 -138.5 -392.5t-371.5 -147.5q-227 0 -362.5 143.5t-135.5 380.5zM264 506q0 -182 93 -287t249 -105q159 0 244.5 103t85.5 293q0 192 -85.5 296t-244.5 104q-158 0 -250 -107.5t-92 -296.5zM383 1218 l206 318h130l-240 -318h-96zM624 1218l209 318h133l-245 -318h-97z" />
<glyph unicode="&#x152;" horiz-adv-x="1906" d="M94 700q0 346 189.5 552t514.5 206q90 0 178 -10q112 -14 114 -14h688v-152h-560v-477h518v-151h-518v-502h592v-152h-720q-16 0 -138 -14q-98 -10 -182 -10q-312 0 -494 201t-182 523zM270 715q0 -258 139.5 -423t366.5 -165q116 0 274 33v1118q-160 28 -268 28 q-229 0 -370.5 -166t-141.5 -425z" />
<glyph unicode="&#x153;" horiz-adv-x="1900" d="M96 498q0 258 142 404t382 146q294 0 402 -235h4q119 235 385 235q196 0 305 -131.5t109 -357.5v-88h-725q3 -171 91.5 -264t242.5 -93q175 0 319 114v-154q-136 -98 -357 -98q-270 0 -382 237h-4q-131 -237 -416 -237q-229 0 -363.5 143t-134.5 379zM264 502 q0 -180 92 -284t248 -104q159 0 245.5 102.5t86.5 291.5q0 194 -86.5 298t-243.5 104q-158 0 -250 -108.5t-92 -299.5zM1102 610h555q-2 142 -69 221t-183 79q-120 0 -203.5 -85.5t-99.5 -214.5z" />
<glyph unicode="&#x154;" horiz-adv-x="1225" d="M188 0v1434h428q94 0 173.5 -23.5t138 -71.5t91.5 -119.5t33 -167.5q0 -75 -22.5 -137.5t-64 -111.5t-100 -83.5t-131.5 -53.5v-4q36 -16 62.5 -36.5t50.5 -48.5t47.5 -63.5t52.5 -82.5l269 -431h-200l-240 402q-33 56 -64 95.5t-63.5 64.5t-70 36.5t-84.5 11.5h-138 v-610h-168zM356 762h228q63 0 116.5 19t92.5 54.5t61 87t22 115.5q0 115 -74.5 179.5t-215.5 64.5h-230v-520zM486 1566l223 328h166l-262 -328h-127z" />
<glyph unicode="&#x155;" horiz-adv-x="712" d="M166 0v1024h164v-211h4q35 108 107 168.5t161 60.5q64 0 98 -14v-170q-43 33 -124 33q-105 0 -175.5 -99t-70.5 -270v-522h-164zM299 1218l223 328h166l-262 -328h-127z" />
<glyph unicode="&#x156;" horiz-adv-x="1225" d="M188 0v1434h428q94 0 173.5 -23.5t138 -71.5t91.5 -119.5t33 -167.5q0 -75 -22.5 -137.5t-64 -111.5t-100 -83.5t-131.5 -53.5v-4q36 -16 62.5 -36.5t50.5 -48.5t47.5 -63.5t52.5 -82.5l269 -431h-200l-240 402q-33 56 -64 95.5t-63.5 64.5t-70 36.5t-84.5 11.5h-138 v-610h-168zM356 762h228q63 0 116.5 19t92.5 54.5t61 87t22 115.5q0 115 -74.5 179.5t-215.5 64.5h-230v-520zM447 -379l117 260h172l-166 -260h-123z" />
<glyph unicode="&#x157;" horiz-adv-x="712" d="M166 0v1024h164v-211h4q35 108 107 168.5t161 60.5q64 0 98 -14v-170q-43 33 -124 33q-105 0 -175.5 -99t-70.5 -270v-522h-164zM244 -379l117 260h172l-166 -260h-123z" />
<glyph unicode="&#x158;" horiz-adv-x="1225" d="M188 0v1434h428q94 0 173.5 -23.5t138 -71.5t91.5 -119.5t33 -167.5q0 -75 -22.5 -137.5t-64 -111.5t-100 -83.5t-131.5 -53.5v-4q36 -16 62.5 -36.5t50.5 -48.5t47.5 -63.5t52.5 -82.5l269 -431h-200l-240 402q-33 56 -64 95.5t-63.5 64.5t-70 36.5t-84.5 11.5h-138 v-610h-168zM329 1896h115l164 -229l164 229h119l-214 -330h-132zM356 762h228q63 0 116.5 19t92.5 54.5t61 87t22 115.5q0 115 -74.5 179.5t-215.5 64.5h-230v-520z" />
<glyph unicode="&#x159;" horiz-adv-x="712" d="M151 1548h115l164 -229l164 229h119l-214 -330h-132zM166 0v1024h164v-211h4q35 108 107 168.5t161 60.5q64 0 98 -14v-170q-43 33 -124 33q-105 0 -175.5 -99t-70.5 -270v-522h-164z" />
<glyph unicode="&#x15a;" horiz-adv-x="1088" d="M121 58v198q34 -30 81.5 -54t100 -40.5t105.5 -25.5t98 -9q155 0 231.5 57.5t76.5 165.5q0 58 -25.5 101t-70.5 78.5t-106.5 68t-132.5 68.5q-75 38 -140 77t-113 86t-75.5 106.5t-27.5 139.5q0 98 43 170.5t113 119.5t159.5 70t182.5 23q212 0 309 -51v-189 q-127 88 -326 88q-55 0 -110 -11.5t-98 -37.5t-70 -67t-27 -100q0 -55 20.5 -95t60.5 -73t97.5 -64t132.5 -68q77 -38 146 -80t121 -93t82.5 -113t30.5 -142q0 -106 -41.5 -179.5t-112 -119.5t-162.5 -66.5t-194 -20.5q-34 0 -84 5.5t-102 16t-98.5 26t-74.5 34.5zM432 1565 l223 328h166l-262 -328h-127z" />
<glyph unicode="&#x15b;" horiz-adv-x="869" d="M104 37v176q134 -99 295 -99q216 0 216 144q0 41 -18.5 69.5t-50 50.5t-74 39.5t-91.5 36.5q-68 27 -119.5 54.5t-86 62t-52 78.5t-17.5 103q0 72 33 127.5t88 93t125.5 56.5t145.5 19q133 0 238 -46v-166q-113 74 -260 74q-46 0 -83 -10.5t-63.5 -29.5t-41 -45.5 t-14.5 -58.5q0 -40 14.5 -67t42.5 -48t68 -38t91 -37q68 -26 122 -53.5t92 -62t58.5 -79.5t20.5 -107q0 -76 -33.5 -132t-89.5 -93t-129 -55t-153 -18q-158 0 -274 61zM325 1218l223 328h166l-262 -328h-127z" />
<glyph unicode="&#x15c;" horiz-adv-x="1088" d="M121 58v198q34 -30 81.5 -54t100 -40.5t105.5 -25.5t98 -9q155 0 231.5 57.5t76.5 165.5q0 58 -25.5 101t-70.5 78.5t-106.5 68t-132.5 68.5q-75 38 -140 77t-113 86t-75.5 106.5t-27.5 139.5q0 98 43 170.5t113 119.5t159.5 70t182.5 23q212 0 309 -51v-189 q-127 88 -326 88q-55 0 -110 -11.5t-98 -37.5t-70 -67t-27 -100q0 -55 20.5 -95t60.5 -73t97.5 -64t132.5 -68q77 -38 146 -80t121 -93t82.5 -113t30.5 -142q0 -106 -41.5 -179.5t-112 -119.5t-162.5 -66.5t-194 -20.5q-34 0 -84 5.5t-102 16t-98.5 26t-74.5 34.5zM269 1566 l215 332h133l216 -332h-122l-164 230l-165 -230h-113z" />
<glyph unicode="&#x15d;" horiz-adv-x="869" d="M104 37v176q134 -99 295 -99q216 0 216 144q0 41 -18.5 69.5t-50 50.5t-74 39.5t-91.5 36.5q-68 27 -119.5 54.5t-86 62t-52 78.5t-17.5 103q0 72 33 127.5t88 93t125.5 56.5t145.5 19q133 0 238 -46v-166q-113 74 -260 74q-46 0 -83 -10.5t-63.5 -29.5t-41 -45.5 t-14.5 -58.5q0 -40 14.5 -67t42.5 -48t68 -38t91 -37q68 -26 122 -53.5t92 -62t58.5 -79.5t20.5 -107q0 -76 -33.5 -132t-89.5 -93t-129 -55t-153 -18q-158 0 -274 61zM147 1218l215 332h133l216 -332h-122l-164 230l-165 -230h-113z" />
<glyph unicode="&#x15e;" horiz-adv-x="1088" d="M121 58v198q34 -30 81.5 -54t100 -40.5t105.5 -25.5t98 -9q155 0 231.5 57.5t76.5 165.5q0 58 -25.5 101t-70.5 78.5t-106.5 68t-132.5 68.5q-75 38 -140 77t-113 86t-75.5 106.5t-27.5 139.5q0 98 43 170.5t113 119.5t159.5 70t182.5 23q212 0 309 -51v-189 q-127 88 -326 88q-55 0 -110 -11.5t-98 -37.5t-70 -67t-27 -100q0 -55 20.5 -95t60.5 -73t97.5 -64t132.5 -68q77 -38 146 -80t121 -93t82.5 -113t30.5 -142q0 -106 -41.5 -179.5t-112 -119.5t-162.5 -66.5t-194 -20.5q-34 0 -84 5.5t-102 16t-98.5 26t-74.5 34.5zM425 -340 q43 -6 70 -6q141 0 141 90q0 78 -129 78q-10 0 -41 -4v182h108v-104q88 0 139.5 -40t51.5 -112q0 -176 -275 -176q-38 0 -65 2v90z" />
<glyph unicode="&#x15f;" horiz-adv-x="869" d="M104 37v176q134 -99 295 -99q216 0 216 144q0 41 -18.5 69.5t-50 50.5t-74 39.5t-91.5 36.5q-68 27 -119.5 54.5t-86 62t-52 78.5t-17.5 103q0 72 33 127.5t88 93t125.5 56.5t145.5 19q133 0 238 -46v-166q-113 74 -260 74q-46 0 -83 -10.5t-63.5 -29.5t-41 -45.5 t-14.5 -58.5q0 -40 14.5 -67t42.5 -48t68 -38t91 -37q68 -26 122 -53.5t92 -62t58.5 -79.5t20.5 -107q0 -76 -33.5 -132t-89.5 -93t-129 -55t-153 -18q-158 0 -274 61zM310 -340q43 -6 70 -6q141 0 141 90q0 78 -129 78q-10 0 -41 -4v182h108v-104q88 0 139.5 -40t51.5 -112 q0 -176 -275 -176q-38 0 -65 2v90z" />
<glyph unicode="&#x160;" horiz-adv-x="1088" d="M121 58v198q34 -30 81.5 -54t100 -40.5t105.5 -25.5t98 -9q155 0 231.5 57.5t76.5 165.5q0 58 -25.5 101t-70.5 78.5t-106.5 68t-132.5 68.5q-75 38 -140 77t-113 86t-75.5 106.5t-27.5 139.5q0 98 43 170.5t113 119.5t159.5 70t182.5 23q212 0 309 -51v-189 q-127 88 -326 88q-55 0 -110 -11.5t-98 -37.5t-70 -67t-27 -100q0 -55 20.5 -95t60.5 -73t97.5 -64t132.5 -68q77 -38 146 -80t121 -93t82.5 -113t30.5 -142q0 -106 -41.5 -179.5t-112 -119.5t-162.5 -66.5t-194 -20.5q-34 0 -84 5.5t-102 16t-98.5 26t-74.5 34.5zM264 1898 h115l164 -229l164 229h119l-214 -330h-132z" />
<glyph unicode="&#x161;" horiz-adv-x="869" d="M104 37v176q134 -99 295 -99q216 0 216 144q0 41 -18.5 69.5t-50 50.5t-74 39.5t-91.5 36.5q-68 27 -119.5 54.5t-86 62t-52 78.5t-17.5 103q0 72 33 127.5t88 93t125.5 56.5t145.5 19q133 0 238 -46v-166q-113 74 -260 74q-46 0 -83 -10.5t-63.5 -29.5t-41 -45.5 t-14.5 -58.5q0 -40 14.5 -67t42.5 -48t68 -38t91 -37q68 -26 122 -53.5t92 -62t58.5 -79.5t20.5 -107q0 -76 -33.5 -132t-89.5 -93t-129 -55t-153 -18q-158 0 -274 61zM120 1548h115l164 -229l164 229h119l-214 -330h-132z" />
<glyph unicode="&#x162;" horiz-adv-x="1073" d="M41 1282v152h995v-152h-414v-1282h-168v1282h-413zM424 -340q43 -6 70 -6q141 0 141 90q0 78 -129 78q-10 0 -41 -4v182h108v-104q88 0 139.5 -40t51.5 -112q0 -176 -275 -176q-38 0 -65 2v90z" />
<glyph unicode="&#x163;" horiz-adv-x="694" d="M43 884v140h176v250l164 53v-303h258v-140h-258v-577q0 -103 35 -147t116 -44q62 0 107 34v-140q-58 -32 -153 -32q-269 0 -269 300v606h-176zM326 -340q43 -6 70 -6q141 0 141 90q0 78 -129 78q-10 0 -41 -4v182h108v-104q88 0 139.5 -40t51.5 -112q0 -176 -275 -176 q-38 0 -65 2v90z" />
<glyph unicode="&#x164;" horiz-adv-x="1073" d="M41 1282v152h995v-152h-414v-1282h-168v1282h-413zM259 1896h115l164 -229l164 229h119l-214 -330h-132z" />
<glyph unicode="&#x165;" horiz-adv-x="901" d="M43 884v140h176v250l164 53v-303h258v-140h-258v-577q0 -103 35 -147t116 -44q62 0 107 34v-140q-58 -32 -153 -32q-269 0 -269 300v606h-176zM690 1134l117 260h172l-166 -260h-123z" />
<glyph unicode="&#x166;" horiz-adv-x="1073" d="M41 1282v152h995v-152h-414v-486h246v-155h-246v-641h-168v641h-249v155h249v486h-413z" />
<glyph unicode="&#x167;" horiz-adv-x="694" d="M43 884v140h176v250q4 2 82 27l82 26v-303h258v-140h-258v-204h248v-133h-248v-240q0 -103 34.5 -147t116.5 -44q60 0 107 34v-140q-58 -32 -153 -32q-269 0 -269 300v269h-163v133h163v204h-176z" />
<glyph unicode="&#x168;" horiz-adv-x="1407" d="M170 557v877h168v-866q0 -441 372 -441q359 0 359 426v881h168v-854q0 -604 -545 -604q-522 0 -522 581zM386 1550q0 107 48 171.5t134 64.5q65 0 149 -52q74 -44 128 -44q84 0 84 116h98q0 -105 -48 -171.5t-130 -66.5q-71 0 -162 52q-77 43 -119 43q-88 0 -88 -113h-94 z" />
<glyph unicode="&#x169;" d="M144 412v612h163v-586q0 -324 248 -324q120 0 197.5 88.5t77.5 231.5v590h164v-1024h-164v162h-4q-102 -186 -316 -186q-366 0 -366 436zM249 1202q0 107 48 171.5t134 64.5q65 0 149 -52q74 -44 128 -44q84 0 84 116h98q0 -105 -48 -171.5t-130 -66.5q-71 0 -162 52 q-77 43 -119 43q-88 0 -88 -113h-94z" />
<glyph unicode="&#x16a;" horiz-adv-x="1407" d="M170 557v877h168v-866q0 -441 372 -441q359 0 359 426v881h168v-854q0 -604 -545 -604q-522 0 -522 581zM447 1566v109h508v-109h-508z" />
<glyph unicode="&#x16b;" d="M144 412v612h163v-586q0 -324 248 -324q120 0 197.5 88.5t77.5 231.5v590h164v-1024h-164v162h-4q-102 -186 -316 -186q-366 0 -366 436zM311 1218v109h508v-109h-508z" />
<glyph unicode="&#x16c;" horiz-adv-x="1407" d="M170 557v877h168v-866q0 -441 372 -441q359 0 359 426v881h168v-854q0 -604 -545 -604q-522 0 -522 581zM425 1818h100q12 -155 172 -155q68 0 116.5 42t58.5 113h102q-10 -113 -88.5 -182.5t-190.5 -69.5q-117 0 -191 69t-79 183z" />
<glyph unicode="&#x16d;" d="M144 412v612h163v-586q0 -324 248 -324q120 0 197.5 88.5t77.5 231.5v590h164v-1024h-164v162h-4q-102 -186 -316 -186q-366 0 -366 436zM290 1470h100q12 -155 172 -155q68 0 116.5 42t58.5 113h102q-10 -113 -88.5 -182.5t-190.5 -69.5q-117 0 -191 69t-79 183z" />
<glyph unicode="&#x16e;" horiz-adv-x="1407" d="M170 557v877h168v-866q0 -441 372 -441q359 0 359 426v881h168v-854q0 -604 -545 -604q-522 0 -522 581zM480 1757q0 90 59 144t150 54q89 0 146 -54t57 -138t-61 -140t-149 -56q-87 0 -144.5 52.5t-57.5 137.5zM570 1761q0 -112 112 -112q50 0 83 32t33 80q0 49 -33 81 t-83 32q-48 0 -80 -32.5t-32 -80.5z" />
<glyph unicode="&#x16f;" d="M144 412v612h163v-586q0 -324 248 -324q120 0 197.5 88.5t77.5 231.5v590h164v-1024h-164v162h-4q-102 -186 -316 -186q-366 0 -366 436zM362 1366q0 90 59 144t150 54q89 0 146 -54t57 -138t-61 -140t-149 -56q-87 0 -144.5 52.5t-57.5 137.5zM452 1370q0 -112 112 -112 q50 0 83 32t33 80q0 49 -33 81t-83 32q-48 0 -80 -32.5t-32 -80.5z" />
<glyph unicode="&#x170;" horiz-adv-x="1407" d="M170 557v877h168v-866q0 -441 372 -441q359 0 359 426v881h168v-854q0 -604 -545 -604q-522 0 -522 581zM467 1566l206 318h130l-240 -318h-96zM708 1566l209 318h133l-245 -318h-97z" />
<glyph unicode="&#x171;" d="M144 412v612h163v-586q0 -324 248 -324q120 0 197.5 88.5t77.5 231.5v590h164v-1024h-164v162h-4q-102 -186 -316 -186q-366 0 -366 436zM325 1218l206 318h130l-240 -318h-96zM566 1218l209 318h133l-245 -318h-97z" />
<glyph unicode="&#x172;" horiz-adv-x="1407" d="M170 557v877h168v-866q0 -441 372 -441q359 0 359 426v881h168v-854q0 -604 -545 -604q-522 0 -522 581zM590 -250q0 122 157 250h119q-150 -141 -150 -223q0 -70 68 -70q30 0 56 13v-107q-30 -13 -82 -13q-76 0 -122 40t-46 110z" />
<glyph unicode="&#x173;" d="M144 412v612h163v-586q0 -324 248 -324q120 0 197.5 88.5t77.5 231.5v590h164v-1024h-164v162h-4q-102 -186 -316 -186q-366 0 -366 436zM718 -250q0 122 157 250h119q-150 -141 -150 -223q0 -70 68 -70q30 0 56 13v-107q-30 -13 -82 -13q-76 0 -122 40t-46 110z" />
<glyph unicode="&#x174;" horiz-adv-x="1913" d="M26 1434h185l305 -1100q19 -69 24 -144h5q5 53 31 144l317 1100h161l304 -1108q16 -57 24 -134h4q4 52 27 138l293 1104h182l-405 -1434h-197l-295 1048q-19 67 -23 146h-4q-6 -74 -26 -144l-297 -1050h-195zM695 1566l215 332h133l216 -332h-122l-164 230l-165 -230 h-113z" />
<glyph unicode="&#x175;" horiz-adv-x="1480" d="M24 1024h172l212 -770q10 -35 14 -92h8q3 44 18 94l236 768h150l212 -772q10 -37 15 -92h8q2 39 17 92l208 772h162l-307 -1024h-170l-211 733q-12 42 -16 95h-4q-3 -36 -21 -93l-229 -735h-164zM476 1218l215 332h133l216 -332h-122l-164 230l-165 -230h-113z" />
<glyph unicode="&#x176;" horiz-adv-x="1132" d="M18 1434h191l321 -648q6 -12 35 -88h3q10 34 38 88l336 648h178l-473 -904v-530h-168v526zM289 1565l215 332h133l216 -332h-122l-164 230l-165 -230h-113z" />
<glyph unicode="&#x177;" horiz-adv-x="991" d="M14 1024h182l277 -788q5 -15 21 -78h6q5 24 20 76l291 790h170l-471 -1188q-126 -318 -354 -318q-64 0 -107 13v147q53 -18 97 -18q124 0 186 148l82 194zM232 1218l215 332h133l216 -332h-122l-164 230l-165 -230h-113z" />
<glyph unicode="&#x178;" horiz-adv-x="1132" d="M18 1434h191l321 -648q6 -12 35 -88h3q10 34 38 88l336 648h178l-473 -904v-530h-168v526zM274 1664q0 42 28.5 70t69.5 28t71 -28.5t30 -69.5t-29 -70t-69 -29q-42 0 -71.5 29.5t-29.5 69.5zM661 1664q0 42 28 70t68 28q42 0 71 -28.5t29 -69.5t-28 -70t-70 -29 q-40 0 -69 28t-29 71z" />
<glyph unicode="&#x179;" horiz-adv-x="1168" d="M33 0v47l833 1235h-766v152h1024v-40l-840 -1242h820v-152h-1071zM479 1567l223 328h166l-262 -328h-127z" />
<glyph unicode="&#x17a;" horiz-adv-x="926" d="M33 0v51l606 833h-549v140h790v-47l-606 -837h600v-140h-841zM334 1218l223 328h166l-262 -328h-127z" />
<glyph unicode="&#x17b;" horiz-adv-x="1168" d="M33 0v47l833 1235h-766v152h1024v-40l-840 -1242h820v-152h-1071zM495 1665q0 40 29 68t70 28t69.5 -27.5t28.5 -68.5t-28.5 -70t-69.5 -29q-40 0 -69.5 28.5t-29.5 70.5z" />
<glyph unicode="&#x17c;" horiz-adv-x="926" d="M33 0v51l606 833h-549v140h790v-47l-606 -837h600v-140h-841zM387 1317q0 40 29 68t70 28t69.5 -27.5t28.5 -68.5t-28.5 -70t-69.5 -29q-40 0 -69.5 28.5t-29.5 70.5z" />
<glyph unicode="&#x17d;" horiz-adv-x="1168" d="M33 0v47l833 1235h-766v152h1024v-40l-840 -1242h820v-152h-1071zM338 1895h115l164 -229l164 229h119l-214 -330h-132z" />
<glyph unicode="&#x17e;" horiz-adv-x="926" d="M33 0v51l606 833h-549v140h790v-47l-606 -837h600v-140h-841zM220 1548h115l164 -229l164 229h119l-214 -330h-132z" />
<glyph unicode="&#x17f;" horiz-adv-x="494" d="M166 0v1190q0 161 94.5 254.5t231.5 93.5q74 0 118 -18v-148q-46 27 -108 27q-172 0 -172 -217v-1182h-164z" />
<glyph unicode="&#x180;" horiz-adv-x="1204" d="M33 1204v140h133v172h162v-172h248v-140h-248v-360h4q121 204 354 204q197 0 309.5 -136.5t112.5 -369.5q0 -256 -125.5 -411t-343.5 -155q-199 0 -307 172h-4v-148h-162v1204h-133zM328 418q0 -127 82 -215.5t210 -88.5q148 0 234 112.5t86 309.5q0 175 -79 274.5 t-216 99.5q-143 0 -230 -99.5t-87 -249.5v-143z" />
<glyph unicode="&#x181;" horiz-adv-x="1256" d="M-84 1128q0 132 97.5 219t258.5 87h406q186 0 295 -91t109 -237q0 -122 -66 -212t-182 -128v-4q145 -17 232 -109.5t87 -240.5q0 -184 -132 -298t-333 -114h-418v1282h-24q-81 0 -125.5 -46.5t-44.5 -123.5q0 -55 20 -106h-158q-22 56 -22 122zM438 152h228 q148 0 229.5 70t81.5 192q0 254 -346 254h-193v-516zM438 819h172q138 0 216.5 66.5t78.5 187.5q0 209 -274 209h-193v-463z" />
<glyph unicode="&#x182;" horiz-adv-x="1171" d="M188 0v1434h766v-152h-598v-456h272q214 0 333 -103.5t119 -294.5q0 -198 -125 -313t-341 -115h-426zM356 152h236q149 0 230 70t81 196q0 256 -311 256h-236v-522z" />
<glyph unicode="&#x183;" horiz-adv-x="1204" d="M166 0v1516h805v-140h-643v-532h4q121 204 354 204q197 0 309.5 -136.5t112.5 -369.5q0 -256 -125.5 -411t-343.5 -155q-199 0 -307 172h-4v-148h-162zM328 418q0 -127 82 -215.5t210 -88.5q148 0 234 112.5t86 309.5q0 175 -79 274.5t-216 99.5q-143 0 -230 -99.5 t-87 -249.5v-143z" />
<glyph unicode="&#x184;" horiz-adv-x="1182" d="M51 1272v22l283 164h22v-634h272q214 0 333 -102.5t119 -293.5q0 -198 -125 -313t-341 -115h-426v1153zM356 150h236q149 0 229 71t80 197q0 258 -309 258h-236v-526z" />
<glyph unicode="&#x185;" horiz-adv-x="1204" d="M33 1333v23l272 160h23v-672h4q121 204 354 204q197 0 309.5 -136.5t112.5 -369.5q0 -256 -125.5 -411t-343.5 -155q-199 0 -307 172h-4v-148h-162v1218zM328 418q0 -127 82 -215.5t210 -88.5q148 0 234 112.5t86 309.5q0 175 -79 274.5t-216 99.5q-143 0 -230 -99.5 t-87 -249.5v-143z" />
<glyph unicode="&#x186;" horiz-adv-x="1270" d="M106 35v178q154 -86 340 -86q246 0 400 165.5t154 440.5q0 263 -143.5 418t-377.5 155q-216 0 -373 -96v164q159 84 396 84q305 0 489.5 -197t184.5 -517q0 -344 -206 -556t-526 -212q-204 0 -338 59z" />
<glyph unicode="&#x187;" horiz-adv-x="1270" d="M94 690q0 343 206 555.5t524 212.5q92 0 186 -24q3 95 69.5 164t170.5 69q48 0 96 -19v-140q-42 20 -78 20q-113 0 -113 -158q0 -60 15 -148l-9 -6q-165 90 -348 90q-241 0 -392 -165.5t-151 -440.5q0 -262 143.5 -417.5t376.5 -155.5q216 0 374 96v-163 q-159 -84 -396 -84q-306 0 -490 197t-184 517z" />
<glyph unicode="&#x188;" horiz-adv-x="954" d="M96 492q0 239 141 397.5t365 158.5q75 0 140 -20q2 87 61.5 148t148.5 61q40 0 86 -19v-128q-35 18 -67 18q-101 0 -101 -142q0 -84 8 -130l-6 -4q-147 78 -272 78q-149 0 -242.5 -111.5t-93.5 -296.5q0 -180 94.5 -284t253.5 -104q134 0 252 89v-156q-118 -71 -280 -71 q-221 0 -354.5 143.5t-133.5 372.5z" />
<glyph unicode="&#x189;" horiz-adv-x="1436" d="M28 641v155h160v638h396q758 0 758 -699q0 -334 -210.5 -534.5t-563.5 -200.5h-380v641h-160zM356 152h214q282 0 439 151t157 428q0 551 -586 551h-224v-486h336v-155h-336v-489z" />
<glyph unicode="&#x18a;" horiz-adv-x="1518" d="M-84 1128q0 132 97.5 219t258.5 87h394q758 0 758 -699q0 -332 -210.5 -533.5t-564.5 -201.5h-379v1282h-24q-81 0 -125.5 -46.5t-44.5 -123.5q0 -55 20 -106h-158q-22 56 -22 122zM438 152h214q282 0 438.5 151t156.5 428q0 551 -585 551h-224v-1130z" />
<glyph unicode="&#x18b;" horiz-adv-x="1172" d="M92 400q0 194 133 309t357 115h233v456h-598v154h766v-1434h-420q-229 0 -350 103t-121 297zM270 406q0 -258 310 -258h235v526h-231q-314 0 -314 -268z" />
<glyph unicode="&#x18c;" horiz-adv-x="1204" d="M96 488q0 254 128 407t341 153q211 0 307 -166h4v494h-642v140h804v-1516h-162v174h-4q-114 -198 -352 -198q-193 0 -308.5 137.5t-115.5 374.5zM264 496q0 -177 82.5 -279.5t221.5 -102.5q137 0 222.5 99t85.5 250v151q0 124 -82 210t-208 86q-150 0 -236 -110t-86 -304 z" />
<glyph unicode="&#x18d;" horiz-adv-x="1212" d="M96 568q0 207 145 343.5t373 136.5q223 0 362.5 -130t139.5 -326q0 -295 -383 -520q123 -83 166 -146t43 -143q0 -113 -108.5 -189t-280.5 -76q-173 0 -317 76v172q150 -108 321 -108q217 0 217 127q0 52 -44 98.5t-244 165.5q-211 126 -300.5 249.5t-89.5 269.5z M264 582q0 -110 64.5 -205t275.5 -223q198 111 271 212t73 216q0 150 -93 239t-249 89q-154 0 -248 -89.5t-94 -238.5z" />
<glyph unicode="&#x18e;" horiz-adv-x="1038" d="M90 0v152h592v489h-518v151h518v490h-559v152h727v-1434h-760z" />
<glyph unicode="&#x18f;" horiz-adv-x="1476" d="M86 794h1118q-17 237 -158.5 374.5t-359.5 137.5q-216 0 -372 -96v164q158 84 384 84q319 0 501.5 -197t182.5 -544q0 -322 -182 -531.5t-483 -209.5q-303 0 -467 207.5t-164 610.5zM266 643q4 -235 125 -375.5t328 -140.5t336 140t149 376h-938z" />
<glyph unicode="&#x190;" horiz-adv-x="1108" d="M112 381q0 133 81 231t225 136v6q-256 80 -256 317q0 167 136.5 277t353.5 110q178 0 323 -70v-170q-153 88 -328 88q-141 0 -226 -63t-85 -170q0 -112 101.5 -185t272.5 -73h105v-151h-107q-419 0 -419 -271q0 -125 95.5 -195.5t260.5 -70.5q200 0 367 92v-166 q-166 -77 -373 -77q-245 0 -386 110.5t-141 294.5z" />
<glyph unicode="&#x191;" horiz-adv-x="1000" d="M-102 -182q50 -29 112 -29q178 0 178 264v1381h728v-152h-560v-496h518v-151h-518v-582q0 -415 -338 -415q-65 0 -120 20v160z" />
<glyph unicode="&#x192;" horiz-adv-x="1104" d="M94 -119q36 -21 86 -21q150 0 190 292l91 636h-103v138h124l28 219q17 131 104.5 210t221.5 79q64 0 116 -19v-149q-48 28 -108 28q-146 0 -170 -160l-31 -208h166v-138h-187l-90 -648q-58 -418 -348 -418q-31 0 -90 16v143z" />
<glyph unicode="&#x193;" horiz-adv-x="1417" d="M94 698q0 333 210.5 546.5t533.5 213.5q121 0 239 -34q3 100 70 171.5t170 71.5q48 0 96 -19v-140q-41 20 -77 20q-114 0 -114 -168q0 -72 15 -156l-8 -6q-191 108 -401 108q-246 0 -402 -165t-156 -431q0 -272 143 -427.5t388 -155.5q168 0 291 67v402h-314v152h484 v-650q-216 -122 -482 -122q-307 0 -496.5 198t-189.5 524z" />
<glyph unicode="&#x194;" horiz-adv-x="1272" d="M18 1434h187l397 -1092q21 -58 29 -112h4q13 57 33 112l405 1092h181l-514 -1336l6 -12q114 -228 114 -338q0 -97 -68.5 -163.5t-167.5 -66.5q-96 0 -161 65t-65 165q0 61 20.5 119.5t97.5 212.5l8 16zM561 -248q0 -88 67 -88q68 0 68 88q0 68 -68 209q-67 -141 -67 -209 z" />
<glyph unicode="&#x195;" horiz-adv-x="1790" d="M166 0v1516h164v-654h4q98 186 301 186q336 0 336 -417v-170q0 -342 247 -342q132 0 211 97t79 261q0 281 -144 547h178q129 -266 129 -540q0 -229 -127 -368.5t-330 -139.5q-407 0 -407 474v138q0 170 -52.5 246t-176.5 76q-108 0 -178 -90.5t-70 -235.5v-584h-164z" />
<glyph unicode="&#x196;" horiz-adv-x="590" d="M184 272v1162h168v-1158q0 -143 104 -143q48 0 93 21v-150q-60 -22 -119 -22q-246 0 -246 290z" />
<glyph unicode="&#x197;" horiz-adv-x="570" d="M41 654v151h159v629h168v-629h160v-151h-160v-654h-168v654h-159z" />
<glyph unicode="&#x198;" horiz-adv-x="1188" d="M188 0v1434h168v-674h4l316 420q141 188 215 233t166 45q56 0 111 -26v-156q-56 30 -118 30q-80 0 -198 -153l-316 -411l650 -742h-234l-554 656q-31 37 -38 50h-4v-706h-168z" />
<glyph unicode="&#x199;" horiz-adv-x="1020" d="M166 0v1202q0 153 89.5 244.5t228.5 91.5q71 0 118 -18v-148q-55 27 -108 27q-164 0 -164 -207v-637h4l430 469h215l-475 -494l512 -530h-230l-452 492h-4v-492h-164z" />
<glyph unicode="&#x19a;" horiz-adv-x="496" d="M20 708v140h146v668h164v-668h145v-140h-145v-708h-164v708h-146z" />
<glyph unicode="&#x19b;" horiz-adv-x="1020" d="M-2 0l463 1016l-27 76l-270 -132l-58 113l287 139q-53 156 -155 156q-62 0 -122 -18v153q60 15 130 15q104 0 168 -52.5t118 -185.5l244 119l58 -113l-256 -125l413 -1161h-176l-281 828l-356 -828h-180z" />
<glyph unicode="&#x19c;" horiz-adv-x="1827" d="M184 428v1006h168v-986q0 -165 51.5 -243t176.5 -78q103 0 175.5 95.5t72.5 229.5v982h168v-1006q0 -301 226 -301q108 0 178 90.5t70 234.5v982h168v-1434h-164v162h-4q-108 -186 -317 -186q-215 0 -287 212q-114 -212 -342 -212q-340 0 -340 452z" />
<glyph unicode="&#x19d;" horiz-adv-x="1532" d="M-102 -182q50 -29 112 -29q178 0 178 264v1381h218l718 -1125q45 -70 58 -96h4q-10 62 -10 211v1010h170v-1434h-208l-738 1143q-28 43 -46 90h-6q8 -46 8 -197v-983q0 -415 -338 -415q-65 0 -120 20v160z" />
<glyph unicode="&#x19e;" horiz-adv-x="1178" d="M131 1024h168q27 -71 27 -174h4q112 198 340 198q167 0 256.5 -107t89.5 -310v-1035h-166v976q0 327 -236 327q-125 0 -204.5 -88.5t-79.5 -222.5v-588h-164v694q0 239 -35 330z" />
<glyph unicode="&#x19f;" horiz-adv-x="1544" d="M94 700q0 346 187 552t509 206q297 0 478.5 -200t181.5 -523q0 -351 -186 -555t-498 -204q-305 0 -488.5 201t-183.5 523zM274 637q21 -234 155 -372t337 -138q220 0 353.5 133.5t152.5 376.5h-998zM274 792h998q-19 246 -148.5 380t-345.5 134q-208 0 -345 -140 t-159 -374z" />
<glyph unicode="&#x1a0;" horiz-adv-x="1562" d="M94 700q0 346 187 552t509 206q216 0 377 -111q48 -9 80 -9q214 0 214 130q0 72 -21 130h136q18 -54 18 -134q0 -108 -70 -175t-192 -67h-34q152 -194 152 -487q0 -351 -186 -555t-498 -204q-305 0 -488.5 201t-183.5 523zM270 715q0 -265 137.5 -426.5t358.5 -161.5 q236 0 372 154t136 431q0 284 -132 439t-364 155q-226 0 -367 -163t-141 -428z" />
<glyph unicode="&#x1a1;" horiz-adv-x="1223" d="M96 500q0 258 141 403t381 145q48 0 134 -14q61 -10 170 -10q59 0 98.5 35.5t39.5 85.5q0 73 -20 131h134q19 -56 19 -136q0 -192 -219 -232q130 -141 130 -392q0 -245 -138.5 -392.5t-371.5 -147.5q-227 0 -362.5 143.5t-135.5 380.5zM264 506q0 -182 93 -287t249 -105 q159 0 244.5 103t85.5 293q0 192 -85.5 296t-244.5 104q-158 0 -250 -107.5t-92 -296.5z" />
<glyph unicode="&#x1a2;" horiz-adv-x="1984" d="M94 700q0 332 193.5 545t504.5 213q112 0 302 -34t298 -34q216 0 404 68v-1458h-168v1268q-118 -25 -248 -25q-54 0 -133 9v-1154q-249 -122 -481 -122q-306 0 -489 200t-183 524zM270 715q0 -266 139.5 -427t368.5 -161q160 0 302 61v1086q-202 32 -296 32 q-228 0 -371 -163t-143 -428z" />
<glyph unicode="&#x1a3;" horiz-adv-x="1618" d="M96 502q0 250 148 398t384 148q84 0 236 -33q152 -34 236 -34q178 0 352 67v-1048h-164v866q-100 -24 -192 -24q-62 0 -123 8v-788q-175 -86 -359 -86q-236 0 -377 141.5t-141 384.5zM264 506q0 -184 98.5 -288t265.5 -104q110 0 185 38v728q-127 30 -197 30 q-158 0 -255 -107.5t-97 -296.5z" />
<glyph unicode="&#x1a4;" horiz-adv-x="1231" d="M-84 1128q0 132 97.5 219t258.5 87h392q230 0 356.5 -112.5t126.5 -315.5t-141 -333.5t-380 -130.5h-188v-542h-168v1282h-24q-81 0 -125.5 -46.5t-44.5 -123.5q0 -55 20 -106h-158q-22 56 -22 122zM438 694h176q357 0 357 304q0 284 -336 284h-197v-588z" />
<glyph unicode="&#x1a5;" horiz-adv-x="1204" d="M166 -471v1673q0 152 89 244t229 92q71 0 118 -18v-148q-55 27 -108 27q-164 0 -164 -207v-348h4q118 204 354 204q197 0 308.5 -136.5t111.5 -369.5q0 -257 -125 -411.5t-342 -154.5q-201 0 -307 172h-4v-619h-164zM330 418q0 -126 82.5 -215t209.5 -89 q149 0 233.5 113.5t84.5 317.5q0 171 -79 268t-214 97q-143 0 -230 -99t-87 -250v-143z" />
<glyph unicode="&#x1a6;" horiz-adv-x="1180" d="M188 0v1434h168v-152h260q205 0 320.5 -102.5t115.5 -278.5q0 -288 -319 -365v-4q87 -54 158 -200l231 -484h-200l-197 438q-93 206 -254 206h-115v-492h-168zM356 643h222q137 0 217.5 64t80.5 180q0 243 -290 243h-230v-487z" />
<glyph unicode="&#x1a7;" horiz-adv-x="1088" d="M98 362q0 80 30.5 142t82.5 113t121 93t146 80q75 37 132.5 68t97.5 64t60.5 73t20.5 95q0 59 -27 100t-70 67t-97.5 37.5t-110.5 11.5q-199 0 -326 -88v189q98 51 309 51q93 0 182.5 -23t159.5 -70t113 -119.5t43 -170.5q0 -80 -27.5 -139.5t-75.5 -106.5t-113 -86 t-140 -77q-71 -36 -132.5 -68.5t-106.5 -68t-70.5 -78.5t-25.5 -101q0 -108 76.5 -165.5t231.5 -57.5q45 0 98 9t105.5 25.5t100 40.5t81.5 54v-198q-28 -19 -74.5 -34.5t-98.5 -26t-101.5 -16t-84.5 -5.5q-102 0 -194 20.5t-162.5 66.5t-112 119.5t-41.5 179.5z" />
<glyph unicode="&#x1a8;" horiz-adv-x="869" d="M86 274q0 62 20.5 107t58.5 79.5t92.5 62t121.5 53.5q51 20 91 37t68 38t42.5 48t14.5 67q0 32 -14.5 58.5t-41 45.5t-63.5 29.5t-83 10.5q-147 0 -260 -74v166q105 46 238 46q75 0 145.5 -19t125.5 -56.5t88 -93t33 -127.5q0 -59 -17.5 -103t-52 -78.5t-86 -62 t-119.5 -54.5q-49 -19 -91.5 -36.5t-74 -39.5t-50 -50.5t-18.5 -69.5q0 -144 216 -144q162 0 295 99v-176q-116 -61 -274 -61q-79 0 -152.5 18t-129.5 55t-89.5 93t-33.5 132z" />
<glyph unicode="&#x1a9;" horiz-adv-x="1057" d="M45 0v78l467 662l-424 604v90h858v-154h-612l376 -536l-417 -596h715v-148h-963z" />
<glyph unicode="&#x1aa;" horiz-adv-x="606" d="M-125 1290q0 104 72 176t180 72q128 0 200.5 -85.5t72.5 -234.5v-1364q0 -196 145 -196q56 0 102 33v-141q-57 -32 -149 -32q-260 0 -260 308v1254q-57 -28 -124 -28q-101 0 -170 67.5t-69 170.5zM26 1296q0 -44 31 -74t80 -30q53 0 101 26v13q0 168 -113 168 q-42 0 -70.5 -30t-28.5 -73z" />
<glyph unicode="&#x1ab;" horiz-adv-x="696" d="M43 884v140h176v250q77 24 164 53v-303h258v-140h-258v-579q0 -103 34.5 -147t116.5 -44q60 0 107 34v-216q0 -135 -76.5 -214.5t-202.5 -79.5q-60 0 -112 24v146q52 -31 112 -31q126 0 126 159v40q-269 0 -269 300v608h-176z" />
<glyph unicode="&#x1ac;" horiz-adv-x="1075" d="M-51 1128q0 133 97 219.5t259 86.5h731v-152h-414v-1282h-168v1282h-155q-90 0 -140.5 -46t-50.5 -124q0 -55 21 -106h-157q-23 56 -23 122z" />
<glyph unicode="&#x1ad;" horiz-adv-x="696" d="M43 884v140h176v192q0 147 76 234.5t207 87.5q74 0 139 -28v-146q-61 35 -125 35q-133 0 -133 -191v-184h258v-140h-258v-577q0 -103 34.5 -147t116.5 -44q60 0 107 34v-140q-58 -32 -153 -32q-269 0 -269 300v606h-176z" />
<glyph unicode="&#x1ae;" horiz-adv-x="1075" d="M39 1282v152h997v-152h-414v-1229q0 -264 170 -264q70 0 122 23v-148q-58 -26 -136 -26q-324 0 -324 405v1239h-415z" />
<glyph unicode="&#x1af;" horiz-adv-x="1450" d="M170 557v877h168v-866q0 -441 372 -441q359 0 359 426v881h147q60 0 99.5 35.5t39.5 84.5q0 74 -21 132h136q18 -56 18 -136q0 -210 -251 -241v-729q0 -604 -545 -604q-522 0 -522 581z" />
<glyph unicode="&#x1b0;" horiz-adv-x="1204" d="M144 412v612h163v-586q0 -324 248 -324q120 0 197.5 88.5t77.5 231.5v590h122q59 0 98.5 35.5t39.5 85.5q0 73 -20 131h134q19 -56 19 -136q0 -198 -229 -234v-906h-164v162h-4q-102 -186 -316 -186q-366 0 -366 436z" />
<glyph unicode="&#x1b1;" horiz-adv-x="1546" d="M98 647q0 403 348 639h-348v148h518v-148q-344 -254 -344 -632q0 -247 138.5 -388t359.5 -141q224 0 364 142t140 387q0 376 -346 632v148h518v-148h-346q348 -236 348 -637q0 -310 -185 -491.5t-489 -181.5q-307 0 -491.5 179t-184.5 492z" />
<glyph unicode="&#x1b2;" horiz-adv-x="1458" d="M184 574v860h168v-852q0 -455 344 -455q217 0 356.5 200.5t139.5 493.5q0 485 -264 485q-72 0 -136 -28v154q77 26 164 26q186 0 297 -169.5t111 -454.5q0 -359 -191.5 -608.5t-484.5 -249.5q-504 0 -504 598z" />
<glyph unicode="&#x1b3;" horiz-adv-x="1166" d="M15 1434h178l336 -648q27 -51 39 -88h2l35 88l199 410q70 145 141 203.5t178 58.5q57 0 115 -24v-156q-47 28 -105 28q-90 0 -174 -170l-303 -610v-526h-168v530z" />
<glyph unicode="&#x1b4;" horiz-adv-x="1059" d="M14 1024h182l277 -788q10 -28 21 -78h6q5 26 20 78l192 518q109 294 318 294q41 0 90 -16v-143q-44 19 -88 19q-102 0 -168 -168l-354 -904q-125 -318 -354 -318q-66 0 -107 13v147q51 -18 97 -18q124 0 186 148l82 194z" />
<glyph unicode="&#x1b5;" horiz-adv-x="1168" d="M33 0v47l409 607h-227v151h330l321 477h-768v152h1026v-40l-399 -589h252v-151h-355l-338 -502h820v-152h-1071z" />
<glyph unicode="&#x1b6;" horiz-adv-x="926" d="M33 0v51l295 405h-168v140h268l211 288h-549v140h790v-47l-276 -381h188v-140h-288l-230 -316h600v-140h-841z" />
<glyph unicode="&#x1b7;" horiz-adv-x="1250" d="M10 -194q224 -136 446 -136q233 0 378 119.5t145 310.5q0 204 -151.5 317t-417.5 113h-92v76l501 676h-780v152h1026v-76l-510 -686q273 -23 436.5 -175t163.5 -391q0 -256 -200.5 -422t-500.5 -166q-232 0 -444 107v181z" />
<glyph unicode="&#x1b8;" horiz-adv-x="1250" d="M94 94q0 235 167 395t433 183l-510 686v76h1026v-152h-778l500 -676v-76h-92q-264 0 -417 -114.5t-153 -315.5q0 -191 145 -310.5t377 -119.5q240 0 447 125v-170q-213 -107 -465 -107q-299 0 -489.5 159t-190.5 417z" />
<glyph unicode="&#x1b9;" horiz-adv-x="905" d="M30 -26q0 176 123.5 301.5t330.5 154.5l-394 543v51h813v-140h-571l378 -532v-51h-84q-200 0 -314 -85.5t-114 -235.5q0 -141 109 -230.5t279 -89.5q196 0 352 98v-156q-154 -81 -356 -81q-244 0 -398 124.5t-154 328.5z" />
<glyph unicode="&#x1ba;" horiz-adv-x="838" d="M10 -246q0 197 312 299q164 54 227 108.5t63 143.5q0 90 -79 141.5t-221 51.5h-82v61l282 325h-502v140h728v-70l-294 -338q158 -18 245 -99t87 -210q0 -126 -83 -213.5t-279 -155.5q-147 -50 -191.5 -84.5t-44.5 -87.5q0 -108 184 -108q170 0 308 90v-158 q-137 -72 -322 -72q-160 0 -249 62.5t-89 173.5z" />
<glyph unicode="&#x1bb;" horiz-adv-x="1104" d="M96 0v146l383 409h-253v147h388q105 119 146 197.5t41 163.5q0 120 -72 188t-201 68q-190 0 -368 -164v172q162 131 391 131q192 0 301.5 -103.5t109.5 -279.5q0 -175 -159 -373h159v-147h-290l-379 -407h667v-148h-864z" />
<glyph unicode="&#x1bc;" horiz-adv-x="1104" d="M116 1286v148h787v-148h-475l-51 -420q65 4 109 4q231 0 356.5 -115t125.5 -317q0 -208 -135.5 -335t-371.5 -127q-189 0 -297 59v174q147 -95 299 -95q153 0 245.5 86.5t92.5 227.5q0 142 -95 220.5t-272 78.5q-50 0 -127 -5q-95 -7 -102 -7l69 571h-158z" />
<glyph unicode="&#x1bd;" horiz-adv-x="778" d="M72 884v140h604v-140h-350l-40 -253q50 2 70 2q157 0 259 -83.5t102 -231.5q0 -151 -106.5 -246.5t-284.5 -95.5q-158 0 -236 48v166q114 -76 236 -76q100 0 161.5 54t61.5 141q0 84 -65.5 134.5t-180.5 50.5q-23 0 -189 -8l62 398h-104z" />
<glyph unicode="&#x1be;" horiz-adv-x="807" d="M30 884v140h126v250l164 53v-303h258v-140h-258v-98q0 -75 35 -122t137 -96q137 -68 192.5 -138t55.5 -164q0 -127 -100.5 -208.5t-273.5 -81.5q-150 0 -254 61v176q118 -99 267 -99q195 0 195 144q0 46 -28 83.5t-153 100.5q-146 76 -191.5 153.5t-45.5 186.5v102h-126z " />
<glyph unicode="&#x1bf;" horiz-adv-x="1118" d="M166 -471v1495h164v-129q172 153 366 153q151 0 250.5 -98t99.5 -244q0 -223 -190 -422t-526 -329v-426h-164zM330 112q242 97 395 251t153 327q0 93 -56 154t-148 61q-158 0 -344 -180v-613z" />
<glyph unicode="&#x1c0;" horiz-adv-x="490" d="M172 -482v2048h148v-2048h-148z" />
<glyph unicode="&#x1c1;" horiz-adv-x="784" d="M172 -482v2048h148v-2048h-148zM467 -482v2048h147v-2048h-147z" />
<glyph unicode="&#x1c2;" horiz-adv-x="934" d="M51 326v139h342v279h-342v138h342v684h147v-684h342v-138h-342v-279h342v-139h-342v-808h-147v808h-342z" />
<glyph unicode="&#x1c3;" horiz-adv-x="582" d="M180 92q0 46 32.5 78.5t78.5 32.5q45 0 78 -32.5t33 -78.5t-33 -78t-78 -32q-46 0 -78.5 32t-32.5 78zM203 1434h172l-19 -1030h-135z" />
<glyph unicode="&#x1c4;" horiz-adv-x="2536" d="M188 0v1434h396q758 0 758 -699q0 -332 -210.5 -533.5t-563.5 -201.5h-380zM356 152h214q282 0 439 151t157 428q0 551 -586 551h-224v-1130zM1401 0v47l833 1235h-766v152h1024v-40l-840 -1242h820v-152h-1071zM1705 1890h115l164 -229l164 229h119l-214 -330h-132z" />
<glyph unicode="&#x1c5;" horiz-adv-x="2332" d="M188 0v1434h396q758 0 758 -699q0 -332 -210.5 -533.5t-563.5 -201.5h-380zM356 152h214q282 0 439 151t157 428q0 551 -586 551h-224v-1130zM1440 0v51l606 833h-549v140h790v-47l-606 -837h600v-140h-841zM1627 1548h115l164 -229l164 229h119l-214 -330h-132z" />
<glyph unicode="&#x1c6;" horiz-adv-x="2099" d="M96 488q0 254 128 407t341 153q211 0 307 -166h4v634h164v-1516h-164v174h-4q-114 -198 -352 -198q-193 0 -308.5 137.5t-115.5 374.5zM264 496q0 -177 82.5 -279.5t221.5 -102.5q137 0 222.5 99t85.5 250v151q0 124 -82 210t-208 86q-150 0 -236 -110t-86 -304zM1206 0 v51l606 833h-549v140h790v-47l-606 -837h600v-140h-841zM1394 1548h115l164 -229l164 229h119l-214 -330h-132z" />
<glyph unicode="&#x1c7;" horiz-adv-x="1753" d="M188 0v1434h168v-1282h576v-152h-744zM1042 0v166q54 -39 140 -39q227 0 227 385v922h168v-920q0 -255 -108 -396.5t-289 -141.5q-84 0 -138 24z" />
<glyph unicode="&#x1c8;" horiz-adv-x="1474" d="M188 0v1434h168v-1282h576v-152h-744zM781 -297q74 -45 140 -45q224 0 224 358v1008h164v-981q0 -252 -101.5 -388.5t-290.5 -136.5q-70 0 -136 32v153zM1123 1390q0 46 31 76.5t75 30.5q45 0 76.5 -30.5t31.5 -76.5q0 -44 -31.5 -75t-76.5 -31q-44 0 -75 30t-31 76z" />
<glyph unicode="&#x1c9;" horiz-adv-x="1025" d="M166 0v1516h164v-1516h-164zM331 -297q74 -45 140 -45q224 0 224 358v1008h164v-981q0 -252 -101.5 -388.5t-290.5 -136.5q-70 0 -136 32v153zM673 1390q0 46 31 76.5t75 30.5q45 0 76.5 -30.5t31.5 -76.5q0 -44 -31.5 -75t-76.5 -31q-44 0 -75 30t-31 76z" />
<glyph unicode="&#x1ca;" horiz-adv-x="2196" d="M188 0v1434h218l718 -1125q45 -70 58 -96h4q-10 62 -10 211v1010h168v-1434h-206l-738 1143q-28 43 -46 90h-6q8 -46 8 -197v-1036h-168zM1485 0v166q54 -39 140 -39q227 0 227 385v922h168v-920q0 -255 -108 -396.5t-289 -141.5q-84 0 -138 24z" />
<glyph unicode="&#x1cb;" horiz-adv-x="1982" d="M188 0v1434h218l718 -1125q45 -70 58 -96h4q-10 62 -10 211v1010h168v-1434h-206l-738 1143q-28 43 -46 90h-6q8 -46 8 -197v-1036h-168zM1288 -297q74 -45 140 -45q224 0 224 358v1008h164v-981q0 -252 -101.5 -388.5t-290.5 -136.5q-70 0 -136 32v153zM1630 1390 q0 46 31 76.5t75 30.5q45 0 76.5 -30.5t31.5 -76.5q0 -44 -31.5 -75t-76.5 -31q-44 0 -75 30t-31 76z" />
<glyph unicode="&#x1cc;" horiz-adv-x="1655" d="M166 0v1024h164v-170h4q116 194 336 194q168 0 257 -108.5t89 -313.5v-626h-164v584q0 326 -238 326q-123 0 -203.5 -92.5t-80.5 -233.5v-584h-164zM961 -297q74 -45 140 -45q224 0 224 358v1008h164v-981q0 -252 -101.5 -388.5t-290.5 -136.5q-70 0 -136 32v153z M1303 1390q0 46 31 76.5t75 30.5q45 0 76.5 -30.5t31.5 -76.5q0 -44 -31.5 -75t-76.5 -31q-44 0 -75 30t-31 76z" />
<glyph unicode="&#x1cd;" horiz-adv-x="1321" d="M22 0l550 1434h174l552 -1434h-186l-152 402h-608l-143 -402h-187zM376 1890h115l164 -229l164 229h119l-214 -330h-132zM408 553h497l-225 611q-11 30 -22 96h-4q-10 -61 -23 -96z" />
<glyph unicode="&#x1ce;" horiz-adv-x="1034" d="M82 272q0 287 338 334l307 43q0 261 -211 261q-185 0 -334 -126v168q151 96 348 96q361 0 361 -382v-666h-164v160h-4q-107 -184 -315 -184q-153 0 -239.5 81t-86.5 215zM229 1548h115l164 -229l164 229h119l-214 -330h-132zM250 284q0 -75 53.5 -122.5t142.5 -47.5 q122 0 201.5 85.5t79.5 216.5v102l-247 -34q-114 -16 -172 -56.5t-58 -143.5z" />
<glyph unicode="&#x1cf;" horiz-adv-x="545" d="M-9 1890h115l164 -229l164 229h119l-214 -330h-132zM188 0v1434h168v-1434h-168z" />
<glyph unicode="&#x1d0;" horiz-adv-x="496" d="M-33 1548h115l164 -229l164 229h119l-214 -330h-132zM166 0v1024h164v-1024h-164z" />
<glyph unicode="&#x1d1;" horiz-adv-x="1544" d="M94 700q0 346 187 552t509 206q297 0 478.5 -200t181.5 -523q0 -351 -186 -555t-498 -204q-305 0 -488.5 201t-183.5 523zM270 715q0 -265 137.5 -426.5t358.5 -161.5q236 0 372 154t136 431q0 284 -132 439t-364 155q-226 0 -367 -163t-141 -428zM491 1890h115l164 -229 l164 229h119l-214 -330h-132z" />
<glyph unicode="&#x1d2;" horiz-adv-x="1200" d="M96 500q0 258 141 403t381 145q229 0 357.5 -141t128.5 -391q0 -245 -138.5 -392.5t-371.5 -147.5q-227 0 -362.5 143.5t-135.5 380.5zM264 506q0 -182 93 -287t249 -105q159 0 244.5 103t85.5 293q0 192 -85.5 296t-244.5 104q-158 0 -250 -107.5t-92 -296.5zM319 1548 h115l164 -229l164 229h119l-214 -330h-132z" />
<glyph unicode="&#x1d3;" horiz-adv-x="1407" d="M170 557v877h168v-866q0 -441 372 -441q359 0 359 426v881h168v-854q0 -604 -545 -604q-522 0 -522 581zM423 1890h115l164 -229l164 229h119l-214 -330h-132z" />
<glyph unicode="&#x1d4;" d="M144 412v612h163v-586q0 -324 248 -324q120 0 197.5 88.5t77.5 231.5v590h164v-1024h-164v162h-4q-102 -186 -316 -186q-366 0 -366 436zM298 1548h115l164 -229l164 229h119l-214 -330h-132z" />
<glyph unicode="&#x1d5;" horiz-adv-x="1407" d="M170 557v877h168v-866q0 -441 372 -441q359 0 359 426v881h168v-854q0 -604 -545 -604q-522 0 -522 581zM412 1669q0 42 28.5 70t70.5 28q41 0 70.5 -28.5t29.5 -69.5t-28.5 -70t-69.5 -29t-71 28.5t-30 70.5zM451 1837v109h508v-109h-508zM799 1669q0 42 28.5 70 t67.5 28q42 0 71.5 -28.5t29.5 -69.5t-28.5 -70t-70.5 -29q-40 0 -69 28t-29 71z" />
<glyph unicode="&#x1d6;" d="M144 412v612h163v-586q0 -324 248 -324q120 0 197.5 88.5t77.5 231.5v590h164v-1024h-164v162h-4q-102 -186 -316 -186q-366 0 -366 436zM284 1317q0 42 28.5 70t70.5 28q41 0 70.5 -28.5t29.5 -69.5t-28.5 -70t-69.5 -29t-71 28.5t-30 70.5zM323 1485v109h508v-109h-508 zM671 1317q0 42 28.5 70t67.5 28q42 0 71.5 -28.5t29.5 -69.5t-28.5 -70t-70.5 -29q-40 0 -69 28t-29 71z" />
<glyph unicode="&#x1d7;" horiz-adv-x="1407" d="M170 557v877h168v-866q0 -441 372 -441q359 0 359 426v881h168v-854q0 -604 -545 -604q-522 0 -522 581zM412 1669q0 41 28.5 69.5t70.5 28.5q41 0 71 -28.5t30 -69.5t-29 -70t-70 -29t-71 28.5t-30 70.5zM626 1786l223 328h166l-263 -328h-126zM800 1669q0 42 27.5 70 t68.5 28q42 0 71 -28.5t29 -69.5t-28 -70t-70 -29q-40 0 -69 28t-29 71z" />
<glyph unicode="&#x1d8;" d="M144 412v612h163v-586q0 -324 248 -324q120 0 197.5 88.5t77.5 231.5v590h164v-1024h-164v162h-4q-102 -186 -316 -186q-366 0 -366 436zM284 1317q0 41 28.5 69.5t70.5 28.5q41 0 71 -28.5t30 -69.5t-29 -70t-70 -29t-71 28.5t-30 70.5zM498 1434l223 328h166l-263 -328 h-126zM672 1317q0 42 27.5 70t68.5 28q42 0 71 -28.5t29 -69.5t-28 -70t-70 -29q-40 0 -69 28t-29 71z" />
<glyph unicode="&#x1d9;" horiz-adv-x="1407" d="M170 557v877h168v-866q0 -441 372 -441q359 0 359 426v881h168v-854q0 -604 -545 -604q-522 0 -522 581zM412 1669q0 41 28.5 69.5t70.5 28.5q41 0 71 -28.5t30 -69.5t-29 -70t-70 -29t-71 28.5t-30 70.5zM425 2138h115l164 -230l164 230h118l-213 -330h-133zM800 1669 q0 42 27.5 70t68.5 28q42 0 71 -28.5t29 -69.5t-28 -70t-70 -29q-40 0 -69 28t-29 71z" />
<glyph unicode="&#x1da;" d="M144 412v612h163v-586q0 -324 248 -324q120 0 197.5 88.5t77.5 231.5v590h164v-1024h-164v162h-4q-102 -186 -316 -186q-366 0 -366 436zM284 1317q0 41 28.5 69.5t70.5 28.5q41 0 71 -28.5t30 -69.5t-29 -70t-70 -29t-71 28.5t-30 70.5zM297 1786h115l164 -230l164 230 h118l-213 -330h-133zM672 1317q0 42 27.5 70t68.5 28q42 0 71 -28.5t29 -69.5t-28 -70t-70 -29q-40 0 -69 28t-29 71z" />
<glyph unicode="&#x1db;" horiz-adv-x="1407" d="M170 557v877h168v-866q0 -441 372 -441q359 0 359 426v881h168v-854q0 -604 -545 -604q-522 0 -522 581zM393 2114h166l224 -328h-127zM412 1669q0 41 29.5 69.5t71.5 28.5q39 0 67.5 -28t28.5 -70q0 -43 -29 -71t-69 -28q-42 0 -70.5 29t-28.5 70zM797 1669 q0 41 29.5 69.5t70.5 28.5q42 0 70.5 -28.5t28.5 -69.5q0 -42 -30 -70.5t-71 -28.5t-69.5 29t-28.5 70z" />
<glyph unicode="&#x1dc;" d="M144 412v612h163v-586q0 -324 248 -324q120 0 197.5 88.5t77.5 231.5v590h164v-1024h-164v162h-4q-102 -186 -316 -186q-366 0 -366 436zM266 1762h166l224 -328h-127zM285 1317q0 41 29.5 69.5t71.5 28.5q39 0 67.5 -28t28.5 -70q0 -43 -29 -71t-69 -28q-42 0 -70.5 29 t-28.5 70zM670 1317q0 41 29.5 69.5t70.5 28.5q42 0 70.5 -28.5t28.5 -69.5q0 -42 -30 -70.5t-71 -28.5t-69.5 29t-28.5 70z" />
<glyph unicode="&#x1dd;" horiz-adv-x="1071" d="M82 467v86h723q-5 171 -92 264t-242 93q-173 0 -317 -114v154q134 98 356 98q217 0 341 -139.5t124 -392.5q0 -241 -135.5 -390.5t-335.5 -149.5q-203 0 -312.5 131t-109.5 360zM250 414q2 -143 69 -221.5t187 -78.5q116 0 197 83t100 217h-553z" />
<glyph unicode="&#x1de;" horiz-adv-x="1321" d="M22 0l550 1434h174l552 -1434h-186l-152 402h-608l-143 -402h-187zM358 1669q0 42 28.5 70t70.5 28q41 0 70.5 -28.5t29.5 -69.5t-28.5 -70t-69.5 -29t-71 28.5t-30 70.5zM397 1837v109h508v-109h-508zM408 553h497l-225 611q-11 30 -22 96h-4q-10 -61 -23 -96zM745 1669 q0 42 28.5 70t67.5 28q42 0 71.5 -28.5t29.5 -69.5t-28.5 -70t-70.5 -29q-40 0 -69 28t-29 71z" />
<glyph unicode="&#x1df;" horiz-adv-x="1034" d="M82 272q0 287 338 334l307 43q0 261 -211 261q-185 0 -334 -126v168q151 96 348 96q361 0 361 -382v-666h-164v160h-4q-107 -184 -315 -184q-153 0 -239.5 81t-86.5 215zM214 1317q0 42 28.5 70t70.5 28q41 0 70.5 -28.5t29.5 -69.5t-28.5 -70t-69.5 -29t-71 28.5 t-30 70.5zM250 284q0 -75 53.5 -122.5t142.5 -47.5q122 0 201.5 85.5t79.5 216.5v102l-247 -34q-114 -16 -172 -56.5t-58 -143.5zM253 1485v109h508v-109h-508zM601 1317q0 42 28.5 70t67.5 28q42 0 71.5 -28.5t29.5 -69.5t-28.5 -70t-70.5 -29q-40 0 -69 28t-29 71z" />
<glyph unicode="&#x1e0;" horiz-adv-x="1321" d="M22 0l550 1434h174l552 -1434h-186l-152 402h-608l-143 -402h-187zM408 553h497l-225 611q-11 30 -22 96h-4q-10 -61 -23 -96zM408 1837v109h508v-109h-508zM564 1674q0 41 29 68.5t69 27.5q41 0 69.5 -27.5t28.5 -68.5t-28.5 -70t-69.5 -29q-40 0 -69 28.5t-29 70.5z " />
<glyph unicode="&#x1e1;" horiz-adv-x="1034" d="M82 272q0 287 338 334l307 43q0 261 -211 261q-185 0 -334 -126v168q151 96 348 96q361 0 361 -382v-666h-164v160h-4q-107 -184 -315 -184q-153 0 -239.5 81t-86.5 215zM250 284q0 -75 53.5 -122.5t142.5 -47.5q122 0 201.5 85.5t79.5 216.5v102l-247 -34 q-114 -16 -172 -56.5t-58 -143.5zM264 1480v109h508v-109h-508zM420 1317q0 41 29 68.5t69 27.5q41 0 69.5 -27.5t28.5 -68.5t-28.5 -70t-69.5 -29q-40 0 -69 28.5t-29 70.5z" />
<glyph unicode="&#x1e2;" horiz-adv-x="1762" d="M10 0l700 1434h924v-152h-559v-477h519v-151h-519v-502h592v-152h-759v402h-510l-193 -402h-195zM467 553h441v729h-95zM920 1567v109h508v-109h-508z" />
<glyph unicode="&#x1e3;" horiz-adv-x="1696" d="M82 272q0 300 383 324l262 16q0 298 -215 298q-175 0 -330 -122v164q148 96 348 96q232 0 300 -200h4q116 200 356 200q202 0 313 -130.5t111 -362.5v-84h-725q3 -171 91 -264t241 -93q177 0 321 114v-154q-132 -98 -358 -98q-270 0 -383 229h-4q-145 -229 -387 -229 q-153 0 -240.5 80.5t-87.5 215.5zM248 276q0 -73 53 -117.5t143 -44.5q119 0 201 84.5t82 211.5v63l-203 -12q-139 -8 -207.5 -49t-68.5 -136zM600 1218v109h508v-109h-508zM891 610h555q-2 144 -68.5 222t-185.5 78q-116 0 -199 -82t-102 -218z" />
<glyph unicode="&#x1e4;" horiz-adv-x="1405" d="M94 698q0 333 210.5 546.5t533.5 213.5q234 0 393 -76v-186q-174 110 -412 110q-241 0 -395 -166t-154 -430q0 -272 143 -427.5t388 -155.5q168 0 291 67v111h-312v139h312v152h-314v152h482v-304h145v-139h-145v-207q-216 -122 -480 -122q-307 0 -496.5 198t-189.5 524z " />
<glyph unicode="&#x1e5;" horiz-adv-x="1206" d="M96 500q0 245 128 396.5t341 151.5q207 0 307 -166h4v142h164v-942q0 -80 -12 -152h178v-139h-219q-119 -273 -487 -273q-190 0 -332 72v164q173 -96 330 -96q218 0 311 133h-332v139h387q12 61 12 130v153h-4q-117 -197 -352 -197q-189 0 -306.5 134t-117.5 350z M264 510q0 -157 83.5 -255.5t217.5 -98.5q138 0 224.5 97t86.5 251v110q0 122 -82.5 209t-205.5 87q-151 0 -237.5 -107t-86.5 -293z" />
<glyph unicode="&#x1e6;" horiz-adv-x="1405" d="M94 698q0 333 210.5 546.5t533.5 213.5q234 0 393 -76v-186q-174 110 -412 110q-241 0 -395 -166t-154 -430q0 -272 143 -427.5t388 -155.5q168 0 291 67v402h-314v152h482v-650q-216 -122 -480 -122q-307 0 -496.5 198t-189.5 524zM450 1890h115l164 -229l164 229h119 l-214 -330h-132z" />
<glyph unicode="&#x1e7;" horiz-adv-x="1206" d="M96 479q0 261 125.5 415t343.5 154q207 0 307 -166h4v142h164v-942q0 -564 -540 -564q-190 0 -332 72v164q173 -96 330 -96q378 0 378 402v112h-4q-117 -196 -352 -196q-191 0 -307.5 136.5t-116.5 366.5zM264 490q0 -171 82.5 -273.5t218.5 -102.5q138 0 224.5 98 t86.5 251v151q0 122 -82.5 209t-205.5 87q-152 0 -238 -110.5t-86 -309.5zM296 1548h115l164 -229l164 229h119l-214 -330h-132z" />
<glyph unicode="&#x1e8;" horiz-adv-x="1188" d="M188 0v1434h168v-674h4q14 22 38 49l536 625h209l-615 -688l658 -746h-234l-554 656q-31 37 -38 50h-4v-706h-168zM323 1890h115l164 -229l164 229h119l-214 -330h-132z" />
<glyph unicode="&#x1e9;" horiz-adv-x="1018" d="M166 0v1516h164v-961h4l430 469h215l-475 -494l512 -530h-230l-452 492h-4v-492h-164zM231 1890h115l164 -229l164 229h119l-214 -330h-132z" />
<glyph unicode="&#x1ea;" horiz-adv-x="1544" d="M94 700q0 346 187 552t509 206q297 0 478.5 -200t181.5 -523q0 -326 -163.5 -528.5t-446.5 -226.5q-128 -126 -128 -203q0 -70 68 -70q30 0 56 13v-107q-30 -13 -82 -13q-76 0 -122 40t-46 110q0 111 131 228q-283 17 -453 215.5t-170 506.5zM270 715 q0 -265 137.5 -426.5t358.5 -161.5q236 0 372 154t136 431q0 284 -132 439t-364 155q-226 0 -367 -163t-141 -428z" />
<glyph unicode="&#x1eb;" horiz-adv-x="1200" d="M96 500q0 258 141 403t381 145q229 0 357.5 -141t128.5 -391q0 -222 -115 -366.5t-315 -169.5q-129 -128 -129 -203q0 -70 67 -70q30 0 56 13v-107q-30 -13 -82 -13q-76 0 -122 40t-46 110q0 111 131 228q-208 14 -330.5 156t-122.5 366zM264 506q0 -182 93 -287 t249 -105q159 0 244.5 103t85.5 293q0 192 -85.5 296t-244.5 104q-158 0 -250 -107.5t-92 -296.5z" />
<glyph unicode="&#x1ec;" horiz-adv-x="1544" d="M94 700q0 346 187 552t509 206q297 0 478.5 -200t181.5 -523q0 -326 -163.5 -528.5t-446.5 -226.5q-128 -126 -128 -203q0 -70 68 -70q30 0 56 13v-107q-30 -13 -82 -13q-76 0 -122 40t-46 110q0 111 131 228q-283 17 -453 215.5t-170 506.5zM270 715 q0 -265 137.5 -426.5t358.5 -161.5q236 0 372 154t136 431q0 284 -132 439t-364 155q-226 0 -367 -163t-141 -428zM528 1567v109h508v-109h-508z" />
<glyph unicode="&#x1ed;" horiz-adv-x="1200" d="M96 500q0 258 141 403t381 145q229 0 357.5 -141t128.5 -391q0 -222 -115 -366.5t-315 -169.5q-129 -128 -129 -203q0 -70 67 -70q30 0 56 13v-107q-30 -13 -82 -13q-76 0 -122 40t-46 110q0 111 131 228q-208 14 -330.5 156t-122.5 366zM264 506q0 -182 93 -287 t249 -105q159 0 244.5 103t85.5 293q0 192 -85.5 296t-244.5 104q-158 0 -250 -107.5t-92 -296.5zM356 1218v109h508v-109h-508z" />
<glyph unicode="&#x1ee;" horiz-adv-x="1250" d="M10 -194q224 -136 446 -136q233 0 378 119.5t145 310.5q0 204 -151.5 317t-417.5 113h-92v76l501 676h-780v152h1026v-76l-510 -686q273 -23 436.5 -175t163.5 -391q0 -256 -200.5 -422t-500.5 -166q-232 0 -444 107v181zM241 1890h115l164 -229l164 229h119l-214 -330 h-132z" />
<glyph unicode="&#x1ef;" horiz-adv-x="905" d="M-35 -236q165 -104 342 -104q174 0 285.5 91t111.5 235q0 149 -111 232t-317 83h-82v51l384 532h-578v140h813v-51l-393 -543q218 -26 335 -143t117 -297q0 -204 -162 -336.5t-409 -132.5q-182 0 -336 81v162zM94 1548h115l164 -229l164 229h119l-214 -330h-132z" />
<glyph unicode="&#x1f0;" horiz-adv-x="496" d="M-198 -297q74 -45 140 -45q224 0 224 358v1008h164v-981q0 -252 -101.5 -388.5t-290.5 -136.5q-70 0 -136 32v153zM-34 1548h115l164 -229l164 229h119l-214 -330h-132z" />
<glyph unicode="&#x1f1;" horiz-adv-x="2536" d="M188 0v1434h396q758 0 758 -699q0 -332 -210.5 -533.5t-563.5 -201.5h-380zM356 152h214q282 0 439 151t157 428q0 551 -586 551h-224v-1130zM1401 0v47l833 1235h-766v152h1024v-40l-840 -1242h820v-152h-1071z" />
<glyph unicode="&#x1f2;" horiz-adv-x="2332" d="M188 0v1434h396q758 0 758 -699q0 -332 -210.5 -533.5t-563.5 -201.5h-380zM356 152h214q282 0 439 151t157 428q0 551 -586 551h-224v-1130zM1441 0v51l606 833h-549v140h790v-47l-606 -837h600v-140h-841z" />
<glyph unicode="&#x1f3;" horiz-adv-x="2099" d="M96 488q0 254 128 407t341 153q211 0 307 -166h4v634h164v-1516h-164v174h-4q-114 -198 -352 -198q-193 0 -308.5 137.5t-115.5 374.5zM264 496q0 -177 82.5 -279.5t221.5 -102.5q137 0 222.5 99t85.5 250v151q0 124 -82 210t-208 86q-150 0 -236 -110t-86 -304zM1207 0 v51l606 833h-549v140h790v-47l-606 -837h600v-140h-841z" />
<glyph unicode="&#x1f4;" horiz-adv-x="1405" d="M94 698q0 333 210.5 546.5t533.5 213.5q234 0 393 -76v-186q-174 110 -412 110q-241 0 -395 -166t-154 -430q0 -272 143 -427.5t388 -155.5q168 0 291 67v402h-314v152h482v-650q-216 -122 -480 -122q-307 0 -496.5 198t-189.5 524zM686 1568l223 328h166l-262 -328h-127 z" />
<glyph unicode="&#x1f5;" horiz-adv-x="1206" d="M96 479q0 261 125.5 415t343.5 154q207 0 307 -166h4v142h164v-942q0 -564 -540 -564q-190 0 -332 72v164q173 -96 330 -96q378 0 378 402v112h-4q-117 -196 -352 -196q-191 0 -307.5 136.5t-116.5 366.5zM264 490q0 -171 82.5 -273.5t218.5 -102.5q138 0 224.5 98 t86.5 251v151q0 122 -82.5 209t-205.5 87q-152 0 -238 -110.5t-86 -309.5zM477 1218l223 328h166l-262 -328h-127z" />
<glyph unicode="&#x1f6;" horiz-adv-x="2046" d="M188 0v1434h168v-629h701v629h167v-1004q0 -303 261 -303q260 0 260 297v600h168v-596q0 -214 -116 -333t-321 -119q-201 0 -310 114.5t-109 325.5v238h-701v-654h-168z" />
<glyph unicode="&#x1f7;" horiz-adv-x="1411" d="M188 -471v1905h168v-226q235 250 520 250q194 0 318.5 -135t124.5 -334q0 -321 -254.5 -595.5t-708.5 -451.5v-413h-168zM356 110q353 145 570 373.5t217 487.5q0 142 -81.5 236.5t-217.5 94.5q-234 0 -488 -288v-904z" />
<glyph unicode="&#x1f8;" horiz-adv-x="1532" d="M188 0v1434h218l718 -1125q45 -70 58 -96h4q-10 62 -10 211v1010h168v-1434h-206l-738 1143q-28 43 -46 90h-6q8 -46 8 -197v-1036h-168zM463 1896h168l221 -328h-127z" />
<glyph unicode="&#x1f9;" d="M166 0v1024h164v-170h4q116 194 336 194q168 0 257 -108.5t89 -313.5v-626h-164v584q0 326 -238 326q-123 0 -203.5 -92.5t-80.5 -233.5v-584h-164zM285 1546h168l221 -328h-127z" />
<glyph unicode="&#x1fa;" horiz-adv-x="1321" d="M22 0l529 1378q-101 52 -101 164q0 89 60 144t152 55q88 0 144 -54.5t56 -138.5q0 -112 -96 -166l532 -1382h-186l-152 402h-608l-143 -402h-187zM408 553h497l-225 611q-11 30 -22 96h-4q-10 -61 -23 -96zM535 1802l223 328h166l-262 -328h-127zM542 1548 q0 -114 114 -114q48 0 81 33t33 81q0 49 -33 80t-81 31q-50 0 -82 -31.5t-32 -79.5z" />
<glyph unicode="&#x1fb;" horiz-adv-x="1042" d="M90 272q0 287 338 334l307 43q0 261 -211 261q-185 0 -334 -126v168q151 96 348 96q361 0 361 -382v-666h-164v160h-4q-107 -184 -315 -184q-153 0 -239.5 81t-86.5 215zM258 284q0 -75 53.5 -122.5t142.5 -47.5q122 0 201.5 85.5t79.5 216.5v102l-247 -34 q-114 -16 -172 -56.5t-58 -143.5zM315 1304q0 90 59 144t150 54q89 0 146 -54t57 -138t-61 -140t-149 -56q-87 0 -144.5 52.5t-57.5 137.5zM403 1566l223 328h166l-262 -328h-127zM405 1308q0 -112 112 -112q50 0 83 32t33 80q0 49 -33 81t-83 32q-48 0 -80 -32.5t-32 -80.5 z" />
<glyph unicode="&#x1fc;" horiz-adv-x="1762" d="M10 0l700 1434h924v-152h-559v-477h519v-151h-519v-502h592v-152h-759v402h-510l-193 -402h-195zM467 553h441v729h-95zM951 1566l223 328h166l-262 -328h-127z" />
<glyph unicode="&#x1fd;" horiz-adv-x="1704" d="M90 272q0 300 383 324l262 16q0 298 -215 298q-175 0 -330 -122v164q148 96 348 96q232 0 300 -200h4q116 200 356 200q202 0 313 -130.5t111 -362.5v-84h-725q3 -171 91 -264t241 -93q177 0 321 114v-154q-132 -98 -358 -98q-270 0 -383 229h-4q-145 -229 -387 -229 q-153 0 -240.5 80.5t-87.5 215.5zM256 276q0 -73 53 -117.5t143 -44.5q119 0 201 84.5t82 211.5v63l-203 -12q-139 -8 -207.5 -49t-68.5 -136zM732 1218l223 328h166l-262 -328h-127zM899 610h555q-2 144 -68.5 222t-185.5 78q-116 0 -199 -82t-102 -218z" />
<glyph unicode="&#x1fe;" horiz-adv-x="1544" d="M94 14l158 191q-158 195 -158 495q0 343 186.5 550.5t509.5 207.5q234 0 402 -129l135 162l78 -63l-139 -166q184 -200 184 -527q0 -351 -186 -555t-498 -204q-266 0 -442 155l-152 -182zM270 715q0 -223 98 -373l722 862q-126 102 -312 102q-227 0 -367.5 -164 t-140.5 -427zM432 264q131 -137 334 -137q236 0 372 154.5t136 430.5q0 260 -117 418zM641 1566l223 328h166l-262 -328h-127z" />
<glyph unicode="&#x1ff;" horiz-adv-x="1200" d="M49 -4l149 164q-102 137 -102 340q0 258 142 403t382 145q184 0 308 -98l162 176l84 -78l-168 -180q98 -138 98 -346q0 -252 -139 -399t-371 -147q-192 0 -318 102l-145 -160zM264 506q0 -132 50 -224l507 554q-79 74 -215 74q-159 0 -250.5 -107.5t-91.5 -296.5z M383 190q87 -76 221 -76q163 0 248.5 104t85.5 294q0 134 -47 230zM479 1218l223 328h166l-262 -328h-127z" />
<glyph unicode="&#x200;" horiz-adv-x="1321" d="M22 0l550 1434h174l552 -1434h-186l-152 402h-608l-143 -402h-187zM250 1886h133l209 -318h-96zM408 553h497l-225 611q-11 30 -22 96h-4q-10 -61 -23 -96zM498 1886h129l207 -318h-97z" />
<glyph unicode="&#x201;" horiz-adv-x="1034" d="M82 272q0 287 338 334l307 43q0 261 -211 261q-185 0 -334 -126v168q151 96 348 96q361 0 361 -382v-666h-164v160h-4q-107 -184 -315 -184q-153 0 -239.5 81t-86.5 215zM126 1536h133l209 -318h-96zM250 284q0 -75 53.5 -122.5t142.5 -47.5q122 0 201.5 85.5t79.5 216.5 v102l-247 -34q-114 -16 -172 -56.5t-58 -143.5zM374 1536h129l207 -318h-97z" />
<glyph unicode="&#x202;" horiz-adv-x="1321" d="M22 0l550 1434h174l552 -1434h-186l-152 402h-608l-143 -402h-187zM320 1538q10 106 87 172t193 66t193 -66.5t87 -171.5h-106q-24 139 -174 139t-174 -139h-106zM408 553h497l-225 611q-11 30 -22 96h-4q-10 -61 -23 -96z" />
<glyph unicode="&#x203;" horiz-adv-x="1034" d="M82 272q0 287 338 334l307 43q0 261 -211 261q-185 0 -334 -126v168q151 96 348 96q361 0 361 -382v-666h-164v160h-4q-107 -184 -315 -184q-153 0 -239.5 81t-86.5 215zM238 1230q10 106 87 172t193 66t193 -66.5t87 -171.5h-106q-24 139 -174 139t-174 -139h-106z M250 284q0 -75 53.5 -122.5t142.5 -47.5q122 0 201.5 85.5t79.5 216.5v102l-247 -34q-114 -16 -172 -56.5t-58 -143.5z" />
<glyph unicode="&#x204;" horiz-adv-x="1036" d="M158 1886h133l209 -318h-96zM188 0v1434h728v-152h-560v-477h518v-151h-518v-502h592v-152h-760zM406 1886h129l207 -318h-97z" />
<glyph unicode="&#x205;" horiz-adv-x="1071" d="M96 508q0 239 135.5 389.5t336.5 150.5t311 -130t110 -361v-86h-723q4 -171 92 -264t242 -93q173 0 318 114v-154q-135 -98 -357 -98q-217 0 -341 139.5t-124 392.5zM156 1536h133l209 -318h-96zM268 610h553q-1 142 -68.5 221t-187.5 79q-116 0 -197 -83t-100 -217z M404 1536h129l207 -318h-97z" />
<glyph unicode="&#x206;" horiz-adv-x="1036" d="M188 0v1434h728v-152h-560v-477h518v-151h-518v-502h592v-152h-760zM275 1578q10 106 87 172t193 66t193 -66.5t87 -171.5h-106q-24 139 -174 139t-174 -139h-106z" />
<glyph unicode="&#x207;" horiz-adv-x="1071" d="M96 508q0 239 135.5 389.5t336.5 150.5t311 -130t110 -361v-86h-723q4 -171 92 -264t242 -93q173 0 318 114v-154q-135 -98 -357 -98q-217 0 -341 139.5t-124 392.5zM256 1230q10 106 87 172t193 66t193 -66.5t87 -171.5h-106q-24 139 -174 139t-174 -139h-106zM268 610 h553q-1 142 -68.5 221t-187.5 79q-116 0 -197 -83t-100 -217z" />
<glyph unicode="&#x208;" horiz-adv-x="545" d="M-122 1886h133l209 -318h-96zM126 1886h129l207 -318h-97zM188 0v1434h168v-1434h-168z" />
<glyph unicode="&#x209;" horiz-adv-x="496" d="M-146 1536h133l209 -318h-96zM102 1536h129l207 -318h-97zM166 0v1024h164v-1024h-164z" />
<glyph unicode="&#x20a;" horiz-adv-x="545" d="M-8 1578q10 106 87 172t193 66t193 -66.5t87 -171.5h-106q-24 139 -174 139t-174 -139h-106zM188 0v1434h168v-1434h-168z" />
<glyph unicode="&#x20b;" horiz-adv-x="496" d="M-26 1218q4 114 78.5 183t191.5 69q113 0 190.5 -69t87.5 -183h-102q-9 72 -57.5 114t-116.5 42q-160 0 -172 -156h-100zM166 0v1024h164v-1024h-164z" />
<glyph unicode="&#x20c;" horiz-adv-x="1544" d="M94 700q0 346 187 552t509 206q297 0 478.5 -200t181.5 -523q0 -351 -186 -555t-498 -204q-305 0 -488.5 201t-183.5 523zM270 715q0 -265 137.5 -426.5t358.5 -161.5q236 0 372 154t136 431q0 284 -132 439t-364 155q-226 0 -367 -163t-141 -428zM366 1886h133l209 -318 h-96zM614 1886h129l207 -318h-97z" />
<glyph unicode="&#x20d;" horiz-adv-x="1200" d="M96 500q0 258 141 403t381 145q229 0 357.5 -141t128.5 -391q0 -245 -138.5 -392.5t-371.5 -147.5q-227 0 -362.5 143.5t-135.5 380.5zM192 1536h133l209 -318h-96zM264 506q0 -182 93 -287t249 -105q159 0 244.5 103t85.5 293q0 192 -85.5 296t-244.5 104 q-158 0 -250 -107.5t-92 -296.5zM440 1536h129l207 -318h-97z" />
<glyph unicode="&#x20e;" horiz-adv-x="1544" d="M94 700q0 346 187 552t509 206q297 0 478.5 -200t181.5 -523q0 -351 -186 -555t-498 -204q-305 0 -488.5 201t-183.5 523zM270 715q0 -265 137.5 -426.5t358.5 -161.5q236 0 372 154t136 431q0 284 -132 439t-364 155q-226 0 -367 -163t-141 -428zM492 1578 q10 106 87 172t193 66t193 -66.5t87 -171.5h-106q-24 139 -174 139t-174 -139h-106z" />
<glyph unicode="&#x20f;" horiz-adv-x="1200" d="M96 500q0 258 141 403t381 145q229 0 357.5 -141t128.5 -391q0 -245 -138.5 -392.5t-371.5 -147.5q-227 0 -362.5 143.5t-135.5 380.5zM264 506q0 -182 93 -287t249 -105q159 0 244.5 103t85.5 293q0 192 -85.5 296t-244.5 104q-158 0 -250 -107.5t-92 -296.5zM320 1230 q10 106 87 172t193 66t193 -66.5t87 -171.5h-106q-24 139 -174 139t-174 -139h-106z" />
<glyph unicode="&#x210;" horiz-adv-x="1178" d="M160 1886h133l209 -318h-96zM188 0v1434h428q94 0 173.5 -23.5t138 -71.5t91.5 -119.5t33 -167.5q0 -75 -22.5 -137.5t-64 -111.5t-100 -83.5t-131.5 -53.5v-4q36 -16 62.5 -36.5t50.5 -48.5t47.5 -63.5t52.5 -82.5l269 -431h-200l-240 402q-33 56 -64 95.5t-63.5 64.5 t-70 36.5t-84.5 11.5h-138v-610h-168zM356 762h228q63 0 116.5 19t92.5 54.5t61 87t22 115.5q0 115 -74.5 179.5t-215.5 64.5h-230v-520zM408 1886h129l207 -318h-97z" />
<glyph unicode="&#x211;" horiz-adv-x="712" d="M4 1536h133l209 -318h-96zM166 0v1024h164v-211h4q35 108 107 168.5t161 60.5q64 0 98 -14v-170q-43 33 -124 33q-105 0 -175.5 -99t-70.5 -270v-522h-164zM252 1536h129l207 -318h-97z" />
<glyph unicode="&#x212;" horiz-adv-x="1225" d="M188 0v1434h428q94 0 173.5 -23.5t138 -71.5t91.5 -119.5t33 -167.5q0 -75 -22.5 -137.5t-64 -111.5t-100 -83.5t-131.5 -53.5v-4q36 -16 62.5 -36.5t50.5 -48.5t47.5 -63.5t52.5 -82.5l269 -431h-200l-240 402q-33 56 -64 95.5t-63.5 64.5t-70 36.5t-84.5 11.5h-138 v-610h-168zM318 1578q10 106 87 172t193 66t193 -66.5t87 -171.5h-106q-24 139 -174 139t-174 -139h-106zM356 762h228q63 0 116.5 19t92.5 54.5t61 87t22 115.5q0 115 -74.5 179.5t-215.5 64.5h-230v-520z" />
<glyph unicode="&#x213;" horiz-adv-x="712" d="M154 1230q10 106 87 172t193 66t193 -66.5t87 -171.5h-106q-24 139 -174 139t-174 -139h-106zM166 0v1024h164v-211h4q35 108 107 168.5t161 60.5q64 0 98 -14v-170q-43 33 -124 33q-105 0 -175.5 -99t-70.5 -270v-522h-164z" />
<glyph unicode="&#x214;" horiz-adv-x="1407" d="M170 557v877h168v-866q0 -441 372 -441q359 0 359 426v881h168v-854q0 -604 -545 -604q-522 0 -522 581zM305 1886h133l209 -318h-96zM553 1886h129l207 -318h-97z" />
<glyph unicode="&#x215;" d="M144 412v612h163v-586q0 -324 248 -324q120 0 197.5 88.5t77.5 231.5v590h164v-1024h-164v162h-4q-102 -186 -316 -186q-366 0 -366 436zM174 1536h133l209 -318h-96zM422 1536h129l207 -318h-97z" />
<glyph unicode="&#x216;" horiz-adv-x="1407" d="M170 557v877h168v-866q0 -441 372 -441q359 0 359 426v881h168v-854q0 -604 -545 -604q-522 0 -522 581zM424 1578q10 106 87 172t193 66t193 -66.5t87 -171.5h-106q-24 139 -174 139t-174 -139h-106z" />
<glyph unicode="&#x217;" d="M144 412v612h163v-586q0 -324 248 -324q120 0 197.5 88.5t77.5 231.5v590h164v-1024h-164v162h-4q-102 -186 -316 -186q-366 0 -366 436zM299 1230q10 106 87 172t193 66t193 -66.5t87 -171.5h-106q-24 139 -174 139t-174 -139h-106z" />
<glyph unicode="&#x218;" horiz-adv-x="1088" d="M121 58v198q34 -30 81.5 -54t100 -40.5t105.5 -25.5t98 -9q155 0 231.5 57.5t76.5 165.5q0 58 -25.5 101t-70.5 78.5t-106.5 68t-132.5 68.5q-75 38 -140 77t-113 86t-75.5 106.5t-27.5 139.5q0 98 43 170.5t113 119.5t159.5 70t182.5 23q212 0 309 -51v-189 q-127 88 -326 88q-55 0 -110 -11.5t-98 -37.5t-70 -67t-27 -100q0 -55 20.5 -95t60.5 -73t97.5 -64t132.5 -68q77 -38 146 -80t121 -93t82.5 -113t30.5 -142q0 -106 -41.5 -179.5t-112 -119.5t-162.5 -66.5t-194 -20.5q-34 0 -84 5.5t-102 16t-98.5 26t-74.5 34.5zM342 -379 l117 260h172l-166 -260h-123z" />
<glyph unicode="&#x219;" horiz-adv-x="869" d="M104 37v176q134 -99 295 -99q216 0 216 144q0 41 -18.5 69.5t-50 50.5t-74 39.5t-91.5 36.5q-68 27 -119.5 54.5t-86 62t-52 78.5t-17.5 103q0 72 33 127.5t88 93t125.5 56.5t145.5 19q133 0 238 -46v-166q-113 74 -260 74q-46 0 -83 -10.5t-63.5 -29.5t-41 -45.5 t-14.5 -58.5q0 -40 14.5 -67t42.5 -48t68 -38t91 -37q68 -26 122 -53.5t92 -62t58.5 -79.5t20.5 -107q0 -76 -33.5 -132t-89.5 -93t-129 -55t-153 -18q-158 0 -274 61zM228 -379l117 260h172l-166 -260h-123z" />
<glyph unicode="&#x21a;" horiz-adv-x="1073" d="M41 1282v152h995v-152h-414v-1282h-168v1282h-413zM366 -379l117 260h172l-166 -260h-123z" />
<glyph unicode="&#x21b;" horiz-adv-x="694" d="M43 884v140h176v250l164 53v-303h258v-140h-258v-577q0 -103 35 -147t116 -44q62 0 107 34v-140q-58 -32 -153 -32q-269 0 -269 300v606h-176zM261 -379l117 260h172l-166 -260h-123z" />
<glyph unicode="&#x21c;" horiz-adv-x="1032" d="M16 -309q76 -19 178 -19q256 0 428 136.5t172 343.5q0 160 -114 261t-297 101q-90 0 -205 -32v151l113 25q430 95 430 360q0 131 -97 209.5t-264 78.5q-172 0 -334 -90v164q154 78 344 78q246 0 384.5 -118t138.5 -312q0 -281 -297 -395v-9q173 -41 274 -165.5 t101 -300.5q0 -264 -220.5 -450.5t-552.5 -186.5q-103 0 -182 14v156z" />
<glyph unicode="&#x21d;" horiz-adv-x="880" d="M30 828v151q134 69 310 69q199 0 314.5 -94.5t115.5 -245.5q0 -199 -232 -308v-7q132 -30 212 -129.5t80 -239.5q0 -217 -174 -360t-451 -143q-97 0 -158 12v145q66 -18 151 -18q203 0 333.5 100t130.5 258q0 125 -82 202t-222 77q-88 0 -182 -29v140l96 18 q158 30 246 103t88 171t-73.5 154t-210.5 56q-150 0 -292 -82z" />
<glyph unicode="&#x21e;" horiz-adv-x="1454" d="M188 0v1434h168v-629h742v629h168v-1434h-168v654h-742v-654h-168zM446 1890h115l164 -229l164 229h119l-214 -330h-132z" />
<glyph unicode="&#x21f;" d="M166 0v1516h164v-662h4q118 194 336 194q346 0 346 -417v-631h-164v590q0 320 -238 320q-120 0 -202 -92.5t-82 -237.5v-580h-164zM231 1890h115l164 -229l164 229h119l-214 -330h-132z" />
<glyph unicode="&#x220;" horiz-adv-x="1503" d="M188 0v1434h168v-262h6q158 286 476 286q233 0 357 -153.5t124 -438.5v-1337h-168v1292q0 485 -353 485q-192 0 -317 -141t-125 -354v-811h-168z" />
<glyph unicode="&#x221;" horiz-adv-x="1319" d="M96 488q0 254 128 407t341 153q211 0 307 -166h4v634h164v-1496q0 -78 19 -143q103 123 254 123q111 0 181 -58.5t70 -150.5q0 -95 -81 -158t-209 -63q-112 0 -194 51q-15 -64 -17 -103h-145q7 102 46 202q-88 120 -88 300v154h-4q-114 -198 -352 -198 q-193 0 -308.5 137.5t-115.5 374.5zM264 496q0 -177 82.5 -279.5t221.5 -102.5q137 0 222.5 99t85.5 250v151q0 124 -82 210t-208 86q-150 0 -236 -110t-86 -304zM1134 -246q60 -47 140 -47q146 0 146 84q0 76 -112 76q-106 0 -174 -113z" />
<glyph unicode="&#x222;" horiz-adv-x="1208" d="M62 450q0 286 280 414q-205 106 -205 328q0 120 55 242h172q-59 -112 -59 -234q0 -116 82 -191t219 -75q138 0 221 75t83 191q0 118 -62 234h174q55 -124 55 -242q0 -206 -209 -328q134 -52 209.5 -159t75.5 -246q0 -215 -156 -349t-395 -134q-242 0 -391 128.5 t-149 345.5zM238 454q0 -149 108 -238t260 -89q159 0 265 88.5t106 238.5q0 149 -109 236.5t-262 87.5q-158 0 -263 -87.5t-105 -236.5z" />
<glyph unicode="&#x223;" horiz-adv-x="1161" d="M72 461q0 294 266 423q-95 48 -150 147t-55 223q0 128 43 262h160q-39 -120 -39 -252q0 -142 76 -229t209 -87t207.5 87.5t74.5 228.5q0 132 -38 252h159q43 -134 43 -262q0 -245 -204 -370q266 -126 266 -419q0 -215 -148.5 -352t-367.5 -137q-223 0 -362.5 133.5 t-139.5 351.5zM240 463q0 -156 100 -252.5t240 -96.5q145 0 243.5 96t98.5 253q0 153 -100 249.5t-240 96.5q-146 0 -244 -94.5t-98 -251.5z" />
<glyph unicode="&#x224;" horiz-adv-x="1168" d="M33 0v47l833 1235h-766v152h1024v-40l-840 -1242h572q291 0 291 -252q0 -71 -33 -144h-164q39 70 39 130q0 114 -145 114h-811z" />
<glyph unicode="&#x225;" horiz-adv-x="926" d="M33 0v51l606 833h-549v140h790v-47l-606 -837h384q268 0 268 -232q0 -65 -31 -134h-149q34 64 34 120q0 106 -133 106h-614z" />
<glyph unicode="&#x226;" horiz-adv-x="1321" d="M22 0l550 1434h174l552 -1434h-186l-152 402h-608l-143 -402h-187zM408 553h497l-225 611q-11 30 -22 96h-4q-10 -61 -23 -96zM563 1674q0 40 29 68t70 28t69.5 -27.5t28.5 -68.5t-28.5 -70t-69.5 -29q-40 0 -69.5 28.5t-29.5 70.5z" />
<glyph unicode="&#x227;" horiz-adv-x="1034" d="M82 272q0 287 338 334l307 43q0 261 -211 261q-185 0 -334 -126v168q151 96 348 96q361 0 361 -382v-666h-164v160h-4q-107 -184 -315 -184q-153 0 -239.5 81t-86.5 215zM250 284q0 -75 53.5 -122.5t142.5 -47.5q122 0 201.5 85.5t79.5 216.5v102l-247 -34 q-114 -16 -172 -56.5t-58 -143.5zM420 1317q0 40 29 68t70 28t69.5 -27.5t28.5 -68.5t-28.5 -70t-69.5 -29q-40 0 -69.5 28.5t-29.5 70.5z" />
<glyph unicode="&#x228;" horiz-adv-x="1036" d="M188 0v1434h728v-152h-560v-477h518v-151h-518v-502h592v-152h-760zM445 -340q43 -6 70 -6q141 0 141 90q0 78 -129 78q-10 0 -41 -4v182h108v-104q88 0 139.5 -40t51.5 -112q0 -176 -275 -176q-38 0 -65 2v90z" />
<glyph unicode="&#x229;" horiz-adv-x="1071" d="M96 508q0 239 135.5 389.5t336.5 150.5t311 -130t110 -361v-86h-723q4 -171 92 -264t242 -93q173 0 318 114v-154q-135 -98 -357 -98q-217 0 -341 139.5t-124 392.5zM268 610h553q-1 142 -68.5 221t-187.5 79q-116 0 -197 -83t-100 -217zM432 -340q43 -6 70 -6 q141 0 141 90q0 78 -129 78q-10 0 -41 -4v182h108v-104q88 0 139.5 -40t51.5 -112q0 -176 -275 -176q-38 0 -65 2v90z" />
<glyph unicode="&#x22a;" horiz-adv-x="1544" d="M94 700q0 346 187 552t509 206q297 0 478.5 -200t181.5 -523q0 -351 -186 -555t-498 -204q-305 0 -488.5 201t-183.5 523zM270 715q0 -265 137.5 -426.5t358.5 -161.5q236 0 372 154t136 431q0 284 -132 439t-364 155q-226 0 -367 -163t-141 -428zM483 1678q0 42 28.5 70 t70.5 28q41 0 70.5 -28.5t29.5 -69.5t-28.5 -70t-69.5 -29t-71 28.5t-30 70.5zM522 1846v109h508v-109h-508zM870 1678q0 42 28.5 70t67.5 28q42 0 71.5 -28.5t29.5 -69.5t-28.5 -70t-70.5 -29q-40 0 -69 28t-29 71z" />
<glyph unicode="&#x22b;" horiz-adv-x="1200" d="M96 500q0 258 141 403t381 145q229 0 357.5 -141t128.5 -391q0 -245 -138.5 -392.5t-371.5 -147.5q-227 0 -362.5 143.5t-135.5 380.5zM264 506q0 -182 93 -287t249 -105q159 0 244.5 103t85.5 293q0 192 -85.5 296t-244.5 104q-158 0 -250 -107.5t-92 -296.5zM307 1317 q0 42 28.5 70t70.5 28q41 0 70.5 -28.5t29.5 -69.5t-28.5 -70t-69.5 -29t-71 28.5t-30 70.5zM346 1485v109h508v-109h-508zM694 1317q0 42 28.5 70t67.5 28q42 0 71.5 -28.5t29.5 -69.5t-28.5 -70t-70.5 -29q-40 0 -69 28t-29 71z" />
<glyph unicode="&#x22c;" horiz-adv-x="1544" d="M94 700q0 346 187 552t509 206q297 0 478.5 -200t181.5 -523q0 -351 -186 -555t-498 -204q-305 0 -488.5 201t-183.5 523zM270 715q0 -265 137.5 -426.5t358.5 -161.5q236 0 372 154t136 431q0 284 -132 439t-364 155q-226 0 -367 -163t-141 -428zM461 1556 q0 107 48 171.5t134 64.5q65 0 149 -52q74 -44 128 -44q84 0 84 116h98q0 -105 -48 -171.5t-130 -66.5q-71 0 -162 52q-77 43 -119 43q-88 0 -88 -113h-94zM522 1866v109h508v-109h-508z" />
<glyph unicode="&#x22d;" horiz-adv-x="1200" d="M96 500q0 258 141 403t381 145q229 0 357.5 -141t128.5 -391q0 -245 -138.5 -392.5t-371.5 -147.5q-227 0 -362.5 143.5t-135.5 380.5zM264 506q0 -182 93 -287t249 -105q159 0 244.5 103t85.5 293q0 192 -85.5 296t-244.5 104q-158 0 -250 -107.5t-92 -296.5zM291 1202 q0 107 48 171.5t134 64.5q65 0 149 -52q74 -44 128 -44q84 0 84 116h98q0 -105 -48 -171.5t-130 -66.5q-71 0 -162 52q-77 43 -119 43q-88 0 -88 -113h-94zM352 1512v109h508v-109h-508z" />
<glyph unicode="&#x22e;" horiz-adv-x="1544" d="M94 700q0 346 187 552t509 206q297 0 478.5 -200t181.5 -523q0 -351 -186 -555t-498 -204q-305 0 -488.5 201t-183.5 523zM270 715q0 -265 137.5 -426.5t358.5 -161.5q236 0 372 154t136 431q0 284 -132 439t-364 155q-226 0 -367 -163t-141 -428zM674 1674q0 40 29 68 t70 28t69.5 -27.5t28.5 -68.5t-28.5 -70t-69.5 -29q-40 0 -69.5 28.5t-29.5 70.5z" />
<glyph unicode="&#x22f;" horiz-adv-x="1200" d="M96 500q0 258 141 403t381 145q229 0 357.5 -141t128.5 -391q0 -245 -138.5 -392.5t-371.5 -147.5q-227 0 -362.5 143.5t-135.5 380.5zM264 506q0 -182 93 -287t249 -105q159 0 244.5 103t85.5 293q0 192 -85.5 296t-244.5 104q-158 0 -250 -107.5t-92 -296.5zM502 1317 q0 40 29 68t70 28t69.5 -27.5t28.5 -68.5t-28.5 -70t-69.5 -29q-40 0 -69.5 28.5t-29.5 70.5z" />
<glyph unicode="&#x230;" horiz-adv-x="1544" d="M94 700q0 346 187 552t509 206q297 0 478.5 -200t181.5 -523q0 -351 -186 -555t-498 -204q-305 0 -488.5 201t-183.5 523zM270 715q0 -265 137.5 -426.5t358.5 -161.5q236 0 372 154t136 431q0 284 -132 439t-364 155q-226 0 -367 -163t-141 -428zM518 1837v109h508v-109 h-508zM674 1674q0 41 29 68.5t69 27.5q41 0 69.5 -27.5t28.5 -68.5t-28.5 -70t-69.5 -29q-40 0 -69 28.5t-29 70.5z" />
<glyph unicode="&#x259;" horiz-adv-x="1071" d="M82 467v86h723q-4 171 -92 264t-242 93q-174 0 -318 -114v154q134 98 357 98q217 0 341 -139t124 -393q0 -242 -135.5 -391t-335.5 -149q-203 0 -312.5 131t-109.5 360zM250 414q2 -141 68 -220.5t188 -79.5q116 0 197.5 83t99.5 217h-553z" />
<glyph unicode="&#x2c6;" horiz-adv-x="760" d="M92 1218l215 332h133l216 -332h-122l-164 230l-165 -230h-113z" />
<glyph unicode="&#x2da;" horiz-adv-x="574" d="M82 1366q0 90 59 144t150 54q89 0 146 -54t57 -138t-61 -140t-149 -56q-87 0 -144.5 52.5t-57.5 137.5zM172 1370q0 -112 112 -112q50 0 83 32t33 80q0 49 -33 81t-83 32q-48 0 -80 -32.5t-32 -80.5z" />
<glyph unicode="&#x2dc;" horiz-adv-x="690" d="M35 1202q0 107 48 171.5t134 64.5q65 0 149 -52q74 -44 128 -44q84 0 84 116h98q0 -105 -48 -171.5t-130 -66.5q-71 0 -162 52q-77 43 -119 43q-88 0 -88 -113h-94z" />
<glyph unicode="&#x1e00;" horiz-adv-x="1321" d="M22 0l550 1434h174l552 -1434h-186l-152 402h-608l-143 -402h-187zM408 553h497l-225 611q-11 30 -22 96h-4q-10 -61 -23 -96zM455 -318q0 90 59 144t150 54q89 0 146 -54t57 -138t-61 -140t-149 -56q-87 0 -144.5 52.5t-57.5 137.5zM545 -314q0 -112 112 -112 q50 0 83 32t33 80q0 49 -33 81t-83 32q-48 0 -80 -32.5t-32 -80.5z" />
<glyph unicode="&#x1e01;" horiz-adv-x="1042" d="M90 272q0 287 338 334l307 43q0 261 -211 261q-185 0 -334 -126v168q151 96 348 96q361 0 361 -382v-666h-164v160h-4q-107 -184 -315 -184q-153 0 -239.5 81t-86.5 215zM258 284q0 -75 53.5 -122.5t142.5 -47.5q122 0 201.5 85.5t79.5 216.5v102l-247 -34 q-114 -16 -172 -56.5t-58 -143.5zM315 -317q0 90 59 144t150 54q89 0 146 -54t57 -138t-61 -140t-149 -56q-87 0 -144.5 52.5t-57.5 137.5zM405 -313q0 -112 112 -112q50 0 83 32t33 80q0 49 -33 81t-83 32q-48 0 -80 -32.5t-32 -80.5z" />
<glyph unicode="&#x1e02;" horiz-adv-x="1174" d="M188 0v1434h408q186 0 295 -91t109 -237q0 -122 -66 -212t-182 -128v-4q145 -17 232 -109.5t87 -240.5q0 -184 -132 -298t-333 -114h-418zM356 152h228q148 0 229.5 70t81.5 192q0 254 -346 254h-193v-516zM356 819h172q138 0 217 66.5t79 187.5q0 209 -275 209h-193 v-463zM435 1666q0 40 29 68t70 28t69.5 -27.5t28.5 -68.5t-28.5 -70t-69.5 -29q-40 0 -69.5 28.5t-29.5 70.5z" />
<glyph unicode="&#x1e03;" horiz-adv-x="1204" d="M166 0v1516h164v-672h4q121 204 354 204q197 0 308.5 -137.5t111.5 -368.5q0 -257 -125 -411.5t-342 -154.5q-203 0 -307 172h-4v-148h-164zM330 418q0 -127 82.5 -215.5t209.5 -88.5q149 0 233.5 114t84.5 317q0 171 -79 268t-214 97q-143 0 -230 -99.5t-87 -249.5v-143 zM503 1317q0 40 29 68t70 28t69.5 -27.5t28.5 -68.5t-28.5 -70t-69.5 -29q-40 0 -69.5 28.5t-29.5 70.5z" />
<glyph unicode="&#x1e04;" horiz-adv-x="1174" d="M188 0v1434h408q186 0 295 -91t109 -237q0 -122 -66 -212t-182 -128v-4q145 -17 232 -109.5t87 -240.5q0 -184 -132 -298t-333 -114h-418zM356 152h228q148 0 229.5 70t81.5 192q0 254 -346 254h-193v-516zM356 819h172q138 0 217 66.5t79 187.5q0 209 -275 209h-193 v-463zM467 -215q0 41 30 68.5t69 27.5q41 0 70 -27.5t29 -68.5t-29 -70t-70 -29t-70 29t-29 70z" />
<glyph unicode="&#x1e05;" horiz-adv-x="1204" d="M166 0v1516h164v-672h4q121 204 354 204q197 0 308.5 -137.5t111.5 -368.5q0 -257 -125 -411.5t-342 -154.5q-203 0 -307 172h-4v-148h-164zM330 418q0 -127 82.5 -215.5t209.5 -88.5q149 0 233.5 114t84.5 317q0 171 -79 268t-214 97q-143 0 -230 -99.5t-87 -249.5v-143 zM524 -215q0 41 30 68.5t69 27.5q41 0 70 -27.5t29 -68.5t-29 -70t-70 -29t-70 29t-29 70z" />
<glyph unicode="&#x1e06;" horiz-adv-x="1174" d="M188 0v1434h408q186 0 295 -91t109 -237q0 -122 -66 -212t-182 -128v-4q145 -17 232 -109.5t87 -240.5q0 -184 -132 -298t-333 -114h-418zM346 -117h508v-109h-508v109zM356 152h228q148 0 229.5 70t81.5 192q0 254 -346 254h-193v-516zM356 819h172q138 0 217 66.5 t79 187.5q0 209 -275 209h-193v-463z" />
<glyph unicode="&#x1e07;" horiz-adv-x="1204" d="M166 0v1516h164v-672h4q121 204 354 204q197 0 308.5 -137.5t111.5 -368.5q0 -257 -125 -411.5t-342 -154.5q-203 0 -307 172h-4v-148h-164zM330 418q0 -127 82.5 -215.5t209.5 -88.5q149 0 233.5 114t84.5 317q0 171 -79 268t-214 97q-143 0 -230 -99.5t-87 -249.5v-143 zM381 -117h508v-109h-508v109z" />
<glyph unicode="&#x1e08;" horiz-adv-x="1268" d="M94 690q0 344 207 556t525 212q204 0 338 -59v-179q-154 86 -340 86q-247 0 -400.5 -165t-153.5 -441q0 -262 143.5 -417.5t376.5 -155.5q216 0 374 96v-163q-159 -84 -396 -84q-306 0 -490 197t-184 517zM620 -340q43 -6 70 -6q141 0 141 90q0 78 -129 78q-10 0 -41 -4 v182h108v-104q88 0 139.5 -40t51.5 -112q0 -176 -275 -176q-38 0 -65 2v90zM636 1567l223 328h166l-262 -328h-127z" />
<glyph unicode="&#x1e09;" horiz-adv-x="946" d="M96 488q0 253 145 406.5t387 153.5q135 0 238 -50v-168q-114 80 -244 80q-157 0 -257.5 -112.5t-100.5 -295.5q0 -180 94.5 -284t253.5 -104q134 0 252 89v-156q-118 -71 -280 -71q-219 0 -353.5 142.5t-134.5 369.5zM438 -340q43 -6 70 -6q141 0 141 90q0 78 -129 78 q-10 0 -41 -4v182h108v-104q88 0 139.5 -40t51.5 -112q0 -176 -275 -176q-38 0 -65 2v90zM438 1218l223 328h166l-262 -328h-127z" />
<glyph unicode="&#x1e0a;" horiz-adv-x="1436" d="M188 0v1434h396q758 0 758 -699q0 -332 -210.5 -533.5t-563.5 -201.5h-380zM356 152h214q282 0 439 151t157 428q0 551 -586 551h-224v-1130zM574 1666q0 40 29 68t70 28t69.5 -27.5t28.5 -68.5t-28.5 -70t-69.5 -29q-40 0 -69.5 28.5t-29.5 70.5z" />
<glyph unicode="&#x1e0b;" horiz-adv-x="1206" d="M96 488q0 254 128 407t341 153q211 0 307 -166h4v634h164v-1516h-164v174h-4q-114 -198 -352 -198q-193 0 -308.5 137.5t-115.5 374.5zM264 496q0 -177 82.5 -279.5t221.5 -102.5q137 0 222.5 99t85.5 250v151q0 124 -82 210t-208 86q-150 0 -236 -110t-86 -304z M464 1317q0 40 29 68t70 28t69.5 -27.5t28.5 -68.5t-28.5 -70t-69.5 -29q-40 0 -69.5 28.5t-29.5 70.5z" />
<glyph unicode="&#x1e0c;" horiz-adv-x="1436" d="M188 0v1434h396q758 0 758 -699q0 -332 -210.5 -533.5t-563.5 -201.5h-380zM356 152h214q282 0 439 151t157 428q0 551 -586 551h-224v-1130zM582 -215q0 41 30 68.5t69 27.5q41 0 70 -27.5t29 -68.5t-29 -70t-70 -29t-70 29t-29 70z" />
<glyph unicode="&#x1e0d;" horiz-adv-x="1206" d="M96 488q0 254 128 407t341 153q211 0 307 -166h4v634h164v-1516h-164v174h-4q-114 -198 -352 -198q-193 0 -308.5 137.5t-115.5 374.5zM264 496q0 -177 82.5 -279.5t221.5 -102.5q137 0 222.5 99t85.5 250v151q0 124 -82 210t-208 86q-150 0 -236 -110t-86 -304z M500 -215q0 41 30 68.5t69 27.5q41 0 70 -27.5t29 -68.5t-29 -70t-70 -29t-70 29t-29 70z" />
<glyph unicode="&#x1e0e;" horiz-adv-x="1436" d="M188 0v1434h396q758 0 758 -699q0 -332 -210.5 -533.5t-563.5 -201.5h-380zM356 152h214q282 0 439 151t157 428q0 551 -586 551h-224v-1130zM388 -117h508v-109h-508v109z" />
<glyph unicode="&#x1e0f;" horiz-adv-x="1206" d="M96 488q0 254 128 407t341 153q211 0 307 -166h4v634h164v-1516h-164v174h-4q-114 -198 -352 -198q-193 0 -308.5 137.5t-115.5 374.5zM264 496q0 -177 82.5 -279.5t221.5 -102.5q137 0 222.5 99t85.5 250v151q0 124 -82 210t-208 86q-150 0 -236 -110t-86 -304z M346 -117h508v-109h-508v109z" />
<glyph unicode="&#x1e10;" horiz-adv-x="1436" d="M188 0v1434h396q758 0 758 -699q0 -332 -210.5 -533.5t-563.5 -201.5h-380zM356 152h214q282 0 439 151t157 428q0 551 -586 551h-224v-1130zM549 -379l117 260h172l-166 -260h-123z" />
<glyph unicode="&#x1e11;" horiz-adv-x="1206" d="M96 488q0 254 128 407t341 153q211 0 307 -166h4v634h164v-1516h-164v174h-4q-114 -198 -352 -198q-193 0 -308.5 137.5t-115.5 374.5zM264 496q0 -177 82.5 -279.5t221.5 -102.5q137 0 222.5 99t85.5 250v151q0 124 -82 210t-208 86q-150 0 -236 -110t-86 -304z M440 -379l117 260h172l-166 -260h-123z" />
<glyph unicode="&#x1e12;" horiz-adv-x="1436" d="M188 0v1434h396q758 0 758 -699q0 -332 -210.5 -533.5t-563.5 -201.5h-380zM356 152h214q282 0 439 151t157 428q0 551 -586 551h-224v-1130zM411 -451l215 332h133l216 -332h-122l-164 230l-165 -230h-113z" />
<glyph unicode="&#x1e13;" horiz-adv-x="1206" d="M96 488q0 254 128 407t341 153q211 0 307 -166h4v634h164v-1516h-164v174h-4q-114 -198 -352 -198q-193 0 -308.5 137.5t-115.5 374.5zM264 496q0 -177 82.5 -279.5t221.5 -102.5q137 0 222.5 99t85.5 250v151q0 124 -82 210t-208 86q-150 0 -236 -110t-86 -304z M316 -450l215 332h133l216 -332h-122l-164 230l-165 -230h-113z" />
<glyph unicode="&#x1e14;" horiz-adv-x="1036" d="M188 0v1434h728v-152h-560v-477h518v-151h-518v-502h592v-152h-760zM298 1566v110h508v-110h-508zM314 1999h168l180 -246h-127z" />
<glyph unicode="&#x1e15;" horiz-adv-x="1071" d="M96 508q0 239 135.5 389.5t336.5 150.5t311 -130t110 -361v-86h-723q4 -171 92 -264t242 -93q173 0 318 114v-154q-135 -98 -357 -98q-217 0 -341 139.5t-124 392.5zM268 610h553q-1 142 -68.5 221t-187.5 79q-116 0 -197 -83t-100 -217zM290 1218v109h508v-109h-508z M306 1650h168l180 -245h-127z" />
<glyph unicode="&#x1e16;" horiz-adv-x="1036" d="M188 0v1434h728v-152h-560v-477h518v-151h-518v-502h592v-152h-760zM315 1566v110h508v-110h-508zM458 1753l180 246h168l-221 -246h-127z" />
<glyph unicode="&#x1e17;" horiz-adv-x="1071" d="M96 508q0 239 135.5 389.5t336.5 150.5t311 -130t110 -361v-86h-723q4 -171 92 -264t242 -93q173 0 318 114v-154q-135 -98 -357 -98q-217 0 -341 139.5t-124 392.5zM268 610h553q-1 142 -68.5 221t-187.5 79q-116 0 -197 -83t-100 -217zM290 1218v109h508v-109h-508z M433 1405l180 245h168l-221 -245h-127z" />
<glyph unicode="&#x1e18;" horiz-adv-x="1036" d="M188 0v1434h728v-152h-560v-477h518v-151h-518v-502h592v-152h-760zM309 -452l215 332h133l216 -332h-122l-164 230l-165 -230h-113z" />
<glyph unicode="&#x1e19;" horiz-adv-x="1071" d="M96 508q0 239 135.5 389.5t336.5 150.5t311 -130t110 -361v-86h-723q4 -171 92 -264t242 -93q173 0 318 114v-154q-135 -98 -357 -98q-217 0 -341 139.5t-124 392.5zM268 610h553q-1 142 -68.5 221t-187.5 79q-116 0 -197 -83t-100 -217zM310 -451l215 332h133l216 -332 h-122l-164 230l-165 -230h-113z" />
<glyph unicode="&#x1e1a;" horiz-adv-x="1036" d="M188 0v1434h728v-152h-560v-477h518v-151h-518v-502h592v-152h-760zM244 -358q0 107 48 171.5t134 64.5q65 0 149 -52q74 -44 128 -44q84 0 84 116h98q0 -105 -48 -171.5t-130 -66.5q-71 0 -162 52q-77 43 -119 43q-88 0 -88 -113h-94z" />
<glyph unicode="&#x1e1b;" horiz-adv-x="1071" d="M96 508q0 239 135.5 389.5t336.5 150.5t311 -130t110 -361v-86h-723q4 -171 92 -264t242 -93q173 0 318 114v-154q-135 -98 -357 -98q-217 0 -341 139.5t-124 392.5zM260 -359q0 107 48 171.5t134 64.5q65 0 149 -52q74 -44 128 -44q84 0 84 116h98q0 -105 -48 -171.5 t-130 -66.5q-71 0 -162 52q-77 43 -119 43q-88 0 -88 -113h-94zM268 610h553q-1 142 -68.5 221t-187.5 79q-116 0 -197 -83t-100 -217z" />
<glyph unicode="&#x1e1c;" horiz-adv-x="1036" d="M188 0v1434h728v-152h-560v-477h518v-151h-518v-502h592v-152h-760zM273 1820h100q12 -155 172 -155q68 0 116.5 42t58.5 113h102q-10 -113 -88.5 -182.5t-190.5 -69.5q-117 0 -191 69t-79 183zM445 -340q43 -6 70 -6q141 0 141 90q0 78 -129 78q-10 0 -41 -4v182h108 v-104q88 0 139.5 -40t51.5 -112q0 -176 -275 -176q-38 0 -65 2v90z" />
<glyph unicode="&#x1e1d;" horiz-adv-x="1071" d="M96 508q0 239 135.5 389.5t336.5 150.5t311 -130t110 -361v-86h-723q4 -171 92 -264t242 -93q173 0 318 114v-154q-135 -98 -357 -98q-217 0 -341 139.5t-124 392.5zM266 1470h100q12 -155 172 -155q68 0 116.5 42t58.5 113h102q-10 -113 -88.5 -182.5t-190.5 -69.5 q-117 0 -191 69t-79 183zM268 610h553q-1 142 -68.5 221t-187.5 79q-116 0 -197 -83t-100 -217zM432 -340q43 -6 70 -6q141 0 141 90q0 78 -129 78q-10 0 -41 -4v182h108v-104q88 0 139.5 -40t51.5 -112q0 -176 -275 -176q-38 0 -65 2v90z" />
<glyph unicode="&#x1e1e;" horiz-adv-x="1000" d="M188 0v1434h728v-152h-560v-496h518v-151h-518v-635h-168zM438 1666q0 40 29 68t70 28t69.5 -27.5t28.5 -68.5t-28.5 -70t-69.5 -29q-40 0 -69.5 28.5t-29.5 70.5z" />
<glyph unicode="&#x1e1f;" horiz-adv-x="641" d="M53 884v140h175v166q0 161 93 254.5t232 93.5q75 0 119 -18v-148q-48 27 -109 27q-172 0 -172 -217v-158h240v-140h-240v-884h-163v884h-175zM111 1666q0 40 29 68t70 28t69.5 -27.5t28.5 -68.5t-28.5 -70t-69.5 -29q-40 0 -69.5 28.5t-29.5 70.5z" />
<glyph unicode="&#x1e20;" horiz-adv-x="1405" d="M94 698q0 333 210.5 546.5t533.5 213.5q234 0 393 -76v-186q-174 110 -412 110q-241 0 -395 -166t-154 -430q0 -272 143 -427.5t388 -155.5q168 0 291 67v402h-314v152h482v-650q-216 -122 -480 -122q-307 0 -496.5 198t-189.5 524zM536 1567v109h508v-109h-508z" />
<glyph unicode="&#x1e21;" horiz-adv-x="1206" d="M96 479q0 261 125.5 415t343.5 154q207 0 307 -166h4v142h164v-942q0 -564 -540 -564q-190 0 -332 72v164q173 -96 330 -96q378 0 378 402v112h-4q-117 -196 -352 -196q-191 0 -307.5 136.5t-116.5 366.5zM264 490q0 -171 82.5 -273.5t218.5 -102.5q138 0 224.5 98 t86.5 251v151q0 122 -82.5 209t-205.5 87q-152 0 -238 -110.5t-86 -309.5zM341 1218v109h508v-109h-508z" />
<glyph unicode="&#x1e22;" horiz-adv-x="1454" d="M188 0v1434h168v-629h742v629h168v-1434h-168v654h-742v-654h-168zM621 1666q0 40 29 68t70 28t69.5 -27.5t28.5 -68.5t-28.5 -70t-69.5 -29q-40 0 -69.5 28.5t-29.5 70.5z" />
<glyph unicode="&#x1e23;" d="M166 0v1516h164v-662h4q118 194 336 194q346 0 346 -417v-631h-164v590q0 320 -238 320q-120 0 -202 -92.5t-82 -237.5v-580h-164zM504 1317q0 40 29 68t70 28t69.5 -27.5t28.5 -68.5t-28.5 -70t-69.5 -29q-40 0 -69.5 28.5t-29.5 70.5z" />
<glyph unicode="&#x1e24;" horiz-adv-x="1454" d="M188 0v1434h168v-629h742v629h168v-1434h-168v654h-742v-654h-168zM641 -215q0 41 30 68.5t69 27.5q41 0 70 -27.5t29 -68.5t-29 -70t-70 -29t-70 29t-29 70z" />
<glyph unicode="&#x1e25;" d="M166 0v1516h164v-662h4q118 194 336 194q346 0 346 -417v-631h-164v590q0 320 -238 320q-120 0 -202 -92.5t-82 -237.5v-580h-164zM473 -215q0 41 30 68.5t69 27.5q41 0 70 -27.5t29 -68.5t-29 -70t-70 -29t-70 29t-29 70z" />
<glyph unicode="&#x1e26;" horiz-adv-x="1454" d="M188 0v1434h168v-629h742v629h168v-1434h-168v654h-742v-654h-168zM437 1666q0 42 28.5 70t69.5 28t71 -28.5t30 -69.5t-29 -70t-69 -29q-42 0 -71.5 29.5t-29.5 69.5zM824 1666q0 42 28 70t68 28q42 0 71 -28.5t29 -69.5t-28 -70t-70 -29q-40 0 -69 28t-29 71z" />
<glyph unicode="&#x1e27;" d="M166 0v1516h164v-662h4q118 194 336 194q346 0 346 -417v-631h-164v590q0 320 -238 320q-120 0 -202 -92.5t-82 -237.5v-580h-164zM352 1666q0 42 28.5 70t69.5 28t71 -28.5t30 -69.5t-29 -70t-69 -29q-42 0 -71.5 29.5t-29.5 69.5zM739 1666q0 42 28 70t68 28 q42 0 71 -28.5t29 -69.5t-28 -70t-70 -29q-40 0 -69 28t-29 71z" />
<glyph unicode="&#x1e28;" horiz-adv-x="1454" d="M160 -340q43 -6 70 -6q141 0 141 90q0 78 -129 78q-10 0 -41 -4v182h108v-104q88 0 139.5 -40t51.5 -112q0 -176 -275 -176q-38 0 -65 2v90zM188 0v1434h168v-629h742v629h168v-1434h-168v654h-742v-654h-168z" />
<glyph unicode="&#x1e29;" d="M140 -340q43 -6 70 -6q141 0 141 90q0 78 -129 78q-10 0 -41 -4v182h108v-104q88 0 139.5 -40t51.5 -112q0 -176 -275 -176q-38 0 -65 2v90zM166 0v1516h164v-662h4q118 194 336 194q346 0 346 -417v-631h-164v590q0 320 -238 320q-120 0 -202 -92.5t-82 -237.5v-580 h-164z" />
<glyph unicode="&#x1e2a;" horiz-adv-x="1454" d="M188 0v1434h168v-629h742v629h168v-1434h-168v654h-742v-654h-168zM459 -120h100q12 -155 172 -155q68 0 116.5 42t58.5 113h102q-10 -113 -88.5 -182.5t-190.5 -69.5q-117 0 -191 69t-79 183z" />
<glyph unicode="&#x1e2b;" d="M166 0v1516h164v-662h4q118 194 336 194q346 0 346 -417v-631h-164v590q0 320 -238 320q-120 0 -202 -92.5t-82 -237.5v-580h-164zM332 -120h100q12 -155 172 -155q68 0 116.5 42t58.5 113h102q-10 -113 -88.5 -182.5t-190.5 -69.5q-117 0 -191 69t-79 183z" />
<glyph unicode="&#x1e2c;" horiz-adv-x="545" d="M-49 -356q0 107 48 171.5t134 64.5q65 0 149 -52q74 -44 128 -44q84 0 84 116h98q0 -105 -48 -171.5t-130 -66.5q-71 0 -162 52q-77 43 -119 43q-88 0 -88 -113h-94zM188 0v1434h168v-1434h-168z" />
<glyph unicode="&#x1e2d;" horiz-adv-x="496" d="M-71 -356q0 107 48 171.5t134 64.5q65 0 149 -52q74 -44 128 -44q84 0 84 116h98q0 -105 -48 -171.5t-130 -66.5q-71 0 -162 52q-77 43 -119 43q-88 0 -88 -113h-94zM144 1390q0 46 31 76.5t75 30.5q45 0 76.5 -30.5t31.5 -76.5q0 -44 -31.5 -75t-76.5 -31q-44 0 -75 30 t-31 76zM166 0v1024h164v-1024h-164z" />
<glyph unicode="&#x1e2e;" horiz-adv-x="545" d="M-14 1665q0 42 29.5 70.5t68.5 28.5q41 0 71 -29t30 -70t-29 -70t-69 -29q-42 0 -71.5 29.5t-29.5 69.5zM188 0v1434h168v-1434h-168zM197 1755l180 246h168l-221 -246h-127zM373 1665q0 42 28 70.5t68 28.5q42 0 71 -29t29 -70t-28 -70t-70 -29q-40 0 -69 28.5t-29 70.5 z" />
<glyph unicode="&#x1e2f;" horiz-adv-x="496" d="M-44 1317q0 42 28.5 70t69.5 28t71 -28.5t30 -69.5t-29 -70t-69 -29q-42 0 -71.5 29.5t-29.5 69.5zM166 0v1024h164v-1024h-164zM167 1407l180 245h168l-221 -245h-127zM343 1317q0 42 28 70t68 28q42 0 71 -28.5t29 -69.5t-28 -70t-70 -29q-40 0 -69 28t-29 71z" />
<glyph unicode="&#x1e30;" horiz-adv-x="1188" d="M188 0v1434h168v-674h4q14 22 38 49l536 625h209l-615 -688l658 -746h-234l-554 656q-31 37 -38 50h-4v-706h-168zM489 1565l223 328h166l-262 -328h-127z" />
<glyph unicode="&#x1e31;" horiz-adv-x="1018" d="M166 0v1516h164v-961h4l430 469h215l-475 -494l512 -530h-230l-452 492h-4v-492h-164zM361 1567l223 328h166l-262 -328h-127z" />
<glyph unicode="&#x1e32;" horiz-adv-x="1188" d="M188 0v1434h168v-674h4q14 22 38 49l536 625h209l-615 -688l658 -746h-234l-554 656q-31 37 -38 50h-4v-706h-168zM539 -215q0 41 30 68.5t69 27.5q41 0 70 -27.5t29 -68.5t-29 -70t-70 -29t-70 29t-29 70z" />
<glyph unicode="&#x1e33;" horiz-adv-x="1018" d="M166 0v1516h164v-961h4l430 469h215l-475 -494l512 -530h-230l-452 492h-4v-492h-164zM442 -215q0 41 30 68.5t69 27.5q41 0 70 -27.5t29 -68.5t-29 -70t-70 -29t-70 29t-29 70z" />
<glyph unicode="&#x1e34;" horiz-adv-x="1188" d="M188 0v1434h168v-674h4q14 22 38 49l536 625h209l-615 -688l658 -746h-234l-554 656q-31 37 -38 50h-4v-706h-168zM397 -119h508v-109h-508v109z" />
<glyph unicode="&#x1e35;" horiz-adv-x="1018" d="M166 0v1516h164v-961h4l430 469h215l-475 -494l512 -530h-230l-452 492h-4v-492h-164zM318 -119h508v-109h-508v109z" />
<glyph unicode="&#x1e36;" horiz-adv-x="964" d="M188 0v1434h168v-1282h576v-152h-744zM447 -215q0 41 30 68.5t69 27.5q41 0 70 -27.5t29 -68.5t-29 -70t-70 -29t-70 29t-29 70z" />
<glyph unicode="&#x1e37;" horiz-adv-x="496" d="M149 -215q0 41 30 68.5t69 27.5q41 0 70 -27.5t29 -68.5t-29 -70t-70 -29t-70 29t-29 70zM166 0v1516h164v-1516h-164z" />
<glyph unicode="&#x1e38;" horiz-adv-x="964" d="M188 0v1434h168v-1282h576v-152h-744zM269 1567v109h508v-109h-508zM447 -215q0 41 30 68.5t69 27.5q41 0 70 -27.5t29 -68.5t-29 -70t-70 -29t-70 29t-29 70z" />
<glyph unicode="&#x1e39;" horiz-adv-x="496" d="M-6 1567v109h508v-109h-508zM148 -215q0 41 30 68.5t69 27.5q41 0 70 -27.5t29 -68.5t-29 -70t-70 -29t-70 29t-29 70zM166 0v1516h164v-1516h-164z" />
<glyph unicode="&#x1e3a;" horiz-adv-x="964" d="M188 0v1434h168v-1282h576v-152h-744zM316 -119h508v-109h-508v109z" />
<glyph unicode="&#x1e3b;" horiz-adv-x="496" d="M-4 -119h508v-109h-508v109zM166 0v1516h164v-1516h-164z" />
<glyph unicode="&#x1e3c;" horiz-adv-x="964" d="M188 0v1434h168v-1282h576v-152h-744zM279 -451l215 332h133l216 -332h-122l-164 230l-165 -230h-113z" />
<glyph unicode="&#x1e3d;" horiz-adv-x="496" d="M-33 -450l215 332h133l216 -332h-122l-164 230l-165 -230h-113zM166 0v1516h164v-1516h-164z" />
<glyph unicode="&#x1e3e;" horiz-adv-x="1839" d="M188 0v1434h222l440 -1000q51 -115 66 -172h6q43 118 69 176l449 996h210v-1434h-167v962q0 114 14 279h-4q-24 -97 -43 -139l-490 -1102h-82l-489 1094q-21 48 -43 147h-4q8 -86 8 -281v-960h-162zM719 1567l223 328h166l-262 -328h-127z" />
<glyph unicode="&#x1e3f;" horiz-adv-x="1764" d="M166 0v1024h164v-162h4q109 186 318 186q105 0 183 -58.5t107 -153.5q114 212 340 212q338 0 338 -417v-631h-164v588q0 170 -52.5 246t-176.5 76q-105 0 -178.5 -96t-73.5 -230v-584h-164v608q0 302 -233 302q-108 0 -178 -90.5t-70 -235.5v-584h-164zM697 1218l223 328 h166l-262 -328h-127z" />
<glyph unicode="&#x1e40;" horiz-adv-x="1839" d="M188 0v1434h222l440 -1000q51 -115 66 -172h6q43 118 69 176l449 996h210v-1434h-167v962q0 114 14 279h-4q-24 -97 -43 -139l-490 -1102h-82l-489 1094q-21 48 -43 147h-4q8 -86 8 -281v-960h-162zM740 1666q0 40 29 68t70 28t69.5 -27.5t28.5 -68.5t-28.5 -70 t-69.5 -29q-40 0 -69.5 28.5t-29.5 70.5z" />
<glyph unicode="&#x1e41;" horiz-adv-x="1764" d="M166 0v1024h164v-162h4q109 186 318 186q105 0 183 -58.5t107 -153.5q114 212 340 212q338 0 338 -417v-631h-164v588q0 170 -52.5 246t-176.5 76q-105 0 -178.5 -96t-73.5 -230v-584h-164v608q0 302 -233 302q-108 0 -178 -90.5t-70 -235.5v-584h-164zM792 1317 q0 40 29 68t70 28t69.5 -27.5t28.5 -68.5t-28.5 -70t-69.5 -29q-40 0 -69.5 28.5t-29.5 70.5z" />
<glyph unicode="&#x1e42;" horiz-adv-x="1839" d="M188 0v1434h222l440 -1000q51 -115 66 -172h6q43 118 69 176l449 996h210v-1434h-167v962q0 114 14 279h-4q-24 -97 -43 -139l-490 -1102h-82l-489 1094q-21 48 -43 147h-4q8 -86 8 -281v-960h-162zM740 -215q0 41 30 68.5t69 27.5q41 0 70 -27.5t29 -68.5t-29 -70 t-70 -29t-70 29t-29 70z" />
<glyph unicode="&#x1e43;" horiz-adv-x="1764" d="M166 0v1024h164v-162h4q109 186 318 186q105 0 183 -58.5t107 -153.5q114 212 340 212q338 0 338 -417v-631h-164v588q0 170 -52.5 246t-176.5 76q-105 0 -178.5 -96t-73.5 -230v-584h-164v608q0 302 -233 302q-108 0 -178 -90.5t-70 -235.5v-584h-164zM793 -215 q0 41 30 68.5t69 27.5q41 0 70 -27.5t29 -68.5t-29 -70t-70 -29t-70 29t-29 70z" />
<glyph unicode="&#x1e44;" horiz-adv-x="1532" d="M188 0v1434h218l718 -1125q45 -70 58 -96h4q-10 62 -10 211v1010h168v-1434h-206l-738 1143q-28 43 -46 90h-6q8 -46 8 -197v-1036h-168zM659 1667q0 40 29 68t70 28t69.5 -27.5t28.5 -68.5t-28.5 -70t-69.5 -29q-40 0 -69.5 28.5t-29.5 70.5z" />
<glyph unicode="&#x1e45;" d="M166 0v1024h164v-170h4q116 194 336 194q168 0 257 -108.5t89 -313.5v-626h-164v584q0 326 -238 326q-123 0 -203.5 -92.5t-80.5 -233.5v-584h-164zM502 1317q0 40 29 68t70 28t69.5 -27.5t28.5 -68.5t-28.5 -70t-69.5 -29q-40 0 -69.5 28.5t-29.5 70.5z" />
<glyph unicode="&#x1e46;" horiz-adv-x="1532" d="M188 0v1434h218l718 -1125q45 -70 58 -96h4q-10 62 -10 211v1010h168v-1434h-206l-738 1143q-28 43 -46 90h-6q8 -46 8 -197v-1036h-168zM658 -215q0 41 30 68.5t69 27.5q41 0 70 -27.5t29 -68.5t-29 -70t-70 -29t-70 29t-29 70z" />
<glyph unicode="&#x1e47;" d="M166 0v1024h164v-170h4q116 194 336 194q168 0 257 -108.5t89 -313.5v-626h-164v584q0 326 -238 326q-123 0 -203.5 -92.5t-80.5 -233.5v-584h-164zM502 -215q0 41 30 68.5t69 27.5q41 0 70 -27.5t29 -68.5t-29 -70t-70 -29t-70 29t-29 70z" />
<glyph unicode="&#x1e48;" horiz-adv-x="1532" d="M188 0v1434h218l718 -1125q45 -70 58 -96h4q-10 62 -10 211v1010h168v-1434h-206l-738 1143q-28 43 -46 90h-6q8 -46 8 -197v-1036h-168zM509 -119h508v-109h-508v109z" />
<glyph unicode="&#x1e49;" d="M166 0v1024h164v-170h4q116 194 336 194q168 0 257 -108.5t89 -313.5v-626h-164v584q0 326 -238 326q-123 0 -203.5 -92.5t-80.5 -233.5v-584h-164zM351 -119h508v-109h-508v109z" />
<glyph unicode="&#x1e4a;" horiz-adv-x="1532" d="M188 0v1434h218l718 -1125q45 -70 58 -96h4q-10 62 -10 211v1010h168v-1434h-206l-738 1143q-28 43 -46 90h-6q8 -46 8 -197v-1036h-168zM493 -452l215 332h133l216 -332h-122l-164 230l-165 -230h-113z" />
<glyph unicode="&#x1e4b;" d="M166 0v1024h164v-170h4q116 194 336 194q168 0 257 -108.5t89 -313.5v-626h-164v584q0 326 -238 326q-123 0 -203.5 -92.5t-80.5 -233.5v-584h-164zM318 -452l215 332h133l216 -332h-122l-164 230l-165 -230h-113z" />
<glyph unicode="&#x1e4c;" horiz-adv-x="1544" d="M94 700q0 346 187 552t509 206q297 0 478.5 -200t181.5 -523q0 -351 -186 -555t-498 -204q-305 0 -488.5 201t-183.5 523zM270 715q0 -265 137.5 -426.5t358.5 -161.5q236 0 372 154t136 431q0 284 -132 439t-364 155q-226 0 -367 -163t-141 -428zM455 1548 q0 216 182 216q63 0 145 -38q81 -38 132 -38q84 0 84 96h98q0 -101 -46.5 -159.5t-131.5 -58.5q-67 0 -153 37q-87 37 -128 37q-88 0 -88 -92h-94zM640 1810l180 246h168l-220 -246h-128z" />
<glyph unicode="&#x1e4d;" horiz-adv-x="1200" d="M96 500q0 258 141 403t381 145q229 0 357.5 -141t128.5 -391q0 -245 -138.5 -392.5t-371.5 -147.5q-227 0 -362.5 143.5t-135.5 380.5zM264 506q0 -182 93 -287t249 -105q159 0 244.5 103t85.5 293q0 192 -85.5 296t-244.5 104q-158 0 -250 -107.5t-92 -296.5zM278 1202 q0 215 182 215q63 0 145 -37q81 -38 132 -38q84 0 84 96h98q0 -101 -46.5 -159.5t-131.5 -58.5q-67 0 -153 37q-87 37 -128 37q-88 0 -88 -92h-94zM463 1464l180 246h168l-220 -246h-128z" />
<glyph unicode="&#x1e4e;" horiz-adv-x="1544" d="M94 700q0 346 187 552t509 206q297 0 478.5 -200t181.5 -523q0 -351 -186 -555t-498 -204q-305 0 -488.5 201t-183.5 523zM270 715q0 -265 137.5 -426.5t358.5 -161.5q236 0 372 154t136 431q0 284 -132 439t-364 155q-226 0 -367 -163t-141 -428zM452 1548 q0 216 182 216q63 0 145 -38q81 -38 132 -38q84 0 84 96h98q0 -101 -46.5 -159.5t-131.5 -58.5q-67 0 -153 37q-87 37 -128 37q-88 0 -88 -92h-94zM481 1952q0 42 29 70t69 28q42 0 71 -28.5t29 -69.5q0 -42 -28 -70t-70 -28q-40 0 -70 28t-30 70zM867 1952q0 42 28.5 70 t68.5 28q41 0 71 -28.5t30 -69.5q0 -42 -29 -70t-70 -28t-70 28t-29 70z" />
<glyph unicode="&#x1e4f;" horiz-adv-x="1200" d="M96 500q0 258 141 403t381 145q229 0 357.5 -141t128.5 -391q0 -245 -138.5 -392.5t-371.5 -147.5q-227 0 -362.5 143.5t-135.5 380.5zM264 506q0 -182 93 -287t249 -105q159 0 244.5 103t85.5 293q0 192 -85.5 296t-244.5 104q-158 0 -250 -107.5t-92 -296.5zM284 1202 q0 215 182 215q63 0 145 -37q81 -38 132 -38q84 0 84 96h98q0 -101 -46.5 -159.5t-131.5 -58.5q-67 0 -153 37q-87 37 -128 37q-88 0 -88 -92h-94zM313 1606q0 42 29 70t69 28q42 0 71 -28.5t29 -69.5q0 -42 -28 -70t-70 -28q-40 0 -70 28t-30 70zM699 1606q0 42 28.5 70 t68.5 28q41 0 71 -28.5t30 -69.5q0 -42 -29 -70t-70 -28t-70 28t-29 70z" />
<glyph unicode="&#x1e50;" horiz-adv-x="1544" d="M94 700q0 346 187 552t509 206q297 0 478.5 -200t181.5 -523q0 -351 -186 -555t-498 -204q-305 0 -488.5 201t-183.5 523zM270 715q0 -265 137.5 -426.5t358.5 -161.5q236 0 372 154t136 431q0 284 -132 439t-364 155q-226 0 -367 -163t-141 -428zM520 1566v110h508v-110 h-508zM536 1999h168l180 -246h-127z" />
<glyph unicode="&#x1e51;" horiz-adv-x="1200" d="M96 500q0 258 141 403t381 145q229 0 357.5 -141t128.5 -391q0 -245 -138.5 -392.5t-371.5 -147.5q-227 0 -362.5 143.5t-135.5 380.5zM264 506q0 -182 93 -287t249 -105q159 0 244.5 103t85.5 293q0 192 -85.5 296t-244.5 104q-158 0 -250 -107.5t-92 -296.5zM346 1218 v109h508v-109h-508zM362 1650h168l180 -245h-127z" />
<glyph unicode="&#x1e52;" horiz-adv-x="1544" d="M94 700q0 346 187 552t509 206q297 0 478.5 -200t181.5 -523q0 -351 -186 -555t-498 -204q-305 0 -488.5 201t-183.5 523zM270 715q0 -265 137.5 -426.5t358.5 -161.5q236 0 372 154t136 431q0 284 -132 439t-364 155q-226 0 -367 -163t-141 -428zM520 1566v110h508v-110 h-508zM663 1753l180 246h168l-221 -246h-127z" />
<glyph unicode="&#x1e53;" horiz-adv-x="1200" d="M96 500q0 258 141 403t381 145q229 0 357.5 -141t128.5 -391q0 -245 -138.5 -392.5t-371.5 -147.5q-227 0 -362.5 143.5t-135.5 380.5zM264 506q0 -182 93 -287t249 -105q159 0 244.5 103t85.5 293q0 192 -85.5 296t-244.5 104q-158 0 -250 -107.5t-92 -296.5zM337 1218 v109h508v-109h-508zM480 1405l180 245h168l-221 -245h-127z" />
<glyph unicode="&#x1e54;" horiz-adv-x="1147" d="M188 0v1434h394q230 0 356.5 -112t126.5 -316t-140.5 -334t-379.5 -130h-189v-542h-168zM356 694h176q174 0 265.5 79.5t91.5 224.5q0 284 -336 284h-197v-588zM361 1567l223 328h166l-262 -328h-127z" />
<glyph unicode="&#x1e55;" horiz-adv-x="1204" d="M166 -471v1495h164v-180h4q121 204 354 204q198 0 309 -137.5t111 -368.5q0 -257 -125 -411.5t-342 -154.5q-199 0 -307 172h-4v-619h-164zM330 418q0 -127 82.5 -215.5t209.5 -88.5q149 0 233.5 114t84.5 317q0 171 -79 268t-214 97q-143 0 -230 -99.5t-87 -249.5v-143z M418 1218l223 328h166l-262 -328h-127z" />
<glyph unicode="&#x1e56;" horiz-adv-x="1147" d="M188 0v1434h394q230 0 356.5 -112t126.5 -316t-140.5 -334t-379.5 -130h-189v-542h-168zM356 694h176q174 0 265.5 79.5t91.5 224.5q0 284 -336 284h-197v-588zM456 1666q0 40 29 68t70 28t69.5 -27.5t28.5 -68.5t-28.5 -70t-69.5 -29q-40 0 -69.5 28.5t-29.5 70.5z" />
<glyph unicode="&#x1e57;" horiz-adv-x="1204" d="M166 -471v1495h164v-180h4q121 204 354 204q198 0 309 -137.5t111 -368.5q0 -257 -125 -411.5t-342 -154.5q-199 0 -307 172h-4v-619h-164zM330 418q0 -127 82.5 -215.5t209.5 -88.5q149 0 233.5 114t84.5 317q0 171 -79 268t-214 97q-143 0 -230 -99.5t-87 -249.5v-143z M523 1317q0 40 29 68t70 28t69.5 -27.5t28.5 -68.5t-28.5 -70t-69.5 -29q-40 0 -69.5 28.5t-29.5 70.5z" />
<glyph unicode="&#x1e58;" horiz-adv-x="1225" d="M188 0v1434h428q94 0 173.5 -23.5t138 -71.5t91.5 -119.5t33 -167.5q0 -75 -22.5 -137.5t-64 -111.5t-100 -83.5t-131.5 -53.5v-4q36 -16 62.5 -36.5t50.5 -48.5t47.5 -63.5t52.5 -82.5l269 -431h-200l-240 402q-33 56 -64 95.5t-63.5 64.5t-70 36.5t-84.5 11.5h-138 v-610h-168zM356 762h228q63 0 116.5 19t92.5 54.5t61 87t22 115.5q0 115 -74.5 179.5t-215.5 64.5h-230v-520zM499 1666q0 40 29 68t70 28t69.5 -27.5t28.5 -68.5t-28.5 -70t-69.5 -29q-40 0 -69.5 28.5t-29.5 70.5z" />
<glyph unicode="&#x1e59;" horiz-adv-x="712" d="M166 0v1024h164v-211h4q35 108 107 168.5t161 60.5q64 0 98 -14v-170q-43 33 -124 33q-105 0 -175.5 -99t-70.5 -270v-522h-164zM290 1317q0 40 29 68t70 28t69.5 -27.5t28.5 -68.5t-28.5 -70t-69.5 -29q-40 0 -69.5 28.5t-29.5 70.5z" />
<glyph unicode="&#x1e5a;" horiz-adv-x="1225" d="M188 0v1434h428q94 0 173.5 -23.5t138 -71.5t91.5 -119.5t33 -167.5q0 -75 -22.5 -137.5t-64 -111.5t-100 -83.5t-131.5 -53.5v-4q36 -16 62.5 -36.5t50.5 -48.5t47.5 -63.5t52.5 -82.5l269 -431h-200l-240 402q-33 56 -64 95.5t-63.5 64.5t-70 36.5t-84.5 11.5h-138 v-610h-168zM356 762h228q63 0 116.5 19t92.5 54.5t61 87t22 115.5q0 115 -74.5 179.5t-215.5 64.5h-230v-520zM549 -215q0 41 30 68.5t69 27.5q41 0 70 -27.5t29 -68.5t-29 -70t-70 -29t-70 29t-29 70z" />
<glyph unicode="&#x1e5b;" horiz-adv-x="712" d="M166 0v1024h164v-211h4q35 108 107 168.5t161 60.5q64 0 98 -14v-170q-43 33 -124 33q-105 0 -175.5 -99t-70.5 -270v-522h-164zM332 -215q0 41 30 68.5t69 27.5q41 0 70 -27.5t29 -68.5t-29 -70t-70 -29t-70 29t-29 70z" />
<glyph unicode="&#x1e5c;" horiz-adv-x="1225" d="M188 0v1434h428q94 0 173.5 -23.5t138 -71.5t91.5 -119.5t33 -167.5q0 -75 -22.5 -137.5t-64 -111.5t-100 -83.5t-131.5 -53.5v-4q36 -16 62.5 -36.5t50.5 -48.5t47.5 -63.5t52.5 -82.5l269 -431h-200l-240 402q-33 56 -64 95.5t-63.5 64.5t-70 36.5t-84.5 11.5h-138 v-610h-168zM353 1567v109h508v-109h-508zM356 762h228q63 0 116.5 19t92.5 54.5t61 87t22 115.5q0 115 -74.5 179.5t-215.5 64.5h-230v-520zM549 -215q0 41 30 68.5t69 27.5q41 0 70 -27.5t29 -68.5t-29 -70t-70 -29t-70 29t-29 70z" />
<glyph unicode="&#x1e5d;" horiz-adv-x="712" d="M166 0v1024h164v-211h4q35 108 107 168.5t161 60.5q64 0 98 -14v-170q-43 33 -124 33q-105 0 -175.5 -99t-70.5 -270v-522h-164zM170 1218v109h508v-109h-508zM332 -215q0 41 30 68.5t69 27.5q41 0 70 -27.5t29 -68.5t-29 -70t-70 -29t-70 29t-29 70z" />
<glyph unicode="&#x1e5e;" horiz-adv-x="1225" d="M188 0v1434h428q94 0 173.5 -23.5t138 -71.5t91.5 -119.5t33 -167.5q0 -75 -22.5 -137.5t-64 -111.5t-100 -83.5t-131.5 -53.5v-4q36 -16 62.5 -36.5t50.5 -48.5t47.5 -63.5t52.5 -82.5l269 -431h-200l-240 402q-33 56 -64 95.5t-63.5 64.5t-70 36.5t-84.5 11.5h-138 v-610h-168zM356 762h228q63 0 116.5 19t92.5 54.5t61 87t22 115.5q0 115 -74.5 179.5t-215.5 64.5h-230v-520zM410 -120h508v-109h-508v109z" />
<glyph unicode="&#x1e5f;" horiz-adv-x="712" d="M166 0v1024h164v-211h4q35 108 107 168.5t161 60.5q64 0 98 -14v-170q-43 33 -124 33q-105 0 -175.5 -99t-70.5 -270v-522h-164zM203 -118h508v-109h-508v109z" />
<glyph unicode="&#x1e60;" horiz-adv-x="1088" d="M121 58v198q34 -30 81.5 -54t100 -40.5t105.5 -25.5t98 -9q155 0 231.5 57.5t76.5 165.5q0 58 -25.5 101t-70.5 78.5t-106.5 68t-132.5 68.5q-75 38 -140 77t-113 86t-75.5 106.5t-27.5 139.5q0 98 43 170.5t113 119.5t159.5 70t182.5 23q212 0 309 -51v-189 q-127 88 -326 88q-55 0 -110 -11.5t-98 -37.5t-70 -67t-27 -100q0 -55 20.5 -95t60.5 -73t97.5 -64t132.5 -68q77 -38 146 -80t121 -93t82.5 -113t30.5 -142q0 -106 -41.5 -179.5t-112 -119.5t-162.5 -66.5t-194 -20.5q-34 0 -84 5.5t-102 16t-98.5 26t-74.5 34.5zM495 1666 q0 40 29 68t70 28t69.5 -27.5t28.5 -68.5t-28.5 -70t-69.5 -29q-40 0 -69.5 28.5t-29.5 70.5z" />
<glyph unicode="&#x1e61;" horiz-adv-x="869" d="M104 37v176q134 -99 295 -99q216 0 216 144q0 41 -18.5 69.5t-50 50.5t-74 39.5t-91.5 36.5q-68 27 -119.5 54.5t-86 62t-52 78.5t-17.5 103q0 72 33 127.5t88 93t125.5 56.5t145.5 19q133 0 238 -46v-166q-113 74 -260 74q-46 0 -83 -10.5t-63.5 -29.5t-41 -45.5 t-14.5 -58.5q0 -40 14.5 -67t42.5 -48t68 -38t91 -37q68 -26 122 -53.5t92 -62t58.5 -79.5t20.5 -107q0 -76 -33.5 -132t-89.5 -93t-129 -55t-153 -18q-158 0 -274 61zM369 1317q0 40 29 68t70 28t69.5 -27.5t28.5 -68.5t-28.5 -70t-69.5 -29q-40 0 -69.5 28.5t-29.5 70.5z " />
<glyph unicode="&#x1e62;" horiz-adv-x="1088" d="M121 58v198q34 -30 81.5 -54t100 -40.5t105.5 -25.5t98 -9q155 0 231.5 57.5t76.5 165.5q0 58 -25.5 101t-70.5 78.5t-106.5 68t-132.5 68.5q-75 38 -140 77t-113 86t-75.5 106.5t-27.5 139.5q0 98 43 170.5t113 119.5t159.5 70t182.5 23q212 0 309 -51v-189 q-127 88 -326 88q-55 0 -110 -11.5t-98 -37.5t-70 -67t-27 -100q0 -55 20.5 -95t60.5 -73t97.5 -64t132.5 -68q77 -38 146 -80t121 -93t82.5 -113t30.5 -142q0 -106 -41.5 -179.5t-112 -119.5t-162.5 -66.5t-194 -20.5q-34 0 -84 5.5t-102 16t-98.5 26t-74.5 34.5zM453 -215 q0 41 30 68.5t69 27.5q41 0 70 -27.5t29 -68.5t-29 -70t-70 -29t-70 29t-29 70z" />
<glyph unicode="&#x1e63;" horiz-adv-x="869" d="M104 37v176q134 -99 295 -99q216 0 216 144q0 41 -18.5 69.5t-50 50.5t-74 39.5t-91.5 36.5q-68 27 -119.5 54.5t-86 62t-52 78.5t-17.5 103q0 72 33 127.5t88 93t125.5 56.5t145.5 19q133 0 238 -46v-166q-113 74 -260 74q-46 0 -83 -10.5t-63.5 -29.5t-41 -45.5 t-14.5 -58.5q0 -40 14.5 -67t42.5 -48t68 -38t91 -37q68 -26 122 -53.5t92 -62t58.5 -79.5t20.5 -107q0 -76 -33.5 -132t-89.5 -93t-129 -55t-153 -18q-158 0 -274 61zM356 -215q0 41 30 68.5t69 27.5q41 0 70 -27.5t29 -68.5t-29 -70t-70 -29t-70 29t-29 70z" />
<glyph unicode="&#x1e64;" horiz-adv-x="1088" d="M121 58v198q34 -30 81.5 -54t100 -40.5t105.5 -25.5t98 -9q155 0 231.5 57.5t76.5 165.5q0 58 -25.5 101t-70.5 78.5t-106.5 68t-132.5 68.5q-75 38 -140 77t-113 86t-75.5 106.5t-27.5 139.5q0 98 43 170.5t113 119.5t159.5 70t182.5 23q212 0 309 -51v-189 q-127 88 -326 88q-55 0 -110 -11.5t-98 -37.5t-70 -67t-27 -100q0 -55 20.5 -95t60.5 -73t97.5 -64t132.5 -68q77 -38 146 -80t121 -93t82.5 -113t30.5 -142q0 -106 -41.5 -179.5t-112 -119.5t-162.5 -66.5t-194 -20.5q-34 0 -84 5.5t-102 16t-98.5 26t-74.5 34.5zM366 1802 q0 41 28.5 68.5t69.5 27.5q40 0 69 -27.5t29 -68.5q0 -40 -29 -69t-69 -29t-69 28t-29 70zM527 1566l181 246h168l-222 -246h-127z" />
<glyph unicode="&#x1e65;" horiz-adv-x="869" d="M104 37v176q134 -99 295 -99q216 0 216 144q0 41 -18.5 69.5t-50 50.5t-74 39.5t-91.5 36.5q-68 27 -119.5 54.5t-86 62t-52 78.5t-17.5 103q0 72 33 127.5t88 93t125.5 56.5t145.5 19q133 0 238 -46v-166q-113 74 -260 74q-46 0 -83 -10.5t-63.5 -29.5t-41 -45.5 t-14.5 -58.5q0 -40 14.5 -67t42.5 -48t68 -38t91 -37q68 -26 122 -53.5t92 -62t58.5 -79.5t20.5 -107q0 -76 -33.5 -132t-89.5 -93t-129 -55t-153 -18q-158 0 -274 61zM239 1454q0 41 28.5 68.5t69.5 27.5q40 0 69 -27.5t29 -68.5t-29 -69.5t-69 -28.5t-69 28t-29 70z M400 1218l181 246h168l-222 -246h-127z" />
<glyph unicode="&#x1e66;" horiz-adv-x="1088" d="M121 58v198q34 -30 81.5 -54t100 -40.5t105.5 -25.5t98 -9q155 0 231.5 57.5t76.5 165.5q0 58 -25.5 101t-70.5 78.5t-106.5 68t-132.5 68.5q-75 38 -140 77t-113 86t-75.5 106.5t-27.5 139.5q0 98 43 170.5t113 119.5t159.5 70t182.5 23q212 0 309 -51v-189 q-127 88 -326 88q-55 0 -110 -11.5t-98 -37.5t-70 -67t-27 -100q0 -55 20.5 -95t60.5 -73t97.5 -64t132.5 -68q77 -38 146 -80t121 -93t82.5 -113t30.5 -142q0 -106 -41.5 -179.5t-112 -119.5t-162.5 -66.5t-194 -20.5q-34 0 -84 5.5t-102 16t-98.5 26t-74.5 34.5zM308 1816 h112l166 -147l164 147h121l-215 -250h-134zM488 1911q0 40 28.5 68t69.5 28t69.5 -27.5t28.5 -68.5t-28.5 -70t-69.5 -29q-40 0 -69 28.5t-29 70.5z" />
<glyph unicode="&#x1e67;" horiz-adv-x="869" d="M104 37v176q134 -99 295 -99q216 0 216 144q0 41 -18.5 69.5t-50 50.5t-74 39.5t-91.5 36.5q-68 27 -119.5 54.5t-86 62t-52 78.5t-17.5 103q0 72 33 127.5t88 93t125.5 56.5t145.5 19q133 0 238 -46v-166q-113 74 -260 74q-46 0 -83 -10.5t-63.5 -29.5t-41 -45.5 t-14.5 -58.5q0 -40 14.5 -67t42.5 -48t68 -38t91 -37q68 -26 122 -53.5t92 -62t58.5 -79.5t20.5 -107q0 -76 -33.5 -132t-89.5 -93t-129 -55t-153 -18q-158 0 -274 61zM170 1468h112l166 -147l164 147h121l-215 -250h-134zM350 1562q0 41 28.5 69t69.5 28t69.5 -27.5 t28.5 -69.5q0 -40 -28.5 -69t-69.5 -29q-40 0 -69 28.5t-29 69.5z" />
<glyph unicode="&#x1e68;" horiz-adv-x="1088" d="M121 58v198q34 -30 81.5 -54t100 -40.5t105.5 -25.5t98 -9q155 0 231.5 57.5t76.5 165.5q0 58 -25.5 101t-70.5 78.5t-106.5 68t-132.5 68.5q-75 38 -140 77t-113 86t-75.5 106.5t-27.5 139.5q0 98 43 170.5t113 119.5t159.5 70t182.5 23q212 0 309 -51v-189 q-127 88 -326 88q-55 0 -110 -11.5t-98 -37.5t-70 -67t-27 -100q0 -55 20.5 -95t60.5 -73t97.5 -64t132.5 -68q77 -38 146 -80t121 -93t82.5 -113t30.5 -142q0 -106 -41.5 -179.5t-112 -119.5t-162.5 -66.5t-194 -20.5q-34 0 -84 5.5t-102 16t-98.5 26t-74.5 34.5zM509 -215 q0 41 30 68.5t69 27.5q41 0 70 -27.5t29 -68.5t-29 -70t-70 -29t-70 29t-29 70zM511 1666q0 40 29 68t70 28t69.5 -27.5t28.5 -68.5t-28.5 -70t-69.5 -29q-40 0 -69.5 28.5t-29.5 70.5z" />
<glyph unicode="&#x1e69;" horiz-adv-x="869" d="M104 37v176q134 -99 295 -99q216 0 216 144q0 41 -18.5 69.5t-50 50.5t-74 39.5t-91.5 36.5q-68 27 -119.5 54.5t-86 62t-52 78.5t-17.5 103q0 72 33 127.5t88 93t125.5 56.5t145.5 19q133 0 238 -46v-166q-113 74 -260 74q-46 0 -83 -10.5t-63.5 -29.5t-41 -45.5 t-14.5 -58.5q0 -40 14.5 -67t42.5 -48t68 -38t91 -37q68 -26 122 -53.5t92 -62t58.5 -79.5t20.5 -107q0 -76 -33.5 -132t-89.5 -93t-129 -55t-153 -18q-158 0 -274 61zM363 1317q0 40 29 68t70 28t69.5 -27.5t28.5 -68.5t-28.5 -70t-69.5 -29q-40 0 -69.5 28.5t-29.5 70.5z M372 -215q0 41 30 68.5t69 27.5q41 0 70 -27.5t29 -68.5t-29 -70t-70 -29t-70 29t-29 70z" />
<glyph unicode="&#x1e6a;" horiz-adv-x="1073" d="M41 1282v152h995v-152h-414v-1282h-168v1282h-413zM441 1666q0 40 29 68t70 28t69.5 -27.5t28.5 -68.5t-28.5 -70t-69.5 -29q-40 0 -69.5 28.5t-29.5 70.5z" />
<glyph unicode="&#x1e6b;" horiz-adv-x="694" d="M43 884v140h176v250l164 53v-303h258v-140h-258v-577q0 -103 35 -147t116 -44q62 0 107 34v-140q-58 -32 -153 -32q-269 0 -269 300v606h-176zM202 1525q0 40 29 68t70 28t69.5 -27.5t28.5 -68.5t-28.5 -70t-69.5 -29q-40 0 -69.5 28.5t-29.5 70.5z" />
<glyph unicode="&#x1e6c;" horiz-adv-x="1073" d="M41 1282v152h995v-152h-414v-1282h-168v1282h-413zM438 -215q0 41 30 68.5t69 27.5q41 0 70 -27.5t29 -68.5t-29 -70t-70 -29t-70 29t-29 70z" />
<glyph unicode="&#x1e6d;" horiz-adv-x="694" d="M43 884v140h176v250l164 53v-303h258v-140h-258v-577q0 -103 35 -147t116 -44q62 0 107 34v-140q-58 -32 -153 -32q-269 0 -269 300v606h-176zM261 -215q0 41 30 68.5t69 27.5q41 0 70 -27.5t29 -68.5t-29 -70t-70 -29t-70 29t-29 70z" />
<glyph unicode="&#x1e6e;" horiz-adv-x="1073" d="M41 1282v152h995v-152h-414v-1282h-168v1282h-413zM286 -119h508v-109h-508v109z" />
<glyph unicode="&#x1e6f;" horiz-adv-x="694" d="M43 884v140h176v250l164 53v-303h258v-140h-258v-577q0 -103 35 -147t116 -44q62 0 107 34v-140q-58 -32 -153 -32q-269 0 -269 300v606h-176zM153 -120h508v-109h-508v109z" />
<glyph unicode="&#x1e70;" horiz-adv-x="1073" d="M41 1282v152h995v-152h-414v-1282h-168v1282h-413zM259 -451l215 332h133l216 -332h-122l-164 230l-165 -230h-113z" />
<glyph unicode="&#x1e71;" horiz-adv-x="694" d="M43 884v140h176v250l164 53v-303h258v-140h-258v-577q0 -103 35 -147t116 -44q62 0 107 34v-140q-58 -32 -153 -32q-269 0 -269 300v606h-176zM82 -450l215 332h133l216 -332h-122l-164 230l-165 -230h-113z" />
<glyph unicode="&#x1e72;" horiz-adv-x="1407" d="M170 557v877h168v-866q0 -441 372 -441q359 0 359 426v881h168v-854q0 -604 -545 -604q-522 0 -522 581zM404 -218q0 42 28.5 70t69.5 28t71 -28.5t30 -69.5t-29 -70t-69 -29q-42 0 -71.5 29.5t-29.5 69.5zM791 -218q0 42 28 70t68 28q42 0 71 -28.5t29 -69.5t-28 -70 t-70 -29q-40 0 -69 28t-29 71z" />
<glyph unicode="&#x1e73;" d="M144 412v612h163v-586q0 -324 248 -324q120 0 197.5 88.5t77.5 231.5v590h164v-1024h-164v162h-4q-102 -186 -316 -186q-366 0 -366 436zM252 -217q0 42 28.5 70t69.5 28t71 -28.5t30 -69.5t-29 -70t-69 -29q-42 0 -71.5 29.5t-29.5 69.5zM639 -217q0 42 28 70t68 28 q42 0 71 -28.5t29 -69.5t-28 -70t-70 -29q-40 0 -69 28t-29 71z" />
<glyph unicode="&#x1e74;" horiz-adv-x="1407" d="M170 557v877h168v-866q0 -441 372 -441q359 0 359 426v881h168v-854q0 -604 -545 -604q-522 0 -522 581zM367 -354q0 107 48 171.5t134 64.5q65 0 149 -52q74 -44 128 -44q84 0 84 116h98q0 -105 -48 -171.5t-130 -66.5q-71 0 -162 52q-77 43 -119 43q-88 0 -88 -113h-94 z" />
<glyph unicode="&#x1e75;" d="M144 412v612h163v-586q0 -324 248 -324q120 0 197.5 88.5t77.5 231.5v590h164v-1024h-164v162h-4q-102 -186 -316 -186q-366 0 -366 436zM246 -354q0 107 48 171.5t134 64.5q65 0 149 -52q74 -44 128 -44q84 0 84 116h98q0 -105 -48 -171.5t-130 -66.5q-71 0 -162 52 q-77 43 -119 43q-88 0 -88 -113h-94z" />
<glyph unicode="&#x1e76;" horiz-adv-x="1407" d="M170 557v877h168v-866q0 -441 372 -441q359 0 359 426v881h168v-854q0 -604 -545 -604q-522 0 -522 581zM414 -451l215 332h133l216 -332h-122l-164 230l-165 -230h-113z" />
<glyph unicode="&#x1e77;" d="M144 412v612h163v-586q0 -324 248 -324q120 0 197.5 88.5t77.5 231.5v590h164v-1024h-164v162h-4q-102 -186 -316 -186q-366 0 -366 436zM279 -451l215 332h133l216 -332h-122l-164 230l-165 -230h-113z" />
<glyph unicode="&#x1e78;" horiz-adv-x="1407" d="M170 557v877h168v-866q0 -441 372 -441q359 0 359 426v881h168v-854q0 -604 -545 -604q-522 0 -522 581zM389 1548q0 216 182 216q63 0 145 -38q81 -38 132 -38q84 0 84 96h98q0 -101 -46.5 -159.5t-131.5 -58.5q-67 0 -153 37q-87 37 -128 37q-88 0 -88 -92h-94z M574 1810l180 246h168l-220 -246h-128z" />
<glyph unicode="&#x1e79;" d="M144 412v612h163v-586q0 -324 248 -324q120 0 197.5 88.5t77.5 231.5v590h164v-1024h-164v162h-4q-102 -186 -316 -186q-366 0 -366 436zM258 1202q0 215 182 215q63 0 145 -37q81 -38 132 -38q84 0 84 96h98q0 -101 -46.5 -159.5t-131.5 -58.5q-67 0 -153 37 q-87 37 -128 37q-88 0 -88 -92h-94zM443 1464l180 246h168l-220 -246h-128z" />
<glyph unicode="&#x1e7a;" horiz-adv-x="1407" d="M170 557v877h168v-866q0 -441 372 -441q359 0 359 426v881h168v-854q0 -604 -545 -604q-522 0 -522 581zM416 1852q0 41 28.5 69.5t69.5 28.5t70.5 -29t29.5 -69q0 -42 -28.5 -70.5t-69.5 -28.5q-43 0 -71.5 28.5t-28.5 70.5zM458 1566v110h508v-110h-508zM802 1852 q0 42 28.5 70t68.5 28q41 0 70.5 -29t29.5 -69q0 -42 -28.5 -70.5t-69.5 -28.5t-70 28t-29 71z" />
<glyph unicode="&#x1e7b;" d="M144 412v612h163v-586q0 -324 248 -324q120 0 197.5 88.5t77.5 231.5v590h164v-1024h-164v162h-4q-102 -186 -316 -186q-366 0 -366 436zM275 1503q0 42 29 70.5t69 28.5q41 0 70.5 -29t29.5 -70t-28.5 -69.5t-69.5 -28.5q-42 0 -71 28t-29 70zM317 1218v109h508v-109 h-508zM661 1503q0 42 28.5 70.5t68.5 28.5q41 0 70.5 -29t29.5 -70t-28.5 -69.5t-69.5 -28.5t-70 28t-29 70z" />
<glyph unicode="&#x1e7c;" horiz-adv-x="1272" d="M18 1434h187l397 -1137q19 -55 29 -127h4q8 60 33 129l405 1135h181l-531 -1434h-185zM320 1551q0 107 48 171.5t134 64.5q65 0 149 -52q74 -44 128 -44q84 0 84 116h98q0 -105 -48 -171.5t-130 -66.5q-71 0 -162 52q-77 43 -119 43q-88 0 -88 -113h-94z" />
<glyph unicode="&#x1e7d;" horiz-adv-x="981" d="M14 1024h180l260 -744q29 -82 36 -143h4q10 77 32 139l272 748h173l-408 -1024h-161zM175 1202q0 107 48 171.5t134 64.5q65 0 149 -52q74 -44 128 -44q84 0 84 116h98q0 -105 -48 -171.5t-130 -66.5q-71 0 -162 52q-77 43 -119 43q-88 0 -88 -113h-94z" />
<glyph unicode="&#x1e7e;" horiz-adv-x="1272" d="M18 1434h187l397 -1137q19 -55 29 -127h4q8 60 33 129l405 1135h181l-531 -1434h-185zM539 -215q0 41 30 68.5t69 27.5q41 0 70 -27.5t29 -68.5t-29 -70t-70 -29t-70 29t-29 70z" />
<glyph unicode="&#x1e7f;" horiz-adv-x="981" d="M14 1024h180l260 -744q29 -82 36 -143h4q10 77 32 139l272 748h173l-408 -1024h-161zM388 -215q0 41 30 68.5t69 27.5q41 0 70 -27.5t29 -68.5t-29 -70t-70 -29t-70 29t-29 70z" />
<glyph unicode="&#x1e80;" horiz-adv-x="1913" d="M26 1434h185l305 -1100q19 -69 24 -144h5q5 53 31 144l317 1100h161l304 -1108q16 -57 24 -134h4q4 52 27 138l293 1104h182l-405 -1434h-197l-295 1048q-19 67 -23 146h-4q-6 -74 -26 -144l-297 -1050h-195zM754 1894h168l221 -328h-127z" />
<glyph unicode="&#x1e81;" horiz-adv-x="1480" d="M24 1024h172l212 -770q10 -35 14 -92h8q3 44 18 94l236 768h150l212 -772q10 -37 15 -92h8q2 39 17 92l208 772h162l-307 -1024h-170l-211 733q-12 42 -16 95h-4q-3 -36 -21 -93l-229 -735h-164zM519 1546h168l221 -328h-127z" />
<glyph unicode="&#x1e82;" horiz-adv-x="1913" d="M26 1434h185l305 -1100q19 -69 24 -144h5q5 53 31 144l317 1100h161l304 -1108q16 -57 24 -134h4q4 52 27 138l293 1104h182l-405 -1434h-197l-295 1048q-19 67 -23 146h-4q-6 -74 -26 -144l-297 -1050h-195zM797 1566l223 328h166l-262 -328h-127z" />
<glyph unicode="&#x1e83;" horiz-adv-x="1480" d="M24 1024h172l212 -770q10 -35 14 -92h8q3 44 18 94l236 768h150l212 -772q10 -37 15 -92h8q2 39 17 92l208 772h162l-307 -1024h-170l-211 733q-12 42 -16 95h-4q-3 -36 -21 -93l-229 -735h-164zM587 1218l223 328h166l-262 -328h-127z" />
<glyph unicode="&#x1e84;" horiz-adv-x="1913" d="M26 1434h185l305 -1100q19 -69 24 -144h5q5 53 31 144l317 1100h161l304 -1108q16 -57 24 -134h4q4 52 27 138l293 1104h182l-405 -1434h-197l-295 1048q-19 67 -23 146h-4q-6 -74 -26 -144l-297 -1050h-195zM665 1666q0 42 28.5 70t69.5 28t71 -28.5t30 -69.5t-29 -70 t-69 -29q-42 0 -71.5 29.5t-29.5 69.5zM1052 1666q0 42 28 70t68 28q42 0 71 -28.5t29 -69.5t-28 -70t-70 -29q-40 0 -69 28t-29 71z" />
<glyph unicode="&#x1e85;" horiz-adv-x="1480" d="M24 1024h172l212 -770q10 -35 14 -92h8q3 44 18 94l236 768h150l212 -772q10 -37 15 -92h8q2 39 17 92l208 772h162l-307 -1024h-170l-211 733q-12 42 -16 95h-4q-3 -36 -21 -93l-229 -735h-164zM449 1317q0 42 28.5 70t69.5 28t71 -28.5t30 -69.5t-29 -70t-69 -29 q-42 0 -71.5 29.5t-29.5 69.5zM836 1317q0 42 28 70t68 28q42 0 71 -28.5t29 -69.5t-28 -70t-70 -29q-40 0 -69 28t-29 71z" />
<glyph unicode="&#x1e86;" horiz-adv-x="1913" d="M26 1434h185l305 -1100q19 -69 24 -144h5q5 53 31 144l317 1100h161l304 -1108q16 -57 24 -134h4q4 52 27 138l293 1104h182l-405 -1434h-197l-295 1048q-19 67 -23 146h-4q-6 -74 -26 -144l-297 -1050h-195zM873 1666q0 40 29 68t70 28t69.5 -27.5t28.5 -68.5t-28.5 -70 t-69.5 -29q-40 0 -69.5 28.5t-29.5 70.5z" />
<glyph unicode="&#x1e87;" horiz-adv-x="1480" d="M24 1024h172l212 -770q10 -35 14 -92h8q3 44 18 94l236 768h150l212 -772q10 -37 15 -92h8q2 39 17 92l208 772h162l-307 -1024h-170l-211 733q-12 42 -16 95h-4q-3 -36 -21 -93l-229 -735h-164zM656 1317q0 40 29 68t70 28t69.5 -27.5t28.5 -68.5t-28.5 -70t-69.5 -29 q-40 0 -69.5 28.5t-29.5 70.5z" />
<glyph unicode="&#x1e88;" horiz-adv-x="1913" d="M26 1434h185l305 -1100q19 -69 24 -144h5q5 53 31 144l317 1100h161l304 -1108q16 -57 24 -134h4q4 52 27 138l293 1104h182l-405 -1434h-197l-295 1048q-19 67 -23 146h-4q-6 -74 -26 -144l-297 -1050h-195zM871 -215q0 41 30 68.5t69 27.5q41 0 70 -27.5t29 -68.5 t-29 -70t-70 -29t-70 29t-29 70z" />
<glyph unicode="&#x1e89;" horiz-adv-x="1480" d="M24 1024h172l212 -770q10 -35 14 -92h8q3 44 18 94l236 768h150l212 -772q10 -37 15 -92h8q2 39 17 92l208 772h162l-307 -1024h-170l-211 733q-12 42 -16 95h-4q-3 -36 -21 -93l-229 -735h-164zM647 -215q0 41 30 68.5t69 27.5q41 0 70 -27.5t29 -68.5t-29 -70t-70 -29 t-70 29t-29 70z" />
<glyph unicode="&#x1e8a;" horiz-adv-x="1208" d="M26 0l480 721l-442 713h206l293 -504q29 -50 51 -100h4q32 66 56 104l305 500h193l-451 -711l457 -723h-205l-330 549q-15 25 -33 71h-4q-10 -23 -34 -71l-340 -549h-206zM511 1666q0 40 29 68t70 28t69.5 -27.5t28.5 -68.5t-28.5 -70t-69.5 -29q-40 0 -69.5 28.5 t-29.5 70.5z" />
<glyph unicode="&#x1e8b;" horiz-adv-x="940" d="M26 0l349 502l-334 522h191l198 -350q22 -39 43 -80h4l256 430h181l-344 -518l338 -506h-191l-201 332q-19 31 -45 78h-4q-5 -9 -47 -78l-205 -332h-189zM378 1317q0 40 29 68t70 28t69.5 -27.5t28.5 -68.5t-28.5 -70t-69.5 -29q-40 0 -69.5 28.5t-29.5 70.5z" />
<glyph unicode="&#x1e8c;" horiz-adv-x="1208" d="M26 0l480 721l-442 713h206l293 -504q29 -50 51 -100h4q32 66 56 104l305 500h193l-451 -711l457 -723h-205l-330 549q-15 25 -33 71h-4q-10 -23 -34 -71l-340 -549h-206zM330 1666q0 42 28.5 70t69.5 28t71 -28.5t30 -69.5t-29 -70t-69 -29q-42 0 -71.5 29.5t-29.5 69.5 zM717 1666q0 42 28 70t68 28q42 0 71 -28.5t29 -69.5t-28 -70t-70 -29q-40 0 -69 28t-29 71z" />
<glyph unicode="&#x1e8d;" horiz-adv-x="940" d="M26 0l349 502l-334 522h191l198 -350q22 -39 43 -80h4l256 430h181l-344 -518l338 -506h-191l-201 332q-19 31 -45 78h-4q-5 -9 -47 -78l-205 -332h-189zM192 1317q0 42 28.5 70t69.5 28t71 -28.5t30 -69.5t-29 -70t-69 -29q-42 0 -71.5 29.5t-29.5 69.5zM579 1317 q0 42 28 70t68 28q42 0 71 -28.5t29 -69.5t-28 -70t-70 -29q-40 0 -69 28t-29 71z" />
<glyph unicode="&#x1e8e;" horiz-adv-x="1132" d="M18 1434h191l321 -648q6 -12 35 -88h3q10 34 38 88l336 648h178l-473 -904v-530h-168v526zM467 1666q0 40 29 68t70 28t69.5 -27.5t28.5 -68.5t-28.5 -70t-69.5 -29q-40 0 -69.5 28.5t-29.5 70.5z" />
<glyph unicode="&#x1e8f;" horiz-adv-x="991" d="M14 1024h182l277 -788q5 -15 21 -78h6q5 24 20 76l291 790h170l-471 -1188q-126 -318 -354 -318q-64 0 -107 13v147q53 -18 97 -18q124 0 186 148l82 194zM395 1317q0 40 29 68t70 28t69.5 -27.5t28.5 -68.5t-28.5 -70t-69.5 -29q-40 0 -69.5 28.5t-29.5 70.5z" />
<glyph unicode="&#x1e90;" horiz-adv-x="1168" d="M33 0v47l833 1235h-766v152h1024v-40l-840 -1242h820v-152h-1071zM311 1567l215 332h133l216 -332h-122l-164 230l-165 -230h-113z" />
<glyph unicode="&#x1e91;" horiz-adv-x="926" d="M33 0v51l606 833h-549v140h790v-47l-606 -837h600v-140h-841zM203 1218l215 332h133l216 -332h-122l-164 230l-165 -230h-113z" />
<glyph unicode="&#x1e92;" horiz-adv-x="1168" d="M33 0v47l833 1235h-766v152h1024v-40l-840 -1242h820v-152h-1071zM495 -215q0 41 30 68.5t69 27.5q41 0 70 -27.5t29 -68.5t-29 -70t-70 -29t-70 29t-29 70z" />
<glyph unicode="&#x1e93;" horiz-adv-x="926" d="M33 0v51l606 833h-549v140h790v-47l-606 -837h600v-140h-841zM377 -215q0 41 30 68.5t69 27.5q41 0 70 -27.5t29 -68.5t-29 -70t-70 -29t-70 29t-29 70z" />
<glyph unicode="&#x1e94;" horiz-adv-x="1168" d="M33 0v47l833 1235h-766v152h1024v-40l-840 -1242h820v-152h-1071zM330 -119h508v-109h-508v109z" />
<glyph unicode="&#x1e95;" horiz-adv-x="926" d="M33 0v51l606 833h-549v140h790v-47l-606 -837h600v-140h-841zM218 -120h508v-109h-508v109z" />
<glyph unicode="&#x1e96;" d="M166 0v1516h164v-662h4q118 194 336 194q346 0 346 -417v-631h-164v590q0 320 -238 320q-120 0 -202 -92.5t-82 -237.5v-580h-164zM346 -119h508v-109h-508v109z" />
<glyph unicode="&#x1e97;" horiz-adv-x="694" d="M43 884v140h176v250l164 53v-303h258v-140h-258v-577q0 -103 35 -147t116 -44q62 0 107 34v-140q-58 -32 -153 -32q-269 0 -269 300v606h-176zM53 1525q0 42 28.5 70t69.5 28t71 -28.5t30 -69.5t-29 -70t-69 -29q-42 0 -71.5 29.5t-29.5 69.5zM440 1525q0 42 28 70t68 28 q42 0 71 -28.5t29 -69.5t-28 -70t-70 -29q-40 0 -69 28t-29 71z" />
<glyph unicode="&#x1e98;" horiz-adv-x="1480" d="M24 1024h172l212 -770q10 -35 14 -92h8q3 44 18 94l236 768h150l212 -772q10 -37 15 -92h8q2 39 17 92l208 772h162l-307 -1024h-170l-211 733q-12 42 -16 95h-4q-3 -36 -21 -93l-229 -735h-164zM542 1366q0 90 59 144t150 54q89 0 146 -54t57 -138t-61 -140t-149 -56 q-87 0 -144.5 52.5t-57.5 137.5zM632 1370q0 -112 112 -112q50 0 83 32t33 80q0 49 -33 81t-83 32q-48 0 -80 -32.5t-32 -80.5z" />
<glyph unicode="&#x1e99;" horiz-adv-x="991" d="M14 1024h182l277 -788q5 -15 21 -78h6q5 24 20 76l291 790h170l-471 -1188q-126 -318 -354 -318q-64 0 -107 13v147q53 -18 97 -18q124 0 186 148l82 194zM285 1366q0 90 59 144t150 54q89 0 146 -54t57 -138t-61 -140t-149 -56q-87 0 -144.5 52.5t-57.5 137.5zM375 1370 q0 -112 112 -112q50 0 83 32t33 80q0 49 -33 81t-83 32q-48 0 -80 -32.5t-32 -80.5z" />
<glyph unicode="&#x1e9a;" horiz-adv-x="1042" d="M90 272q0 287 338 334l307 43q0 261 -211 261q-185 0 -334 -126v168q151 96 348 96q361 0 361 -382v-666h-164v160h-4q-107 -184 -315 -184q-153 0 -239.5 81t-86.5 215zM258 284q0 -75 53.5 -122.5t142.5 -47.5q122 0 201.5 85.5t79.5 216.5v102l-247 -34 q-114 -16 -172 -56.5t-58 -143.5zM452 1202v92q94 0 94 91q0 88 -94 88v94q78 0 129 -52t51 -130t-51 -130.5t-129 -52.5z" />
<glyph unicode="&#x1e9b;" horiz-adv-x="494" d="M78 1666q0 40 29 68t70 28t69.5 -27.5t28.5 -68.5t-28.5 -70t-69.5 -29q-40 0 -69.5 28.5t-29.5 70.5zM166 0v1190q0 161 94.5 254.5t231.5 93.5q74 0 118 -18v-148q-46 27 -108 27q-172 0 -172 -217v-1182h-164z" />
<glyph unicode="&#x1e9c;" horiz-adv-x="641" d="M53 398v165l175 104v217h-175v140h175v166q0 81 25 145.5t69 109.5t103 69t128 24q75 0 119 -18v-148q-48 27 -109 27q-172 0 -172 -217v-417l240 143v-160l-240 -146v-602h-163v504z" />
<glyph unicode="&#x1e9d;" horiz-adv-x="641" d="M53 884v140h175v125h-175v140h186q13 58 42.5 104.5t70.5 78.5t92.5 49t108.5 17q75 0 119 -18v-148q-48 27 -109 27q-123 0 -158 -110h226v-140h-240v-1149h-163v884h-175z" />
<glyph unicode="&#x1e9e;" horiz-adv-x="1269" d="M176 0v1033q0 121 39.5 202t105 130.5t149.5 70.5t173 21q94 0 170.5 -23.5t131 -67t84 -103.5t29.5 -134q0 -134 -78 -221t-230 -128v-5q431 -71 431 -404q0 -91 -33.5 -164.5t-91.5 -124.5t-137 -78.5t-171 -27.5q-86 0 -143 11t-103 26v173q23 -12 52 -22.5t60 -19 t63 -13t61 -4.5q60 0 109 16.5t84 48.5t54.5 80.5t19.5 112.5q0 65 -27.5 120t-84 97t-142 68t-201.5 33v122q76 9 137 30.5t104 56t66.5 83t23.5 111.5q0 102 -66 151.5t-185 49.5q-142 0 -214 -70.5t-72 -227.5v-1009h-168z" />
<glyph unicode="&#x1e9f;" horiz-adv-x="1196" d="M92 457q0 156 105.5 284.5t309.5 216.5q-238 147 -238 310q0 64 27 113.5t77.5 83.5t123 51.5t162.5 17.5q166 0 340 -64v-183q-169 101 -340 101q-50 0 -90.5 -9t-69.5 -25.5t-45 -40t-16 -52.5q0 -24 12.5 -48.5t39.5 -51.5t69.5 -58t102.5 -67q114 -69 197.5 -131 t138.5 -126.5t82 -136t27 -161.5q0 -117 -37 -210.5t-105 -159t-164 -101t-215 -35.5q-109 0 -199.5 35t-156 98.5t-102 152t-36.5 196.5zM268 458q0 -79 23.5 -142t67 -107.5t104.5 -68.5t136 -24q79 0 142.5 25t108 71.5t68.5 111.5t24 145q0 59 -17 111t-54 101.5 t-95.5 98.5t-141.5 103q-366 -149 -366 -425z" />
<glyph unicode="&#x1ea0;" horiz-adv-x="1321" d="M22 0l550 1434h174l552 -1434h-186l-152 402h-608l-143 -402h-187zM408 553h497l-225 611q-11 30 -22 96h-4q-10 -61 -23 -96zM584 -215q0 41 30 68.5t69 27.5q41 0 70 -27.5t29 -68.5t-29 -70t-70 -29t-70 29t-29 70z" />
<glyph unicode="&#x1ea1;" horiz-adv-x="1042" d="M90 272q0 287 338 334l307 43q0 261 -211 261q-185 0 -334 -126v168q151 96 348 96q361 0 361 -382v-666h-164v160h-4q-107 -184 -315 -184q-153 0 -239.5 81t-86.5 215zM258 284q0 -75 53.5 -122.5t142.5 -47.5q122 0 201.5 85.5t79.5 216.5v102l-247 -34 q-114 -16 -172 -56.5t-58 -143.5zM436 -215q0 41 30 68.5t69 27.5q41 0 70 -27.5t29 -68.5t-29 -70t-70 -29t-70 29t-29 70z" />
<glyph unicode="&#x1ea2;" horiz-adv-x="1321" d="M22 0l550 1434h174l552 -1434h-186l-152 402h-608l-143 -402h-187zM408 553h497l-225 611q-11 30 -22 96h-4q-10 -61 -23 -96zM551 1814v107q37 4 80 4q88 0 144.5 -42t56.5 -113q0 -61 -38.5 -103t-95.5 -49v-50h-108v115q112 0 112 76q0 63 -94 63q-17 0 -57 -8z" />
<glyph unicode="&#x1ea3;" horiz-adv-x="1042" d="M90 272q0 287 338 334l307 43q0 261 -211 261q-185 0 -334 -126v168q151 96 348 96q361 0 361 -382v-666h-164v160h-4q-107 -184 -315 -184q-153 0 -239.5 81t-86.5 215zM258 284q0 -75 53.5 -122.5t142.5 -47.5q122 0 201.5 85.5t79.5 216.5v102l-247 -34 q-114 -16 -172 -56.5t-58 -143.5zM415 1464v107q37 4 80 4q88 0 144.5 -42t56.5 -113q0 -61 -38.5 -103t-95.5 -49v-50h-108v115q112 0 112 76q0 63 -94 63q-17 0 -57 -8z" />
<glyph unicode="&#x1ea4;" horiz-adv-x="1321" d="M22 0l550 1434h174l552 -1434h-186l-152 402h-608l-143 -402h-187zM368 1567l216 250h132l216 -250h-121l-164 148l-166 -148h-113zM408 553h497l-225 611q-11 30 -22 96h-4q-10 -61 -23 -96zM866 1719l180 246h168l-221 -246h-127z" />
<glyph unicode="&#x1ea5;" horiz-adv-x="1042" d="M90 272q0 287 338 334l307 43q0 261 -211 261q-185 0 -334 -126v168q151 96 348 96q361 0 361 -382v-666h-164v160h-4q-107 -184 -315 -184q-153 0 -239.5 81t-86.5 215zM258 284q0 -75 53.5 -122.5t142.5 -47.5q122 0 201.5 85.5t79.5 216.5v102l-247 -34 q-114 -16 -172 -56.5t-58 -143.5zM260 1218l216 250h132l216 -250h-121l-164 148l-166 -148h-113zM758 1370l180 246h168l-221 -246h-127z" />
<glyph unicode="&#x1ea6;" horiz-adv-x="1321" d="M22 0l550 1434h174l552 -1434h-186l-152 402h-608l-143 -402h-187zM85 1965h168l180 -246h-126zM368 1567l215 250h134l214 -250h-112l-166 148l-164 -148h-121zM408 553h497l-225 611q-11 30 -22 96h-4q-10 -61 -23 -96z" />
<glyph unicode="&#x1ea7;" horiz-adv-x="1042" d="M-24 1616h168l180 -246h-126zM90 272q0 287 338 334l307 43q0 261 -211 261q-185 0 -334 -126v168q151 96 348 96q361 0 361 -382v-666h-164v160h-4q-107 -184 -315 -184q-153 0 -239.5 81t-86.5 215zM258 284q0 -75 53.5 -122.5t142.5 -47.5q122 0 201.5 85.5 t79.5 216.5v102l-247 -34q-114 -16 -172 -56.5t-58 -143.5zM259 1218l215 250h134l214 -250h-112l-166 148l-164 -148h-121z" />
<glyph unicode="&#x1ea8;" horiz-adv-x="1321" d="M22 0l550 1434h174l552 -1434h-186l-152 402h-608l-143 -402h-187zM371 1568l214 250h134l214 -250h-120l-164 148l-166 -148h-112zM408 553h497l-225 611q-11 30 -22 96h-4q-10 -61 -23 -96zM855 1966v106q36 4 80 4q89 0 144.5 -41.5t55.5 -113.5q0 -60 -37.5 -102 t-94.5 -49v-50h-109v115q113 0 113 75q0 64 -95 64q-17 0 -57 -8z" />
<glyph unicode="&#x1ea9;" horiz-adv-x="1042" d="M90 272q0 287 338 334l307 43q0 261 -211 261q-185 0 -334 -126v168q151 96 348 96q361 0 361 -382v-666h-164v160h-4q-107 -184 -315 -184q-153 0 -239.5 81t-86.5 215zM237 1218l214 250h134l214 -250h-120l-164 148l-166 -148h-112zM258 284q0 -75 53.5 -122.5 t142.5 -47.5q122 0 201.5 85.5t79.5 216.5v102l-247 -34q-114 -16 -172 -56.5t-58 -143.5zM721 1616v106q36 4 80 4q89 0 144.5 -41.5t55.5 -113.5q0 -60 -37.5 -102t-94.5 -49v-50h-109v115q113 0 113 75q0 64 -95 64q-17 0 -57 -8z" />
<glyph unicode="&#x1eaa;" horiz-adv-x="1321" d="M22 0l550 1434h174l552 -1434h-186l-152 402h-608l-143 -402h-187zM332 1875q0 215 182 215q63 0 145 -38q81 -38 132 -38q84 0 84 97h98q0 -101 -46.5 -159.5t-131.5 -58.5q-67 0 -153 37q-87 37 -128 37q-88 0 -88 -92h-94zM371 1565l215 250h133l215 -250h-121 l-164 148l-166 -148h-112zM408 553h497l-225 611q-11 30 -22 96h-4q-10 -61 -23 -96z" />
<glyph unicode="&#x1eab;" horiz-adv-x="1042" d="M90 272q0 287 338 334l307 43q0 261 -211 261q-185 0 -334 -126v168q151 96 348 96q361 0 361 -382v-666h-164v160h-4q-107 -184 -315 -184q-153 0 -239.5 81t-86.5 215zM216 1528q0 215 182 215q63 0 145 -38q81 -38 132 -38q84 0 84 97h98q0 -101 -46.5 -159.5 t-131.5 -58.5q-67 0 -153 37q-87 37 -128 37q-88 0 -88 -92h-94zM255 1218l215 250h133l215 -250h-121l-164 148l-166 -148h-112zM258 284q0 -75 53.5 -122.5t142.5 -47.5q122 0 201.5 85.5t79.5 216.5v102l-247 -34q-114 -16 -172 -56.5t-58 -143.5z" />
<glyph unicode="&#x1eac;" horiz-adv-x="1321" d="M22 0l550 1434h174l552 -1434h-186l-152 402h-608l-143 -402h-187zM365 1567l215 332h133l216 -332h-122l-164 230l-165 -230h-113zM408 553h497l-225 611q-11 30 -22 96h-4q-10 -61 -23 -96zM584 -215q0 41 30 68.5t69 27.5q41 0 70 -27.5t29 -68.5t-29 -70t-70 -29 t-70 29t-29 70z" />
<glyph unicode="&#x1ead;" horiz-adv-x="1042" d="M90 272q0 287 338 334l307 43q0 261 -211 261q-185 0 -334 -126v168q151 96 348 96q361 0 361 -382v-666h-164v160h-4q-107 -184 -315 -184q-153 0 -239.5 81t-86.5 215zM243 1218l215 332h133l216 -332h-122l-164 230l-165 -230h-113zM258 284q0 -75 53.5 -122.5 t142.5 -47.5q122 0 201.5 85.5t79.5 216.5v102l-247 -34q-114 -16 -172 -56.5t-58 -143.5zM436 -215q0 41 30 68.5t69 27.5q41 0 70 -27.5t29 -68.5t-29 -70t-70 -29t-70 29t-29 70z" />
<glyph unicode="&#x1eae;" horiz-adv-x="1321" d="M22 0l550 1434h174l552 -1434h-186l-152 402h-608l-143 -402h-187zM382 1817h100q11 -134 172 -134q157 0 175 134h102q-10 -113 -88.5 -182.5t-190.5 -69.5q-117 0 -191 69t-79 183zM408 553h497l-225 611q-11 30 -22 96h-4q-10 -61 -23 -96zM560 1797l181 246h167 l-221 -246h-127z" />
<glyph unicode="&#x1eaf;" horiz-adv-x="1042" d="M90 272q0 287 338 334l307 43q0 261 -211 261q-185 0 -334 -126v168q151 96 348 96q361 0 361 -382v-666h-164v160h-4q-107 -184 -315 -184q-153 0 -239.5 81t-86.5 215zM258 284q0 -75 53.5 -122.5t142.5 -47.5q122 0 201.5 85.5t79.5 216.5v102l-247 -34 q-114 -16 -172 -56.5t-58 -143.5zM266 1470h100q11 -134 172 -134q157 0 175 134h102q-10 -113 -88.5 -182.5t-190.5 -69.5q-117 0 -191 69t-79 183zM444 1450l181 246h167l-221 -246h-127z" />
<glyph unicode="&#x1eb0;" horiz-adv-x="1321" d="M22 0l550 1434h174l552 -1434h-186l-152 402h-608l-143 -402h-187zM379 1818h102q16 -134 174 -134q162 0 172 134h100q-4 -114 -79 -183t-191 -69q-112 0 -190 70t-88 182zM401 2044h168l180 -246h-127zM408 553h497l-225 611q-11 30 -22 96h-4q-10 -61 -23 -96z" />
<glyph unicode="&#x1eb1;" horiz-adv-x="1042" d="M90 272q0 287 338 334l307 43q0 261 -211 261q-185 0 -334 -126v168q151 96 348 96q361 0 361 -382v-666h-164v160h-4q-107 -184 -315 -184q-153 0 -239.5 81t-86.5 215zM258 284q0 -75 53.5 -122.5t142.5 -47.5q122 0 201.5 85.5t79.5 216.5v102l-247 -34 q-114 -16 -172 -56.5t-58 -143.5zM285 1470h102q16 -134 174 -134q162 0 172 134h100q-4 -114 -79 -183t-191 -69q-112 0 -190 70t-88 182zM307 1696h168l180 -246h-127z" />
<glyph unicode="&#x1eb2;" horiz-adv-x="1321" d="M22 0l550 1434h174l552 -1434h-186l-152 402h-608l-143 -402h-187zM393 1817h100q11 -134 172 -134q157 0 175 134h102q-10 -113 -88.5 -182.5t-190.5 -69.5q-117 0 -191 69t-79 183zM408 553h497l-225 611q-11 30 -22 96h-4q-10 -61 -23 -96zM561 2039v106q37 4 79 4 q91 0 146.5 -42t55.5 -114q0 -60 -40 -102t-94 -49v-49h-108v114q112 0 112 76q0 64 -94 64q-17 0 -57 -8z" />
<glyph unicode="&#x1eb3;" horiz-adv-x="1042" d="M90 272q0 287 338 334l307 43q0 261 -211 261q-185 0 -334 -126v168q151 96 348 96q361 0 361 -382v-666h-164v160h-4q-107 -184 -315 -184q-153 0 -239.5 81t-86.5 215zM258 284q0 -75 53.5 -122.5t142.5 -47.5q122 0 201.5 85.5t79.5 216.5v102l-247 -34 q-114 -16 -172 -56.5t-58 -143.5zM266 1470h100q11 -134 172 -134q157 0 175 134h102q-10 -113 -88.5 -182.5t-190.5 -69.5q-117 0 -191 69t-79 183zM434 1692v106q37 4 79 4q91 0 146.5 -42t55.5 -114q0 -60 -40 -102t-94 -49v-49h-108v114q112 0 112 76q0 64 -94 64 q-17 0 -57 -8z" />
<glyph unicode="&#x1eb4;" horiz-adv-x="1321" d="M22 0l550 1434h174l552 -1434h-186l-152 402h-608l-143 -402h-187zM342 1875q0 215 182 215q63 0 145 -38q81 -38 132 -38q84 0 84 97h98q0 -101 -46.5 -159.5t-131.5 -58.5q-67 0 -153 37q-87 37 -128 37q-88 0 -88 -92h-94zM388 1817h101q10 -134 172 -134 q156 0 174 134h102q-10 -113 -88.5 -182.5t-189.5 -69.5q-118 0 -192 69t-79 183zM408 553h497l-225 611q-11 30 -22 96h-4q-10 -61 -23 -96z" />
<glyph unicode="&#x1eb5;" horiz-adv-x="1042" d="M90 272q0 287 338 334l307 43q0 261 -211 261q-185 0 -334 -126v168q151 96 348 96q361 0 361 -382v-666h-164v160h-4q-107 -184 -315 -184q-153 0 -239.5 81t-86.5 215zM222 1528q0 215 182 215q63 0 145 -38q81 -38 132 -38q84 0 84 97h98q0 -101 -46.5 -159.5 t-131.5 -58.5q-67 0 -153 37q-87 37 -128 37q-88 0 -88 -92h-94zM258 284q0 -75 53.5 -122.5t142.5 -47.5q122 0 201.5 85.5t79.5 216.5v102l-247 -34q-114 -16 -172 -56.5t-58 -143.5zM268 1470h101q10 -134 172 -134q156 0 174 134h102q-10 -113 -88.5 -182.5 t-189.5 -69.5q-118 0 -192 69t-79 183z" />
<glyph unicode="&#x1eb6;" horiz-adv-x="1321" d="M22 0l550 1434h174l552 -1434h-186l-152 402h-608l-143 -402h-187zM387 1818h100q12 -155 172 -155q68 0 116.5 42t58.5 113h102q-10 -113 -88.5 -182.5t-190.5 -69.5q-117 0 -191 69t-79 183zM408 553h497l-225 611q-11 30 -22 96h-4q-10 -61 -23 -96zM584 -215 q0 41 30 68.5t69 27.5q41 0 70 -27.5t29 -68.5t-29 -70t-70 -29t-70 29t-29 70z" />
<glyph unicode="&#x1eb7;" horiz-adv-x="1042" d="M90 272q0 287 338 334l307 43q0 261 -211 261q-185 0 -334 -126v168q151 96 348 96q361 0 361 -382v-666h-164v160h-4q-107 -184 -315 -184q-153 0 -239.5 81t-86.5 215zM257 1470h100q12 -155 172 -155q68 0 116.5 42t58.5 113h102q-10 -113 -88.5 -182.5t-190.5 -69.5 q-117 0 -191 69t-79 183zM258 284q0 -75 53.5 -122.5t142.5 -47.5q122 0 201.5 85.5t79.5 216.5v102l-247 -34q-114 -16 -172 -56.5t-58 -143.5zM436 -215q0 41 30 68.5t69 27.5q41 0 70 -27.5t29 -68.5t-29 -70t-70 -29t-70 29t-29 70z" />
<glyph unicode="&#x1eb8;" horiz-adv-x="1036" d="M188 0v1434h728v-152h-560v-477h518v-151h-518v-502h592v-152h-760zM485 -215q0 41 30 68.5t69 27.5q41 0 70 -27.5t29 -68.5t-29 -70t-70 -29t-70 29t-29 70z" />
<glyph unicode="&#x1eb9;" horiz-adv-x="1071" d="M96 508q0 239 135.5 389.5t336.5 150.5t311 -130t110 -361v-86h-723q4 -171 92 -264t242 -93q173 0 318 114v-154q-135 -98 -357 -98q-217 0 -341 139.5t-124 392.5zM268 610h553q-1 142 -68.5 221t-187.5 79q-116 0 -197 -83t-100 -217zM484 -215q0 41 30 68.5t69 27.5 q41 0 70 -27.5t29 -68.5t-29 -70t-70 -29t-70 29t-29 70z" />
<glyph unicode="&#x1eba;" horiz-adv-x="1036" d="M188 0v1434h728v-152h-560v-477h518v-151h-518v-502h592v-152h-760zM440 1812v107q37 4 80 4q88 0 144.5 -42t56.5 -113q0 -61 -38.5 -103t-95.5 -49v-50h-108v115q112 0 112 76q0 63 -94 63q-17 0 -57 -8z" />
<glyph unicode="&#x1ebb;" horiz-adv-x="1071" d="M96 508q0 239 135.5 389.5t336.5 150.5t311 -130t110 -361v-86h-723q4 -171 92 -264t242 -93q173 0 318 114v-154q-135 -98 -357 -98q-217 0 -341 139.5t-124 392.5zM268 610h553q-1 142 -68.5 221t-187.5 79q-116 0 -197 -83t-100 -217zM452 1464v107q37 4 80 4 q88 0 144.5 -42t56.5 -113q0 -61 -38.5 -103t-95.5 -49v-50h-108v115q112 0 112 76q0 63 -94 63q-17 0 -57 -8z" />
<glyph unicode="&#x1ebc;" horiz-adv-x="1036" d="M188 0v1434h728v-152h-560v-477h518v-151h-518v-502h592v-152h-760zM255 1550q0 107 48 171.5t134 64.5q65 0 149 -52q74 -44 128 -44q84 0 84 116h98q0 -105 -48 -171.5t-130 -66.5q-71 0 -162 52q-77 43 -119 43q-88 0 -88 -113h-94z" />
<glyph unicode="&#x1ebd;" horiz-adv-x="1071" d="M96 508q0 239 135.5 389.5t336.5 150.5t311 -130t110 -361v-86h-723q4 -171 92 -264t242 -93q173 0 318 114v-154q-135 -98 -357 -98q-217 0 -341 139.5t-124 392.5zM235 1202q0 107 48 171.5t134 64.5q65 0 149 -52q74 -44 128 -44q84 0 84 116h98q0 -105 -48 -171.5 t-130 -66.5q-71 0 -162 52q-77 43 -119 43q-88 0 -88 -113h-94zM268 610h553q-1 142 -68.5 221t-187.5 79q-116 0 -197 -83t-100 -217z" />
<glyph unicode="&#x1ebe;" horiz-adv-x="1036" d="M188 0v1434h728v-152h-560v-477h518v-151h-518v-502h592v-152h-760zM289 1565l216 250h132l216 -250h-121l-164 148l-166 -148h-113zM787 1717l180 246h168l-221 -246h-127z" />
<glyph unicode="&#x1ebf;" horiz-adv-x="1071" d="M96 508q0 239 135.5 389.5t336.5 150.5t311 -130t110 -361v-86h-723q4 -171 92 -264t242 -93q173 0 318 114v-154q-135 -98 -357 -98q-217 0 -341 139.5t-124 392.5zM268 610h553q-1 142 -68.5 221t-187.5 79q-116 0 -197 -83t-100 -217zM268 1218l216 250h132l216 -250 h-121l-164 148l-166 -148h-113zM766 1370l180 246h168l-221 -246h-127z" />
<glyph unicode="&#x1ec0;" horiz-adv-x="1036" d="M14 1965h168l180 -246h-126zM188 0v1434h728v-152h-560v-477h518v-151h-518v-502h592v-152h-760zM297 1567l215 250h134l214 -250h-112l-166 148l-164 -148h-121z" />
<glyph unicode="&#x1ec1;" horiz-adv-x="1071" d="M12 1616h168l180 -246h-126zM96 508q0 239 135.5 389.5t336.5 150.5t311 -130t110 -361v-86h-723q4 -171 92 -264t242 -93q173 0 318 114v-154q-135 -98 -357 -98q-217 0 -341 139.5t-124 392.5zM268 610h553q-1 142 -68.5 221t-187.5 79q-116 0 -197 -83t-100 -217z M295 1218l215 250h134l214 -250h-112l-166 148l-164 -148h-121z" />
<glyph unicode="&#x1ec2;" horiz-adv-x="1036" d="M188 0v1434h728v-152h-560v-477h518v-151h-518v-502h592v-152h-760zM292 1566l214 250h134l214 -250h-120l-164 148l-166 -148h-112zM776 1964v106q36 4 80 4q89 0 144.5 -41.5t55.5 -113.5q0 -60 -37.5 -102t-94.5 -49v-50h-109v115q113 0 113 75q0 64 -95 64 q-17 0 -57 -8z" />
<glyph unicode="&#x1ec3;" horiz-adv-x="1071" d="M96 508q0 239 135.5 389.5t336.5 150.5t311 -130t110 -361v-86h-723q4 -171 92 -264t242 -93q173 0 318 114v-154q-135 -98 -357 -98q-217 0 -341 139.5t-124 392.5zM268 610h553q-1 142 -68.5 221t-187.5 79q-116 0 -197 -83t-100 -217zM310 1218l214 250h134l214 -250 h-120l-164 148l-166 -148h-112zM794 1616v106q36 4 80 4q89 0 144.5 -41.5t55.5 -113.5q0 -60 -37.5 -102t-94.5 -49v-50h-109v115q113 0 113 75q0 64 -95 64q-17 0 -57 -8z" />
<glyph unicode="&#x1ec4;" horiz-adv-x="1036" d="M188 0v1434h728v-152h-560v-477h518v-151h-518v-502h592v-152h-760zM247 1876q0 215 182 215q63 0 145 -38q81 -38 132 -38q84 0 84 97h98q0 -101 -46.5 -159.5t-131.5 -58.5q-67 0 -153 37q-87 37 -128 37q-88 0 -88 -92h-94zM286 1566l215 250h133l215 -250h-121 l-164 148l-166 -148h-112z" />
<glyph unicode="&#x1ec5;" horiz-adv-x="1071" d="M96 508q0 239 135.5 389.5t336.5 150.5t311 -130t110 -361v-86h-723q4 -171 92 -264t242 -93q173 0 318 114v-154q-135 -98 -357 -98q-217 0 -341 139.5t-124 392.5zM240 1528q0 215 182 215q63 0 145 -38q81 -38 132 -38q84 0 84 97h98q0 -101 -46.5 -159.5 t-131.5 -58.5q-67 0 -153 37q-87 37 -128 37q-88 0 -88 -92h-94zM268 610h553q-1 142 -68.5 221t-187.5 79q-116 0 -197 -83t-100 -217zM279 1218l215 250h133l215 -250h-121l-164 148l-166 -148h-112z" />
<glyph unicode="&#x1ec6;" horiz-adv-x="1036" d="M188 0v1434h728v-152h-560v-477h518v-151h-518v-502h592v-152h-760zM283 1567l215 332h133l216 -332h-122l-164 230l-165 -230h-113zM476 -215q0 41 30 68.5t69 27.5q41 0 70 -27.5t29 -68.5t-29 -70t-70 -29t-70 29t-29 70z" />
<glyph unicode="&#x1ec7;" horiz-adv-x="1071" d="M96 508q0 239 135.5 389.5t336.5 150.5t311 -130t110 -361v-86h-723q4 -171 92 -264t242 -93q173 0 318 114v-154q-135 -98 -357 -98q-217 0 -341 139.5t-124 392.5zM268 610h553q-1 142 -68.5 221t-187.5 79q-116 0 -197 -83t-100 -217zM272 1218l215 332h133l216 -332 h-122l-164 230l-165 -230h-113zM481 -215q0 41 30 68.5t69 27.5q41 0 70 -27.5t29 -68.5t-29 -70t-70 -29t-70 29t-29 70z" />
<glyph unicode="&#x1ec8;" horiz-adv-x="545" d="M154 1812v107q37 4 80 4q88 0 144.5 -42t56.5 -113q0 -61 -38.5 -103t-95.5 -49v-50h-108v115q112 0 112 76q0 63 -94 63q-17 0 -57 -8zM188 0v1434h168v-1434h-168z" />
<glyph unicode="&#x1ec9;" horiz-adv-x="496" d="M136 1464v107q37 4 80 4q88 0 144.5 -42t56.5 -113q0 -61 -38.5 -103t-95.5 -49v-50h-108v115q112 0 112 76q0 63 -94 63q-17 0 -57 -8zM166 0v1024h164v-1024h-164z" />
<glyph unicode="&#x1eca;" horiz-adv-x="545" d="M178 -215q0 41 30 68.5t69 27.5q41 0 70 -27.5t29 -68.5t-29 -70t-70 -29t-70 29t-29 70zM188 0v1434h168v-1434h-168z" />
<glyph unicode="&#x1ecb;" horiz-adv-x="496" d="M144 1390q0 46 31 76.5t75 30.5q45 0 76.5 -30.5t31.5 -76.5q0 -44 -31.5 -75t-76.5 -31q-44 0 -75 30t-31 76zM149 -215q0 41 30 68.5t69 27.5q41 0 70 -27.5t29 -68.5t-29 -70t-70 -29t-70 29t-29 70zM166 0v1024h164v-1024h-164z" />
<glyph unicode="&#x1ecc;" horiz-adv-x="1544" d="M94 700q0 346 187 552t509 206q297 0 478.5 -200t181.5 -523q0 -351 -186 -555t-498 -204q-305 0 -488.5 201t-183.5 523zM270 715q0 -265 137.5 -426.5t358.5 -161.5q236 0 372 154t136 431q0 284 -132 439t-364 155q-226 0 -367 -163t-141 -428zM666 -215q0 41 30 68.5 t69 27.5q41 0 70 -27.5t29 -68.5t-29 -70t-70 -29t-70 29t-29 70z" />
<glyph unicode="&#x1ecd;" horiz-adv-x="1200" d="M96 500q0 258 141 403t381 145q229 0 357.5 -141t128.5 -391q0 -245 -138.5 -392.5t-371.5 -147.5q-227 0 -362.5 143.5t-135.5 380.5zM264 506q0 -182 93 -287t249 -105q159 0 244.5 103t85.5 293q0 192 -85.5 296t-244.5 104q-158 0 -250 -107.5t-92 -296.5zM504 -215 q0 41 30 68.5t69 27.5q41 0 70 -27.5t29 -68.5t-29 -70t-70 -29t-70 29t-29 70z" />
<glyph unicode="&#x1ece;" horiz-adv-x="1544" d="M94 700q0 346 187 552t509 206q297 0 478.5 -200t181.5 -523q0 -351 -186 -555t-498 -204q-305 0 -488.5 201t-183.5 523zM270 715q0 -265 137.5 -426.5t358.5 -161.5q236 0 372 154t136 431q0 284 -132 439t-364 155q-226 0 -367 -163t-141 -428zM673 1812v107 q37 4 80 4q88 0 144.5 -42t56.5 -113q0 -61 -38.5 -103t-95.5 -49v-50h-108v115q112 0 112 76q0 63 -94 63q-17 0 -57 -8z" />
<glyph unicode="&#x1ecf;" horiz-adv-x="1200" d="M96 500q0 258 141 403t381 145q229 0 357.5 -141t128.5 -391q0 -245 -138.5 -392.5t-371.5 -147.5q-227 0 -362.5 143.5t-135.5 380.5zM264 506q0 -182 93 -287t249 -105q159 0 244.5 103t85.5 293q0 192 -85.5 296t-244.5 104q-158 0 -250 -107.5t-92 -296.5zM494 1464 v107q37 4 80 4q88 0 144.5 -42t56.5 -113q0 -61 -38.5 -103t-95.5 -49v-50h-108v115q112 0 112 76q0 63 -94 63q-17 0 -57 -8z" />
<glyph unicode="&#x1ed0;" horiz-adv-x="1544" d="M94 700q0 346 187 552t509 206q297 0 478.5 -200t181.5 -523q0 -351 -186 -555t-498 -204q-305 0 -488.5 201t-183.5 523zM270 715q0 -265 137.5 -426.5t358.5 -161.5q236 0 372 154t136 431q0 284 -132 439t-364 155q-226 0 -367 -163t-141 -428zM501 1567l216 250h132 l216 -250h-121l-164 148l-166 -148h-113zM999 1719l180 246h168l-221 -246h-127z" />
<glyph unicode="&#x1ed1;" horiz-adv-x="1200" d="M96 500q0 258 141 403t381 145q229 0 357.5 -141t128.5 -391q0 -245 -138.5 -392.5t-371.5 -147.5q-227 0 -362.5 143.5t-135.5 380.5zM264 506q0 -182 93 -287t249 -105q159 0 244.5 103t85.5 293q0 192 -85.5 296t-244.5 104q-158 0 -250 -107.5t-92 -296.5zM330 1218 l216 250h132l216 -250h-121l-164 148l-166 -148h-113zM828 1370l180 246h168l-221 -246h-127z" />
<glyph unicode="&#x1ed2;" horiz-adv-x="1544" d="M94 700q0 346 187 552t509 206q297 0 478.5 -200t181.5 -523q0 -351 -186 -555t-498 -204q-305 0 -488.5 201t-183.5 523zM214 1965h168l180 -246h-126zM270 715q0 -265 137.5 -426.5t358.5 -161.5q236 0 372 154t136 431q0 284 -132 439t-364 155q-226 0 -367 -163 t-141 -428zM497 1567l215 250h134l214 -250h-112l-166 148l-164 -148h-121z" />
<glyph unicode="&#x1ed3;" horiz-adv-x="1200" d="M48 1616h168l180 -246h-126zM96 500q0 258 141 403t381 145q229 0 357.5 -141t128.5 -391q0 -245 -138.5 -392.5t-371.5 -147.5q-227 0 -362.5 143.5t-135.5 380.5zM264 506q0 -182 93 -287t249 -105q159 0 244.5 103t85.5 293q0 192 -85.5 296t-244.5 104 q-158 0 -250 -107.5t-92 -296.5zM331 1218l215 250h134l214 -250h-112l-166 148l-164 -148h-121z" />
<glyph unicode="&#x1ed4;" horiz-adv-x="1544" d="M94 700q0 346 187 552t509 206q297 0 478.5 -200t181.5 -523q0 -351 -186 -555t-498 -204q-305 0 -488.5 201t-183.5 523zM270 715q0 -265 137.5 -426.5t358.5 -161.5q236 0 372 154t136 431q0 284 -132 439t-364 155q-226 0 -367 -163t-141 -428zM484 1566l214 250h134 l214 -250h-120l-164 148l-166 -148h-112zM968 1964v106q36 4 80 4q89 0 144.5 -41.5t55.5 -113.5q0 -60 -37.5 -102t-94.5 -49v-50h-109v115q113 0 113 75q0 64 -95 64q-17 0 -57 -8z" />
<glyph unicode="&#x1ed5;" horiz-adv-x="1200" d="M96 500q0 258 141 403t381 145q229 0 357.5 -141t128.5 -391q0 -245 -138.5 -392.5t-371.5 -147.5q-227 0 -362.5 143.5t-135.5 380.5zM264 506q0 -182 93 -287t249 -105q159 0 244.5 103t85.5 293q0 192 -85.5 296t-244.5 104q-158 0 -250 -107.5t-92 -296.5zM337 1218 l214 250h134l214 -250h-120l-164 148l-166 -148h-112zM821 1616v106q36 4 80 4q89 0 144.5 -41.5t55.5 -113.5q0 -60 -37.5 -102t-94.5 -49v-50h-109v115q113 0 113 75q0 64 -95 64q-17 0 -57 -8z" />
<glyph unicode="&#x1ed6;" horiz-adv-x="1544" d="M94 700q0 346 187 552t509 206q297 0 478.5 -200t181.5 -523q0 -351 -186 -555t-498 -204q-305 0 -488.5 201t-183.5 523zM270 715q0 -265 137.5 -426.5t358.5 -161.5q236 0 372 154t136 431q0 284 -132 439t-364 155q-226 0 -367 -163t-141 -428zM466 1876 q0 215 182 215q63 0 145 -38q81 -38 132 -38q84 0 84 97h98q0 -101 -46.5 -159.5t-131.5 -58.5q-67 0 -153 37q-87 37 -128 37q-88 0 -88 -92h-94zM505 1566l215 250h133l215 -250h-121l-164 148l-166 -148h-112z" />
<glyph unicode="&#x1ed7;" horiz-adv-x="1200" d="M96 500q0 258 141 403t381 145q229 0 357.5 -141t128.5 -391q0 -245 -138.5 -392.5t-371.5 -147.5q-227 0 -362.5 143.5t-135.5 380.5zM264 506q0 -182 93 -287t249 -105q159 0 244.5 103t85.5 293q0 192 -85.5 296t-244.5 104q-158 0 -250 -107.5t-92 -296.5zM281 1528 q0 215 182 215q63 0 145 -38q81 -38 132 -38q84 0 84 97h98q0 -101 -46.5 -159.5t-131.5 -58.5q-67 0 -153 37q-87 37 -128 37q-88 0 -88 -92h-94zM320 1218l215 250h133l215 -250h-121l-164 148l-166 -148h-112z" />
<glyph unicode="&#x1ed8;" horiz-adv-x="1544" d="M94 700q0 346 187 552t509 206q297 0 478.5 -200t181.5 -523q0 -351 -186 -555t-498 -204q-305 0 -488.5 201t-183.5 523zM270 715q0 -265 137.5 -426.5t358.5 -161.5q236 0 372 154t136 431q0 284 -132 439t-364 155q-226 0 -367 -163t-141 -428zM512 1567l215 332h133 l216 -332h-122l-164 230l-165 -230h-113zM674 -215q0 41 30 68.5t69 27.5q41 0 70 -27.5t29 -68.5t-29 -70t-70 -29t-70 29t-29 70z" />
<glyph unicode="&#x1ed9;" horiz-adv-x="1200" d="M96 500q0 258 141 403t381 145q229 0 357.5 -141t128.5 -391q0 -245 -138.5 -392.5t-371.5 -147.5q-227 0 -362.5 143.5t-135.5 380.5zM264 506q0 -182 93 -287t249 -105q159 0 244.5 103t85.5 293q0 192 -85.5 296t-244.5 104q-158 0 -250 -107.5t-92 -296.5zM339 1218 l215 332h133l216 -332h-122l-164 230l-165 -230h-113zM496 -215q0 41 30 68.5t69 27.5q41 0 70 -27.5t29 -68.5t-29 -70t-70 -29t-70 29t-29 70z" />
<glyph unicode="&#x1eda;" horiz-adv-x="1562" d="M94 700q0 346 187 552t509 206q216 0 377 -111q48 -9 80 -9q214 0 214 130q0 72 -21 130h136q18 -54 18 -134q0 -108 -70 -175t-192 -67h-34q152 -194 152 -487q0 -351 -186 -555t-498 -204q-305 0 -488.5 201t-183.5 523zM270 715q0 -265 137.5 -426.5t358.5 -161.5 q236 0 372 154t136 431q0 284 -132 439t-364 155q-226 0 -367 -163t-141 -428zM661 1567l223 328h166l-262 -328h-127z" />
<glyph unicode="&#x1edb;" horiz-adv-x="1223" d="M96 500q0 258 141 403t381 145q48 0 134 -14q61 -10 170 -10q59 0 98.5 35.5t39.5 85.5q0 73 -20 131h134q19 -56 19 -136q0 -192 -219 -232q130 -141 130 -392q0 -245 -138.5 -392.5t-371.5 -147.5q-227 0 -362.5 143.5t-135.5 380.5zM264 506q0 -182 93 -287t249 -105 q159 0 244.5 103t85.5 293q0 192 -85.5 296t-244.5 104q-158 0 -250 -107.5t-92 -296.5zM488 1218l223 328h166l-262 -328h-127z" />
<glyph unicode="&#x1edc;" horiz-adv-x="1562" d="M94 700q0 346 187 552t509 206q216 0 377 -111q48 -9 80 -9q214 0 214 130q0 72 -21 130h136q18 -54 18 -134q0 -108 -70 -175t-192 -67h-34q152 -194 152 -487q0 -351 -186 -555t-498 -204q-305 0 -488.5 201t-183.5 523zM270 715q0 -265 137.5 -426.5t358.5 -161.5 q236 0 372 154t136 431q0 284 -132 439t-364 155q-226 0 -367 -163t-141 -428zM538 1895h168l221 -328h-127z" />
<glyph unicode="&#x1edd;" horiz-adv-x="1223" d="M96 500q0 258 141 403t381 145q48 0 134 -14q61 -10 170 -10q59 0 98.5 35.5t39.5 85.5q0 73 -20 131h134q19 -56 19 -136q0 -192 -219 -232q130 -141 130 -392q0 -245 -138.5 -392.5t-371.5 -147.5q-227 0 -362.5 143.5t-135.5 380.5zM264 506q0 -182 93 -287t249 -105 q159 0 244.5 103t85.5 293q0 192 -85.5 296t-244.5 104q-158 0 -250 -107.5t-92 -296.5zM340 1546h168l221 -328h-127z" />
<glyph unicode="&#x1ede;" horiz-adv-x="1562" d="M94 700q0 346 187 552t509 206q216 0 377 -111q48 -9 80 -9q214 0 214 130q0 72 -21 130h136q18 -54 18 -134q0 -108 -70 -175t-192 -67h-34q152 -194 152 -487q0 -351 -186 -555t-498 -204q-305 0 -488.5 201t-183.5 523zM270 715q0 -265 137.5 -426.5t358.5 -161.5 q236 0 372 154t136 431q0 284 -132 439t-364 155q-226 0 -367 -163t-141 -428zM695 1812v107q37 4 80 4q88 0 144.5 -42t56.5 -113q0 -61 -38.5 -103t-95.5 -49v-50h-108v115q112 0 112 76q0 63 -94 63q-17 0 -57 -8z" />
<glyph unicode="&#x1edf;" horiz-adv-x="1223" d="M96 500q0 258 141 403t381 145q48 0 134 -14q61 -10 170 -10q59 0 98.5 35.5t39.5 85.5q0 73 -20 131h134q19 -56 19 -136q0 -192 -219 -232q130 -141 130 -392q0 -245 -138.5 -392.5t-371.5 -147.5q-227 0 -362.5 143.5t-135.5 380.5zM264 506q0 -182 93 -287t249 -105 q159 0 244.5 103t85.5 293q0 192 -85.5 296t-244.5 104q-158 0 -250 -107.5t-92 -296.5zM496 1464v107q37 4 80 4q88 0 144.5 -42t56.5 -113q0 -61 -38.5 -103t-95.5 -49v-50h-108v115q112 0 112 76q0 63 -94 63q-17 0 -57 -8z" />
<glyph unicode="&#x1ee0;" horiz-adv-x="1562" d="M94 700q0 346 187 552t509 206q216 0 377 -111q48 -9 80 -9q214 0 214 130q0 72 -21 130h136q18 -54 18 -134q0 -108 -70 -175t-192 -67h-34q152 -194 152 -487q0 -351 -186 -555t-498 -204q-305 0 -488.5 201t-183.5 523zM270 715q0 -265 137.5 -426.5t358.5 -161.5 q236 0 372 154t136 431q0 284 -132 439t-364 155q-226 0 -367 -163t-141 -428zM467 1550q0 107 48 171.5t134 64.5q65 0 149 -52q74 -44 128 -44q84 0 84 116h98q0 -105 -48 -171.5t-130 -66.5q-71 0 -162 52q-77 43 -119 43q-88 0 -88 -113h-94z" />
<glyph unicode="&#x1ee1;" horiz-adv-x="1223" d="M96 500q0 258 141 403t381 145q48 0 134 -14q61 -10 170 -10q59 0 98.5 35.5t39.5 85.5q0 73 -20 131h134q19 -56 19 -136q0 -192 -219 -232q130 -141 130 -392q0 -245 -138.5 -392.5t-371.5 -147.5q-227 0 -362.5 143.5t-135.5 380.5zM264 506q0 -182 93 -287t249 -105 q159 0 244.5 103t85.5 293q0 192 -85.5 296t-244.5 104q-158 0 -250 -107.5t-92 -296.5zM283 1202q0 107 48 171.5t134 64.5q65 0 149 -52q74 -44 128 -44q84 0 84 116h98q0 -105 -48 -171.5t-130 -66.5q-71 0 -162 52q-77 43 -119 43q-88 0 -88 -113h-94z" />
<glyph unicode="&#x1ee2;" horiz-adv-x="1562" d="M94 700q0 346 187 552t509 206q216 0 377 -111q48 -9 80 -9q214 0 214 130q0 72 -21 130h136q18 -54 18 -134q0 -108 -70 -175t-192 -67h-34q152 -194 152 -487q0 -351 -186 -555t-498 -204q-305 0 -488.5 201t-183.5 523zM270 715q0 -265 137.5 -426.5t358.5 -161.5 q236 0 372 154t136 431q0 284 -132 439t-364 155q-226 0 -367 -163t-141 -428zM670 -215q0 41 30 68.5t69 27.5q41 0 70 -27.5t29 -68.5t-29 -70t-70 -29t-70 29t-29 70z" />
<glyph unicode="&#x1ee3;" horiz-adv-x="1223" d="M96 500q0 258 141 403t381 145q48 0 134 -14q61 -10 170 -10q59 0 98.5 35.5t39.5 85.5q0 73 -20 131h134q19 -56 19 -136q0 -192 -219 -232q130 -141 130 -392q0 -245 -138.5 -392.5t-371.5 -147.5q-227 0 -362.5 143.5t-135.5 380.5zM264 506q0 -182 93 -287t249 -105 q159 0 244.5 103t85.5 293q0 192 -85.5 296t-244.5 104q-158 0 -250 -107.5t-92 -296.5zM500 -215q0 41 30 68.5t69 27.5q41 0 70 -27.5t29 -68.5t-29 -70t-70 -29t-70 29t-29 70z" />
<glyph unicode="&#x1ee4;" horiz-adv-x="1407" d="M170 557v877h168v-866q0 -441 372 -441q359 0 359 426v881h168v-854q0 -604 -545 -604q-522 0 -522 581zM600 -215q0 41 30 68.5t69 27.5q41 0 70 -27.5t29 -68.5t-29 -70t-70 -29t-70 29t-29 70z" />
<glyph unicode="&#x1ee5;" d="M144 412v612h163v-586q0 -324 248 -324q120 0 197.5 88.5t77.5 231.5v590h164v-1024h-164v162h-4q-102 -186 -316 -186q-366 0 -366 436zM451 -215q0 41 30 68.5t69 27.5q41 0 70 -27.5t29 -68.5t-29 -70t-70 -29t-70 29t-29 70z" />
<glyph unicode="&#x1ee6;" horiz-adv-x="1407" d="M170 557v877h168v-866q0 -441 372 -441q359 0 359 426v881h168v-854q0 -604 -545 -604q-522 0 -522 581zM578 1812v107q37 4 80 4q88 0 144.5 -42t56.5 -113q0 -61 -38.5 -103t-95.5 -49v-50h-108v115q112 0 112 76q0 63 -94 63q-17 0 -57 -8z" />
<glyph unicode="&#x1ee7;" d="M144 412v612h163v-586q0 -324 248 -324q120 0 197.5 88.5t77.5 231.5v590h164v-1024h-164v162h-4q-102 -186 -316 -186q-366 0 -366 436zM461 1464v107q37 4 80 4q88 0 144.5 -42t56.5 -113q0 -61 -38.5 -103t-95.5 -49v-50h-108v115q112 0 112 76q0 63 -94 63 q-17 0 -57 -8z" />
<glyph unicode="&#x1ee8;" horiz-adv-x="1450" d="M170 557v877h168v-866q0 -441 372 -441q359 0 359 426v881h147q60 0 99.5 35.5t39.5 84.5q0 74 -21 132h136q18 -56 18 -136q0 -210 -251 -241v-729q0 -604 -545 -604q-522 0 -522 581zM575 1567l223 328h166l-262 -328h-127z" />
<glyph unicode="&#x1ee9;" horiz-adv-x="1204" d="M144 412v612h163v-586q0 -324 248 -324q120 0 197.5 88.5t77.5 231.5v590h122q59 0 98.5 35.5t39.5 85.5q0 73 -20 131h134q19 -56 19 -136q0 -198 -229 -234v-906h-164v162h-4q-102 -186 -316 -186q-366 0 -366 436zM447 1218l223 328h166l-262 -328h-127z" />
<glyph unicode="&#x1eea;" horiz-adv-x="1450" d="M170 557v877h168v-866q0 -441 372 -441q359 0 359 426v881h147q60 0 99.5 35.5t39.5 84.5q0 74 -21 132h136q18 -56 18 -136q0 -210 -251 -241v-729q0 -604 -545 -604q-522 0 -522 581zM460 1895h168l221 -328h-127z" />
<glyph unicode="&#x1eeb;" horiz-adv-x="1204" d="M144 412v612h163v-586q0 -324 248 -324q120 0 197.5 88.5t77.5 231.5v590h122q59 0 98.5 35.5t39.5 85.5q0 73 -20 131h134q19 -56 19 -136q0 -198 -229 -234v-906h-164v162h-4q-102 -186 -316 -186q-366 0 -366 436zM278 1546h168l221 -328h-127z" />
<glyph unicode="&#x1eec;" horiz-adv-x="1450" d="M170 557v877h168v-866q0 -441 372 -441q359 0 359 426v881h147q60 0 99.5 35.5t39.5 84.5q0 74 -21 132h136q18 -56 18 -136q0 -210 -251 -241v-729q0 -604 -545 -604q-522 0 -522 581zM584 1812v107q37 4 80 4q88 0 144.5 -42t56.5 -113q0 -61 -38.5 -103t-95.5 -49v-50 h-108v115q112 0 112 76q0 63 -94 63q-17 0 -57 -8z" />
<glyph unicode="&#x1eed;" horiz-adv-x="1204" d="M144 412v612h163v-586q0 -324 248 -324q120 0 197.5 88.5t77.5 231.5v590h122q59 0 98.5 35.5t39.5 85.5q0 73 -20 131h134q19 -56 19 -136q0 -198 -229 -234v-906h-164v162h-4q-102 -186 -316 -186q-366 0 -366 436zM466 1464v107q37 4 80 4q88 0 144.5 -42t56.5 -113 q0 -61 -38.5 -103t-95.5 -49v-50h-108v115q112 0 112 76q0 63 -94 63q-17 0 -57 -8z" />
<glyph unicode="&#x1eee;" horiz-adv-x="1450" d="M170 557v877h168v-866q0 -441 372 -441q359 0 359 426v881h147q60 0 99.5 35.5t39.5 84.5q0 74 -21 132h136q18 -56 18 -136q0 -210 -251 -241v-729q0 -604 -545 -604q-522 0 -522 581zM393 1550q0 107 48 171.5t134 64.5q65 0 149 -52q74 -44 128 -44q84 0 84 116h98 q0 -105 -48 -171.5t-130 -66.5q-71 0 -162 52q-77 43 -119 43q-88 0 -88 -113h-94z" />
<glyph unicode="&#x1eef;" horiz-adv-x="1204" d="M144 412v612h163v-586q0 -324 248 -324q120 0 197.5 88.5t77.5 231.5v590h122q59 0 98.5 35.5t39.5 85.5q0 73 -20 131h134q19 -56 19 -136q0 -198 -229 -234v-906h-164v162h-4q-102 -186 -316 -186q-366 0 -366 436zM256 1202q0 107 48 171.5t134 64.5q65 0 149 -52 q74 -44 128 -44q84 0 84 116h98q0 -105 -48 -171.5t-130 -66.5q-71 0 -162 52q-77 43 -119 43q-88 0 -88 -113h-94z" />
<glyph unicode="&#x1ef0;" horiz-adv-x="1450" d="M170 557v877h168v-866q0 -441 372 -441q359 0 359 426v881h147q60 0 99.5 35.5t39.5 84.5q0 74 -21 132h136q18 -56 18 -136q0 -210 -251 -241v-729q0 -604 -545 -604q-522 0 -522 581zM600 -215q0 41 30 68.5t69 27.5q41 0 70 -27.5t29 -68.5t-29 -70t-70 -29t-70 29 t-29 70z" />
<glyph unicode="&#x1ef1;" horiz-adv-x="1204" d="M144 412v612h163v-586q0 -324 248 -324q120 0 197.5 88.5t77.5 231.5v590h122q59 0 98.5 35.5t39.5 85.5q0 73 -20 131h134q19 -56 19 -136q0 -198 -229 -234v-906h-164v162h-4q-102 -186 -316 -186q-366 0 -366 436zM471 -215q0 41 30 68.5t69 27.5q41 0 70 -27.5 t29 -68.5t-29 -70t-70 -29t-70 29t-29 70z" />
<glyph unicode="&#x1ef2;" horiz-adv-x="1132" d="M18 1434h191l321 -648q6 -12 35 -88h3q10 34 38 88l336 648h178l-473 -904v-530h-168v526zM328 1894h168l221 -328h-127z" />
<glyph unicode="&#x1ef3;" horiz-adv-x="991" d="M14 1024h182l277 -788q5 -15 21 -78h6q5 24 20 76l291 790h170l-471 -1188q-126 -318 -354 -318q-64 0 -107 13v147q53 -18 97 -18q124 0 186 148l82 194zM240 1546h168l221 -328h-127z" />
<glyph unicode="&#x1ef4;" horiz-adv-x="1132" d="M18 1434h191l321 -648q6 -12 35 -88h3q10 34 38 88l336 648h178l-473 -904v-530h-168v526zM465 -215q0 41 30 68.5t69 27.5q41 0 70 -27.5t29 -68.5t-29 -70t-70 -29t-70 29t-29 70z" />
</font>
</defs>
</svg>
