<?xml version="1.0" standalone="no"?>
<!DOCTYPE svg PUBLIC "-//W3C//DTD SVG 1.1//EN" "http://www.w3.org/Graphics/SVG/1.1/DTD/svg11.dtd" >
<svg xmlns="http://www.w3.org/2000/svg">
<metadata></metadata>
<defs>
<font id="segoe_uibold" horiz-adv-x="1102" >
<font-face units-per-em="2048" ascent="1638" descent="-410" />
<missing-glyph horiz-adv-x="565" />
<glyph horiz-adv-x="2048" />
<glyph horiz-adv-x="2048" />
<glyph unicode="&#xd;" horiz-adv-x="100" />
<glyph unicode=" "  horiz-adv-x="565" />
<glyph unicode="&#x09;" horiz-adv-x="565" />
<glyph unicode="&#xa0;" horiz-adv-x="565" />
<glyph unicode="!" horiz-adv-x="670" d="M152 143q0 72 52.5 118t131.5 46q80 0 131 -46.5t51 -117.5q0 -72 -50.5 -119t-131.5 -47q-80 0 -132 48.5t-52 117.5zM168 1434h332l-39 -988h-256z" />
<glyph unicode="&#x22;" horiz-adv-x="1010" d="M191 1010v442h232v-442h-232zM586 1008v444h233v-444h-233z" />
<glyph unicode="#" horiz-adv-x="1213" d="M37 461l37 180h188l53 248h-202l34 180h205l74 356h205l-74 -356h229l76 356h203l-74 -356h185l-39 -180h-185l-55 -248h207l-45 -180h-199l-78 -346h-200l73 346h-229l-74 -346h-200l71 346h-186zM463 641h231l56 248h-232z" />
<glyph unicode="$" horiz-adv-x="1178" d="M123 1038q0 157 111 267.5t294 128.5v186h146v-182q211 -10 315 -68v-270q-140 85 -315 104v-379q219 -79 314 -180.5t95 -245.5q0 -166 -106 -267.5t-303 -123.5v-217h-146v211q-203 1 -378 92v277q58 -47 173 -87t205 -46v364q-234 87 -319.5 188.5t-85.5 247.5z M389 1055q0 -103 139 -172v317q-139 -25 -139 -145zM674 242q143 22 143 143q0 98 -143 160v-303z" />
<glyph unicode="%" horiz-adv-x="1776" d="M90 1065q0 179 99.5 284t265.5 105q159 0 248.5 -95t89.5 -267q0 -177 -99 -281t-264 -104q-153 0 -246.5 97t-93.5 261zM299 0l932 1434h246l-934 -1434h-244zM303 1075q0 -192 139 -192q142 0 142 200q0 195 -135 195q-146 0 -146 -203zM983 338q0 179 99.5 284 t265.5 105q160 0 249 -94t89 -266q0 -177 -99 -282t-264 -105q-153 0 -246.5 97t-93.5 261zM1194 348q0 -192 141 -192q142 0 142 200q0 93 -38 144t-100 51q-145 0 -145 -203z" />
<glyph unicode="&#x26;" horiz-adv-x="1740" d="M75 416q0 85 30.5 151.5t79.5 116.5t111 86t126 60q-31 24 -62.5 55.5t-56.5 69t-40.5 81.5t-15.5 93q0 79 32 140t89.5 103t137.5 64t176 22q92 0 168.5 -23t131.5 -64t85 -98.5t30 -126.5q0 -111 -66.5 -192.5t-187.5 -132.5q48 -22 92 -50t86 -64t82 -81.5t79 -104.5 q82 103 117.5 219.5t35.5 242.5q0 38 -4.5 73t-14.5 65h269q11 -32 16 -62t5 -71q0 -97 -20.5 -189t-57.5 -176t-89.5 -159t-115.5 -140q49 -51 101 -78.5t98 -27.5q48 0 98 10.5t87 29.5v-238q-55 -22 -108.5 -32.5t-119.5 -10.5q-53 0 -100.5 14t-90 38t-80.5 56.5 t-72 69.5q-37 -30 -89 -62t-117.5 -57.5t-144.5 -42t-169 -16.5q-117 0 -216.5 28t-171.5 83.5t-112.5 137.5t-40.5 190zM395 429q0 -48 17 -87t48.5 -67t75 -43.5t96.5 -15.5q59 0 111 11.5t98 30.5t85.5 44t72.5 52q-51 80 -101 135.5t-99 95t-97.5 66.5t-97.5 49 q-41 -20 -78.5 -44.5t-66.5 -57t-46.5 -74t-17.5 -95.5zM531 1119q0 -56 35 -103t87 -76q33 12 62.5 28t52 38t36 51t13.5 67q0 29 -11 52t-30 38.5t-43 24t-51 8.5q-33 0 -60.5 -10t-48 -27t-31.5 -40.5t-11 -50.5z" />
<glyph unicode="'" horiz-adv-x="600" d="M175 1010v442h240v-442h-240z" />
<glyph unicode="(" horiz-adv-x="756" d="M158 549q0 501 323 885h256q-303 -402 -303 -885t305 -875h-258q-323 356 -323 875z" />
<glyph unicode=")" horiz-adv-x="756" d="M18 -326q306 390 306 875q0 481 -306 885h258q324 -385 324 -885q0 -515 -326 -875h-256z" />
<glyph unicode="*" horiz-adv-x="932" d="M70 1053l71 202l252 -108l-43 287h234l-43 -287l250 108l73 -202l-274 -37l196 -211l-182 -125l-137 254l-137 -254l-183 125l197 211z" />
<glyph unicode="+" horiz-adv-x="1448" d="M238 485v203h387v387h202v-387h385v-203h-385v-385h-202v385h-387z" />
<glyph unicode="," horiz-adv-x="555" d="M39 -254l102 506h291l-147 -506h-246z" />
<glyph unicode="-" horiz-adv-x="828" d="M143 436v221h547v-221h-547z" />
<glyph unicode="." horiz-adv-x="555" d="M92 141q0 72 53.5 118t133.5 46q81 0 132.5 -46.5t51.5 -117.5q0 -73 -52.5 -119.5t-136.5 -46.5q-78 0 -130 48t-52 118z" />
<glyph unicode="/" horiz-adv-x="908" d="M-49 -238l696 1672h285l-699 -1672h-282z" />
<glyph unicode="0" horiz-adv-x="1178" d="M69 694q0 373 138.5 568.5t401.5 195.5q500 0 500 -731q0 -364 -136.5 -558t-391.5 -194q-512 0 -512 719zM390 702q0 -485 201 -485q196 0 196 500t-192 500q-205 0 -205 -515z" />
<glyph unicode="1" horiz-adv-x="1178" d="M212 985v266q123 36 232 92t197 123h191v-1466h-315v1110q-26 -23 -61.5 -43.5t-75.5 -37t-83 -28t-85 -16.5z" />
<glyph unicode="2" horiz-adv-x="1178" d="M83 0v108q0 110 37 197.5t93 157t122.5 123t126.5 96.5q63 45 110.5 86t80 81.5t48.5 82t16 88.5q0 92 -52 139t-159 47q-185 0 -354 -147v278q187 121 422 121q109 0 195.5 -28.5t146.5 -81.5t91.5 -128.5t31.5 -168.5q0 -99 -30.5 -176t-81 -140t-116.5 -115.5 t-137 -101.5q-48 -34 -92.5 -67.5t-78.5 -66t-54 -63.5t-20 -59h608v-262h-954z" />
<glyph unicode="3" horiz-adv-x="1178" d="M117 47v275q144 -105 336 -105q121 0 188.5 52t67.5 145q0 96 -83.5 148t-229.5 52h-133v242h123q280 0 280 186q0 175 -215 175q-144 0 -280 -93v258q151 76 352 76q220 0 342.5 -99t122.5 -257q0 -281 -285 -352v-5q152 -19 240 -110.5t88 -224.5q0 -201 -147 -318 t-406 -117q-222 0 -361 72z" />
<glyph unicode="4" horiz-adv-x="1178" d="M39 294v247q83 93 172 203.5t172 227.5t154.5 235.5t121.5 226.5h293v-904h172v-236h-172v-294h-288v294h-625zM322 530h342v501q-35 -65 -76 -131.5t-86 -131t-91 -125t-89 -113.5z" />
<glyph unicode="5" horiz-adv-x="1178" d="M142 37v270q147 -90 313 -90q125 0 195.5 59.5t70.5 161.5q0 213 -301 213q-111 0 -256 -17l54 800h759v-258h-518l-20 -287q77 6 133 6q221 0 346 -116t125 -312q0 -217 -149 -354.5t-404 -137.5q-207 0 -348 62z" />
<glyph unicode="6" horiz-adv-x="1178" d="M100 641q0 185 45.5 335.5t130 257.5t204.5 165.5t270 58.5q166 0 258 -39v-264q-109 62 -238 62q-80 0 -145 -31t-111.5 -88t-73 -137.5t-28.5 -179.5h6q102 141 301 141q89 0 161 -32t123 -90.5t79 -140.5t28 -182q0 -106 -37 -198t-103 -159.5t-157 -106t-199 -38.5 q-121 0 -216.5 45t-161.5 130.5t-101 209.5t-35 281zM422 471q0 -53 14 -99t39.5 -80.5t60.5 -54.5t78 -20t77.5 17.5t59 49t37.5 76t13 97.5q0 231 -189 231q-43 0 -78 -16t-60 -45t-38.5 -68.5t-13.5 -87.5z" />
<glyph unicode="7" horiz-adv-x="1178" d="M96 1176v258h998v-182q-96 -173 -172 -324.5t-134 -299t-99 -300t-67 -328.5h-330q28 167 74 322t106.5 300.5t134 283.5t155.5 270h-666z" />
<glyph unicode="8" horiz-adv-x="1178" d="M80 386q0 60 17.5 115.5t52.5 103t87.5 85t123.5 61.5q-109 54 -169 138.5t-60 187.5q0 82 34.5 152t95.5 121t145.5 79.5t184.5 28.5q102 0 187 -28.5t146.5 -79t95.5 -119.5t34 -150q0 -102 -64 -185.5t-177 -137.5q70 -24 123 -61.5t89 -85.5t54 -104.5t18 -117.5 q0 -92 -37 -167.5t-104.5 -130t-161 -84.5t-206.5 -30q-111 0 -204.5 29.5t-161 83.5t-105.5 129.5t-38 166.5zM379 413q0 -49 15 -88t43 -66t66.5 -41.5t86.5 -14.5q46 0 84.5 15t66.5 42t44 66t16 87q0 43 -15 82t-43 67.5t-66.5 45.5t-86.5 17q-45 0 -84 -15.5t-67 -44 t-44 -67.5t-16 -85zM423 1048q0 -38 13.5 -71.5t36.5 -58t54.5 -38.5t66.5 -14q36 0 67 14t54.5 39t37 58t13.5 71q0 39 -13 72.5t-36.5 58t-55 38.5t-67.5 14q-38 0 -69.5 -14.5t-54 -39t-35 -58t-12.5 -71.5z" />
<glyph unicode="9" horiz-adv-x="1178" d="M78 952q0 113 37 206t103.5 160t159.5 103.5t206 36.5q117 0 210 -45.5t158.5 -131.5t100 -211t34.5 -284q0 -191 -42 -341.5t-122.5 -254.5t-196.5 -159.5t-263 -55.5q-176 0 -303 56v260q113 -74 272 -74q163 0 255 111t93 321l-6 2q-95 -141 -289 -141 q-88 0 -162.5 33t-129 91.5t-85 139.5t-30.5 178zM387 979q0 -56 14 -99.5t39.5 -73.5t61.5 -45.5t80 -15.5q42 0 76 16.5t58.5 44.5t38 66t13.5 82q0 55 -14 103.5t-39 83.5t-61 55.5t-79 20.5q-41 0 -75.5 -18t-59.5 -49.5t-39 -75.5t-14 -95z" />
<glyph unicode=":" horiz-adv-x="555" d="M92 141q0 72 53.5 118t133.5 46q81 0 132.5 -46.5t51.5 -117.5q0 -73 -52.5 -119.5t-136.5 -46.5q-78 0 -130 48t-52 118zM92 872q0 72 53.5 118t133.5 46q81 0 132.5 -46.5t51.5 -117.5q0 -73 -52.5 -119t-136.5 -46q-78 0 -130 47.5t-52 117.5z" />
<glyph unicode=";" horiz-adv-x="555" d="M39 -254l102 506h291l-147 -506h-246zM98 872q0 73 52.5 118.5t132.5 45.5q81 0 132.5 -46.5t51.5 -117.5q0 -73 -51 -119t-135 -46q-79 0 -131 48t-52 117z" />
<glyph unicode="&#x3c;" horiz-adv-x="1448" d="M258 489v162l934 447v-238l-666 -285v-6l666 -268v-238z" />
<glyph unicode="=" horiz-adv-x="1448" d="M238 266v203h974v-203h-974zM238 700v205h974v-205h-974z" />
<glyph unicode="&#x3e;" horiz-adv-x="1448" d="M258 76v237l668 267v4l-668 286v238l934 -444v-162z" />
<glyph unicode="?" horiz-adv-x="897" d="M62 1065v301q77 46 168 69t188 23q93 0 173 -20.5t139.5 -64.5t93 -112.5t33.5 -164.5q0 -61 -14 -110.5t-41 -93.5t-67 -84.5t-92 -83.5q-35 -29 -61.5 -54t-44 -49.5t-26.5 -52t-9 -62.5q0 -24 6.5 -49t17.5 -42h-263q-10 26 -15.5 58.5t-5.5 61.5q0 46 9 84t27 71.5 t45 64t63 60.5q38 32 66.5 59.5t48.5 55t30 57t10 65.5q0 31 -11 57.5t-31.5 45.5t-50 30t-65.5 11q-78 0 -162 -32.5t-159 -98.5zM223 143q0 70 53 117t133 47q79 0 131 -47q52 -46 52 -117q0 -72 -51 -119q-52 -47 -132 -47t-133 48q-53 50 -53 118z" />
<glyph unicode="@" horiz-adv-x="1954" d="M135 592q0 364 247 612t636 248q360 0 582.5 -192.5t222.5 -507.5q0 -259 -136 -415.5t-337 -156.5q-99 0 -161 53t-67 138h-6q-70 -191 -254 -191q-138 0 -222.5 100t-84.5 277q0 229 117 372.5t282 143.5q149 0 187 -117h4l10 99h225q-45 -426 -45 -557q0 -140 76 -140 q80 0 132 106t52 277q0 234 -149 383.5t-416 149.5q-286 0 -475.5 -199.5t-189.5 -486.5q0 -278 167.5 -438t462.5 -160q225 0 412 86v-191q-171 -73 -440 -73q-369 0 -600.5 211.5t-231.5 568.5zM786 559q0 -96 38.5 -149.5t99.5 -53.5q94 0 148 101t54 270q0 80 -37.5 126 t-99.5 46q-90 0 -146.5 -102.5t-56.5 -237.5z" />
<glyph unicode="A" horiz-adv-x="1440" d="M10 0l522 1434h383l510 -1434h-352l-102 319h-510l-101 -319h-350zM530 567h367l-154 482q-17 54 -24 129h-8q-5 -63 -25 -125z" />
<glyph unicode="B" horiz-adv-x="1313" d="M164 0v1434h522q240 0 369 -88t129 -248q0 -116 -78.5 -203t-200.5 -121v-4q153 -19 244.5 -113t91.5 -229q0 -197 -141 -312.5t-385 -115.5h-551zM487 238h175q112 0 175.5 52t63.5 142q0 86 -62.5 135t-174.5 49h-177v-378zM487 856h142q100 0 157.5 48.5t57.5 133.5 q0 158 -236 158h-121v-340z" />
<glyph unicode="C" horiz-adv-x="1278" d="M74 686q0 344 212.5 558t551.5 214q210 0 354 -53v-311q-144 86 -328 86q-202 0 -326 -127t-124 -344q0 -208 117 -331.5t315 -123.5q189 0 346 92v-295q-157 -76 -410 -76q-330 0 -519 194t-189 517z" />
<glyph unicode="D" horiz-adv-x="1510" d="M164 0v1434h508q764 0 764 -699q0 -335 -208.5 -535t-555.5 -200h-508zM487 262h160q210 0 329.5 126t119.5 343q0 205 -118.5 322.5t-332.5 117.5h-158v-909z" />
<glyph unicode="E" horiz-adv-x="1090" d="M164 0v1434h827v-263h-504v-319h469v-262h-469v-328h537v-262h-860z" />
<glyph unicode="F" horiz-adv-x="1065" d="M164 0v1434h829v-263h-506v-352h465v-262h-465v-557h-323z" />
<glyph unicode="G" horiz-adv-x="1456" d="M74 694q0 338 218 551t580 213q228 0 402 -63v-303q-166 96 -406 96q-201 0 -327.5 -130.5t-126.5 -348.5q0 -221 113.5 -342t306.5 -121q116 0 184 33v280h-287v258h610v-721q-210 -121 -522 -121q-346 0 -545.5 191.5t-199.5 527.5z" />
<glyph unicode="H" horiz-adv-x="1569" d="M164 0v1434h323v-572h594v572h324v-1434h-324v584h-594v-584h-323z" />
<glyph unicode="I" horiz-adv-x="649" d="M164 0v1434h323v-1434h-323z" />
<glyph unicode="J" horiz-adv-x="912" d="M33 14v303q83 -63 186 -63q221 0 221 328v852h322v-865q0 -288 -133.5 -441t-386.5 -153q-113 0 -209 39z" />
<glyph unicode="K" horiz-adv-x="1329" d="M164 0v1434h323v-678h5q12 28 40 80l396 598h385l-500 -684l543 -750h-408l-418 623q-12 18 -38 79h-5v-702h-323z" />
<glyph unicode="L" horiz-adv-x="1047" d="M164 0v1434h323v-1172h531v-262h-854z" />
<glyph unicode="M" horiz-adv-x="1960" d="M164 0v1434h473l293 -850q35 -102 51 -205h6q27 119 57 207l293 848h461v-1434h-319v858q0 139 12 307h-8q-25 -132 -45 -190l-336 -975h-264l-342 965q-14 39 -45 200h-9q13 -212 13 -372v-793h-291z" />
<glyph unicode="N" horiz-adv-x="1618" d="M164 0v1434h348l569 -873q39 -59 72 -117h4q-8 50 -8 197v793h305v-1434h-326l-591 901q-52 79 -72 119h-4q8 -76 8 -232v-788h-305z" />
<glyph unicode="O" horiz-adv-x="1553" d="M74 698q0 340 197 550t522 210q307 0 496.5 -201t189.5 -530q0 -338 -196.5 -545t-512.5 -207q-308 0 -502 200.5t-194 522.5zM414 715q0 -213 100 -337t262 -124q167 0 265 120.5t98 334.5q0 223 -95 347t-260 124q-170 0 -270 -127.5t-100 -337.5z" />
<glyph unicode="P" horiz-adv-x="1258" d="M164 0v1434h506q542 0 542 -457q0 -216 -155.5 -349.5t-415.5 -133.5h-154v-494h-323zM487 739h127q258 0 258 226q0 221 -258 221h-127v-447z" />
<glyph unicode="Q" horiz-adv-x="1553" d="M74 698q0 339 197 550q196 210 522 210q307 0 496 -201q190 -200 190 -530q0 -337 -197 -545q-7 -7 -13 -13.5t-13 -12.5l363 -349h-452l-190 193q-94 -25 -207 -25q-308 0 -502 200q-194 202 -194 523zM414 715q0 -213 100 -337t262 -124q167 0 265 120q98 122 98 335 q0 222 -95 347q-94 124 -260 124q-169 0 -270 -128q-100 -127 -100 -337z" />
<glyph unicode="R" horiz-adv-x="1337" d="M164 0v1434h512q522 0 522 -390q0 -75 -23 -138.5t-65 -114.5t-101.5 -88t-132.5 -58v-4q32 -10 62 -32.5t58 -52.5t53.5 -64.5t46.5 -67.5l271 -424h-371l-223 369q-25 42 -48 75t-46.5 56.5t-49 36t-55.5 12.5h-87v-549h-323zM487 793h140q104 0 167 60q64 61 64 151 q0 188 -225 188h-146v-399z" />
<glyph unicode="S" horiz-adv-x="1148" d="M92 1032q0 112 45 192.5t122.5 132.5t179.5 76.5t216 24.5q112 0 198.5 -13.5t159.5 -41.5v-299q-36 25 -78.5 44t-87.5 31.5t-89.5 18.5t-84.5 6q-55 0 -100 -10.5t-76 -29.5t-48 -45.5t-17 -59.5q0 -36 19 -64.5t54 -54t85 -50t113 -50.5q86 -36 154.5 -76.5 t117.5 -91.5t75 -116.5t26 -152.5q0 -120 -45.5 -201.5t-123.5 -132t-181.5 -72.5t-218.5 -22q-118 0 -224.5 20t-184.5 60v320q87 -73 189 -109.5t206 -36.5q61 0 106.5 11t76 30.5t45.5 46t15 57.5q0 42 -24 75t-65.5 61t-98.5 54t-123 53q-168 70 -250.5 171t-82.5 244z " />
<glyph unicode="T" horiz-adv-x="1200" d="M31 1171v263h1140v-263h-409v-1171h-324v1171h-407z" />
<glyph unicode="U" horiz-adv-x="1481" d="M147 606v828h324v-832q0 -348 272 -348q267 0 267 336v844h323v-813q0 -646 -602 -646q-584 0 -584 631z" />
<glyph unicode="V" horiz-adv-x="1366" d="M10 1434h348l299 -998q24 -81 29 -143h6q7 67 31 147l297 994h338l-494 -1434h-366z" />
<glyph unicode="W" horiz-adv-x="2058" d="M18 1434h353l202 -955q13 -61 19 -164h6q4 77 29 168l260 951h346l235 -963q13 -53 23 -154h4q4 79 21 160l198 957h326l-379 -1434h-358l-238 920q-19 72 -23 161h-4q-9 -98 -26 -161l-244 -920h-373z" />
<glyph unicode="X" horiz-adv-x="1342" d="M6 0l457 717l-418 717h393l205 -430q24 -51 43 -121h4q12 42 45 125l228 426h360l-430 -711l442 -723h-383l-247 467q-14 26 -29 96h-4q-7 -33 -33 -100l-248 -463h-385z" />
<glyph unicode="Y" horiz-adv-x="1243" d="M0 1434h369l231 -535q6 -15 33 -117h4q13 72 31 113l235 539h342l-467 -924v-510h-323v504z" />
<glyph unicode="Z" horiz-adv-x="1243" d="M41 0v186l735 985h-682v263h1100v-181l-719 -991h721v-262h-1155z" />
<glyph unicode="[" horiz-adv-x="756" d="M217 -326v1760h469v-201h-209v-1358h209v-201h-469z" />
<glyph unicode="\" horiz-adv-x="893" d="M0 1434h281l680 -1672h-279z" />
<glyph unicode="]" horiz-adv-x="756" d="M70 -125h211v1358h-211v201h471v-1760h-471v201z" />
<glyph unicode="^" horiz-adv-x="1448" d="M203 610l430 848h162l454 -848h-243l-287 586h-4l-271 -586h-241z" />
<glyph unicode="_" horiz-adv-x="850" d="M0 -178h850v-119h-850v119z" />
<glyph unicode="`" horiz-adv-x="643" d="M55 1509h281l260 -323h-227z" />
<glyph unicode="a" d="M57 285q0 298 353 344l278 37q0 168 -182 168q-183 0 -348 -109v238q66 34 180.5 60t208.5 26q438 0 438 -437v-612h-299v147h-4q-103 -172 -305 -172q-149 0 -234.5 84.5t-85.5 225.5zM348 322q0 -54 37.5 -88.5t101.5 -34.5q89 0 145 61.5t56 155.5v69l-186 -24 q-154 -20 -154 -139z" />
<glyph unicode="b" horiz-adv-x="1270" d="M133 0v1516h316v-646h4q117 179 333 179q198 0 305 -136t107 -372q0 -256 -125 -411t-334 -155q-189 0 -286 144h-4v-119h-316zM444 446q0 -99 57 -164t146 -65q108 0 167.5 83.5t59.5 236.5q0 127 -54.5 198.5t-155.5 71.5q-95 0 -157.5 -71t-62.5 -185v-105z" />
<glyph unicode="c" horiz-adv-x="983" d="M72 487q0 261 156.5 411.5t418.5 150.5q181 0 262 -48v-268q-99 74 -221 74q-136 0 -215.5 -79.5t-79.5 -219.5q0 -136 76 -213.5t209 -77.5q118 0 231 74v-254q-107 -62 -309 -62q-236 0 -382 143t-146 369z" />
<glyph unicode="d" horiz-adv-x="1268" d="M72 489q0 254 129 407t338 153q198 0 276 -142h4v609h316v-1516h-316v141h-4q-108 -166 -317 -166q-192 0 -309 135.5t-117 378.5zM393 498q0 -135 57 -208t158 -73q96 0 156.5 77t60.5 204v77q0 100 -58 166t-151 66q-105 0 -164 -82.5t-59 -226.5z" />
<glyph unicode="e" horiz-adv-x="1108" d="M72 496q0 255 148 404t364 149q224 0 346.5 -133t122.5 -361v-133h-668q16 -223 281 -223q169 0 297 80v-228q-142 -76 -369 -76q-248 0 -385 137.5t-137 383.5zM383 616h377q0 220 -178 220q-76 0 -131.5 -63t-67.5 -157z" />
<glyph unicode="f" horiz-adv-x="785" d="M45 791v233h172v127q0 175 114 282t310 107q96 0 160 -20v-246q-61 24 -117 24q-152 0 -152 -165v-109h234v-233h-234v-791h-315v791h-172z" />
<glyph unicode="g" horiz-adv-x="1268" d="M72 483q0 260 128 413t337 153q187 0 280 -144h4v119h316v-907q0 -285 -165 -441.5t-478 -156.5q-207 0 -328 59v266q158 -92 319 -92q160 0 248 84.5t88 229.5v81h-4q-108 -172 -319 -172q-196 0 -311 138t-115 370zM393 494q0 -128 57 -202.5t156 -74.5 q98 0 158.5 75.5t60.5 199.5v81q0 97 -57.5 165.5t-149.5 68.5q-105 0 -165 -82t-60 -231z" />
<glyph unicode="h" horiz-adv-x="1233" d="M133 0v1516h316v-644h4q116 177 315 177q348 0 348 -420v-629h-315v582q0 225 -164 225q-84 0 -136 -63t-52 -160v-584h-316z" />
<glyph unicode="i" horiz-adv-x="582" d="M111 1350q0 71 51 116t131 45q81 0 131.5 -45t50.5 -116q0 -72 -50.5 -118t-131.5 -46q-80 0 -131 47.5t-51 116.5zM133 0v1024h316v-1024h-316z" />
<glyph unicode="j" horiz-adv-x="582" d="M-133 -203q66 -37 117 -37q149 0 149 234v1030h316v-1006q0 -227 -111 -363t-320 -136q-69 0 -151 30v248zM111 1350q0 71 51 116t131 45q81 0 131.5 -45t50.5 -116q0 -72 -50.5 -118t-131.5 -46q-80 0 -131 47.5t-51 116.5z" />
<glyph unicode="k" horiz-adv-x="1145" d="M133 0v1516h316v-965h4l305 473h375l-367 -481l393 -543h-379l-327 508h-4v-508h-316z" />
<glyph unicode="l" horiz-adv-x="582" d="M133 0v1516h316v-1516h-316z" />
<glyph unicode="m" horiz-adv-x="1876" d="M133 0v1024h316v-160h4q49 82 137.5 133.5t193.5 51.5q217 0 297 -191q117 191 344 191q334 0 334 -412v-637h-315v584q0 223 -164 223q-78 0 -127 -67t-49 -167v-573h-316v590q0 217 -161 217q-81 0 -129.5 -64t-48.5 -174v-569h-316z" />
<glyph unicode="n" horiz-adv-x="1239" d="M133 0v1024h316v-162h4q113 187 329 187q340 0 340 -422v-627h-315v569q0 238 -170 238q-82 0 -135 -63t-53 -160v-584h-316z" />
<glyph unicode="o" horiz-adv-x="1252" d="M72 508q0 254 152 397.5t411 143.5q255 0 400 -143.5t145 -379.5q0 -255 -149.5 -403t-409.5 -148q-256 0 -402.5 143.5t-146.5 389.5zM393 512q0 -295 238 -295q227 0 227 303q0 287 -229 287q-112 0 -174 -77t-62 -218z" />
<glyph unicode="p" horiz-adv-x="1270" d="M133 -471v1495h316v-154h4q117 179 329 179q199 0 307.5 -136.5t108.5 -371.5q0 -256 -126.5 -411t-336.5 -155q-185 0 -282 144h-4v-590h-316zM444 457q0 -106 56 -173t147 -67q108 0 167.5 83.5t59.5 236.5q0 270 -210 270q-97 0 -158.5 -73.5t-61.5 -194.5v-82z" />
<glyph unicode="q" horiz-adv-x="1268" d="M72 487q0 256 129 409t336 153q188 0 278 -144h4v119h316v-1495h-316v612h-4q-107 -166 -315 -166q-193 0 -310.5 134.5t-117.5 377.5zM393 496q0 -131 58.5 -205t152.5 -74q100 0 160.5 75t60.5 197v82q0 100 -58 168t-149 68q-105 0 -165 -82.5t-60 -228.5z" />
<glyph unicode="r" horiz-adv-x="815" d="M133 0v1024h316v-190h4q75 208 270 208q50 0 78 -12v-291q-57 31 -133 31q-103 0 -161 -75.5t-58 -205.5v-489h-316z" />
<glyph unicode="s" horiz-adv-x="901" d="M66 27v256q78 -47 155.5 -70t146.5 -23q84 0 132.5 23t48.5 70q0 30 -22 50t-56.5 35t-75.5 27t-79 27q-61 23 -107.5 49.5t-78 61.5t-48 81t-16.5 109q0 86 37.5 148t100 101.5t143 58t167.5 18.5q68 0 138 -10.5t138 -30.5v-244q-60 35 -128.5 52.5t-134.5 17.5 q-31 0 -58.5 -5.5t-48.5 -16t-33 -27t-12 -37.5q0 -28 18 -48t47 -34.5t64.5 -26t70.5 -23.5q63 -22 114 -48t87.5 -61t56 -82t19.5 -112q0 -91 -39.5 -155.5t-105 -105t-151 -59t-177.5 -18.5q-169 0 -313 52z" />
<glyph unicode="t" horiz-adv-x="797" d="M41 791v233h166v221l315 90v-311h230v-233h-230v-414q0 -160 127 -160q50 0 103 29v-234q-70 -37 -211 -37q-334 0 -334 347v469h-166z" />
<glyph unicode="u" horiz-adv-x="1239" d="M117 406v618h315v-590q0 -217 172 -217q85 0 136 59.5t51 161.5v586h315v-1024h-315v156h-5q-117 -181 -313 -181q-356 0 -356 431z" />
<glyph unicode="v" horiz-adv-x="1110" d="M4 1024h338l178 -631q30 -107 35 -182h4q7 71 37 176l182 637h330l-381 -1024h-360z" />
<glyph unicode="w" horiz-adv-x="1633" d="M16 1024h322l141 -668q10 -47 15 -114h6q5 70 18 118l176 664h301l158 -668q6 -25 14 -116h7q5 58 16 116l133 668h293l-295 -1024h-332l-151 600q-15 60 -17 131h-6q-7 -78 -20 -127l-162 -604h-328z" />
<glyph unicode="x" horiz-adv-x="1131" d="M8 0l346 510l-325 514h366l146 -287q29 -57 41 -96h4q16 47 43 98l149 285h344l-338 -496l336 -528h-364l-148 276q-18 33 -43 93h-4q-15 -42 -41 -90l-149 -279h-363z" />
<glyph unicode="y" d="M-4 1024h350l191 -623q18 -58 28 -137h4q9 58 33 135l193 625h313l-416 -1106q-150 -399 -452 -399q-115 0 -189 26v252q63 -37 137 -37q122 0 170 115l54 127z" />
<glyph unicode="z" horiz-adv-x="981" d="M25 0v131l514 660h-463v233h864v-156l-487 -635h491v-233h-919z" />
<glyph unicode="{" horiz-adv-x="756" d="M106 463v184q152 0 152 191v223q0 206 98 289.5t318 83.5v-187q-160 0 -160 -174v-213q0 -240 -154 -303v-4q154 -62 154 -307v-205q0 -98 37.5 -139t122.5 -41v-187q-218 0 -317 80t-99 285v240q0 184 -152 184z" />
<glyph unicode="|" horiz-adv-x="668" d="M209 -481v2048h252v-2048h-252z" />
<glyph unicode="}" horiz-adv-x="756" d="M84 -139q84 0 122 40.5t38 137.5v213q0 239 153 299v4q-153 63 -153 313v205q0 174 -160 174v187q218 0 316 -83.5t98 -285.5v-229q0 -189 153 -189v-184q-153 0 -153 -187v-231q0 -211 -97.5 -291t-316.5 -80v187z" />
<glyph unicode="~" horiz-adv-x="1448" d="M195 399q6 169 89.5 267t227.5 98q112 0 238 -76q130 -78 180 -78q52 0 85.5 44.5t35.5 117.5h204q-6 -168 -89.5 -266t-223.5 -98q-106 0 -258 88q-109 63 -156 63q-123 0 -129 -160h-204z" />
<glyph unicode="&#xa2;" horiz-adv-x="1178" d="M170 657q0 234 134 381.5t358 171.5v211h161v-207q110 -6 181 -45v-272q-76 58 -181 70v-574q108 17 181 68v-254q-73 -42 -181 -55v-189h-161v184q-216 12 -354 151.5t-138 358.5zM467 678q0 -222 195 -279v559q-195 -59 -195 -280z" />
<glyph unicode="&#xa3;" horiz-adv-x="1178" d="M143 0v227q193 52 193 269v116h-172v217h172v187q0 198 122 320t330 122q127 0 234 -49v-258q-98 66 -209 66q-184 0 -184 -230v-158h268v-217h-268v-86q0 -184 -152 -284h637v-242h-971z" />
<glyph unicode="&#xa5;" horiz-adv-x="1178" d="M41 1434h321l246 -570h4q4 11 37 90l203 480h305l-354 -641h252v-189h-305v-153h305v-189h-305v-262h-308v262h-315v189h315v153h-315v189h256z" />
<glyph unicode="&#xa8;" horiz-adv-x="946" d="M86 1323q0 60 44 98.5t110 38.5q68 0 110.5 -38.5t42.5 -98.5q0 -61 -42.5 -99t-110.5 -38t-111 39.5t-43 97.5zM545 1323q0 61 43 99t110 38t110.5 -38.5t43.5 -98.5t-43 -98.5t-111 -38.5q-67 0 -110 39t-43 98z" />
<glyph unicode="&#xa9;" horiz-adv-x="1790" d="M131 713q0 317 220.5 531t549.5 214q328 0 544 -208.5t216 -532.5q0 -317 -221.5 -529.5t-546.5 -212.5q-333 0 -547.5 207t-214.5 531zM264 717q0 -272 181.5 -450.5t451.5 -178.5q265 0 448 179.5t183 447.5q0 272 -180 451.5t-451 179.5q-275 0 -454 -180t-179 -449z M446 696q0 231 143.5 370.5t373.5 139.5q125 0 239 -55v-236q-98 76 -244 76q-115 0 -192.5 -76.5t-77.5 -205.5q0 -122 78.5 -197.5t198.5 -75.5q141 0 239 76v-217q-125 -68 -274 -68q-209 0 -346.5 134t-137.5 335z" />
<glyph unicode="&#xab;" horiz-adv-x="1190" d="M53 537l330 344h266l-334 -344l336 -336h-268zM541 537l327 344h269l-334 -344l334 -336h-269z" />
<glyph unicode="&#xad;" horiz-adv-x="828" d="M143 436v221h547v-221h-547z" />
<glyph unicode="&#xae;" horiz-adv-x="1790" d="M283 858q0 254 176.5 425t439.5 171q262 0 435 -166.5t167 -429.5q0 -254 -174.5 -428.5t-434.5 -174.5q-266 0 -437.5 172t-171.5 431zM400 855q0 -212 141.5 -351t351.5 -139q207 0 349 140t142 349q0 212 -140 351t-351 139q-214 0 -353.5 -139.5t-139.5 -349.5z M628 499v738h256q296 0 296 -210q0 -151 -173 -195v-3q72 -16 113 -117l88 -213h-208l-61 186q-32 97 -88 97h-48v-283h-175zM803 915h78q111 0 111 92q0 86 -128 86h-61v-178z" />
<glyph unicode="&#xb4;" horiz-adv-x="621" d="M55 1186l260 323h281l-313 -323h-228z" />
<glyph unicode="&#xb8;" horiz-adv-x="441" d="M51 -313q35 -6 72 -6q123 0 123 73q0 66 -111 66q-13 0 -37 -2v182h172v-82q187 -8 187 -166q0 -207 -318 -207q-46 0 -88 4v138z" />
<glyph unicode="&#xbb;" horiz-adv-x="1190" d="M53 201l336 336l-334 344h267l329 -344l-329 -336h-269zM541 201l333 336l-331 344h266l328 -344l-328 -336h-268z" />
<glyph unicode="&#xc2;" horiz-adv-x="1440" d="M10 0l522 1434h383l510 -1434h-352l-102 319h-510l-101 -319h-350zM359 1567l235 325h248l236 -325h-207l-158 188l-147 -188h-207zM530 567h367l-154 482q-17 54 -24 129h-8q-5 -63 -25 -125z" />
<glyph unicode="&#xc7;" horiz-adv-x="1278" d="M74 686q0 344 212.5 558t551.5 214q210 0 354 -53v-311q-144 86 -328 86q-202 0 -326 -127t-124 -344q0 -208 117 -331.5t315 -123.5q189 0 346 92v-295q-157 -76 -410 -76q-330 0 -519 194t-189 517zM610 -313q35 -6 72 -6q123 0 123 73q0 66 -111 66q-13 0 -37 -2v182 h172v-82q187 -8 187 -166q0 -207 -318 -207q-46 0 -88 4v138z" />
<glyph unicode="&#xce;" horiz-adv-x="649" d="M-28 1567l235 325h248l236 -325h-207l-158 188l-147 -188h-207zM164 0v1434h323v-1434h-323z" />
<glyph unicode="&#xd6;" horiz-adv-x="1552" d="M74 698q0 340 197 550t522 210q307 0 496.5 -201t189.5 -530q0 -338 -196.5 -545t-512.5 -207q-308 0 -502 200.5t-194 522.5zM392 1704q0 60 44 98.5t110 38.5q68 0 110.5 -38.5t42.5 -98.5q0 -61 -42.5 -99t-110.5 -38t-111 39.5t-43 97.5zM414 715q0 -213 100 -337 t262 -124q167 0 265 120.5t98 334.5q0 223 -95 347t-260 124q-170 0 -270 -127.5t-100 -337.5zM851 1704q0 61 43 99t110 38t110.5 -38.5t43.5 -98.5t-43 -98.5t-111 -38.5q-67 0 -110 39t-43 98z" />
<glyph unicode="&#xdb;" horiz-adv-x="1481" d="M147 606v828h324v-832q0 -348 272 -348q267 0 267 336v844h323v-813q0 -646 -602 -646q-584 0 -584 631zM380 1567l235 325h248l236 -325h-207l-158 188l-147 -188h-207z" />
<glyph unicode="&#xdc;" horiz-adv-x="1481" d="M147 606v828h324v-832q0 -348 272 -348q267 0 267 336v844h323v-813q0 -646 -602 -646q-584 0 -584 631zM357 1704q0 60 44 98.5t110 38.5q68 0 110.5 -38.5t42.5 -98.5q0 -61 -42.5 -99t-110.5 -38t-111 39.5t-43 97.5zM816 1704q0 61 43 99t110 38t110.5 -38.5 t43.5 -98.5t-43 -98.5t-111 -38.5q-67 0 -110 39t-43 98z" />
<glyph unicode="&#xe2;" d="M57 285q0 298 353 344l278 37q0 168 -182 168q-183 0 -348 -109v238q66 34 180.5 60t208.5 26q438 0 438 -437v-612h-299v147h-4q-103 -172 -305 -172q-149 0 -234.5 84.5t-85.5 225.5zM195 1186l235 325h248l236 -325h-207l-158 188l-147 -188h-207zM348 322 q0 -54 37.5 -88.5t101.5 -34.5q89 0 145 61.5t56 155.5v69l-186 -24q-154 -20 -154 -139z" />
<glyph unicode="&#xe7;" horiz-adv-x="983" d="M72 487q0 261 156.5 411.5t418.5 150.5q181 0 262 -48v-268q-99 74 -221 74q-136 0 -215.5 -79.5t-79.5 -219.5q0 -136 76 -213.5t209 -77.5q118 0 231 74v-254q-107 -62 -309 -62q-236 0 -382 143t-146 369zM426 -313q35 -6 72 -6q123 0 123 73q0 66 -111 66 q-13 0 -37 -2v182h172v-82q187 -8 187 -166q0 -207 -318 -207q-46 0 -88 4v138z" />
<glyph unicode="&#xee;" horiz-adv-x="582" d="M-62 1186l235 325h248l236 -325h-207l-158 188l-147 -188h-207zM133 0v1024h316v-1024h-316z" />
<glyph unicode="&#xf6;" horiz-adv-x="1251" d="M72 508q0 254 152 397.5t411 143.5q255 0 400 -143.5t145 -379.5q0 -255 -149.5 -403t-409.5 -148q-256 0 -402.5 143.5t-146.5 389.5zM247 1323q0 60 44 98.5t110 38.5q68 0 110.5 -38.5t42.5 -98.5q0 -61 -42.5 -99t-110.5 -38t-111 39.5t-43 97.5zM393 512 q0 -295 238 -295q227 0 227 303q0 287 -229 287q-112 0 -174 -77t-62 -218zM706 1323q0 61 43 99t110 38t110.5 -38.5t43.5 -98.5t-43 -98.5t-111 -38.5q-67 0 -110 39t-43 98z" />
<glyph unicode="&#xfb;" horiz-adv-x="1239" d="M117 406v618h315v-590q0 -217 172 -217q85 0 136 59.5t51 161.5v586h315v-1024h-315v156h-5q-117 -181 -313 -181q-356 0 -356 431zM251 1186l235 325h248l236 -325h-207l-158 188l-147 -188h-207z" />
<glyph unicode="&#xfc;" horiz-adv-x="1239" d="M117 406v618h315v-590q0 -217 172 -217q85 0 136 59.5t51 161.5v586h315v-1024h-315v156h-5q-117 -181 -313 -181q-356 0 -356 431zM232 1323q0 60 44 98.5t110 38.5q68 0 110.5 -38.5t42.5 -98.5q0 -61 -42.5 -99t-110.5 -38t-111 39.5t-43 97.5zM691 1323q0 61 43 99 t110 38t110.5 -38.5t43.5 -98.5t-43 -98.5t-111 -38.5q-67 0 -110 39t-43 98z" />
<glyph unicode="&#x100;" horiz-adv-x="1440" d="M10 0l522 1434h383l510 -1434h-352l-102 319h-510l-101 -319h-350zM427 1567v172h586v-172h-586zM530 567h367l-154 482q-17 54 -24 129h-8q-5 -63 -25 -125z" />
<glyph unicode="&#x101;" d="M57 285q0 298 353 344l278 37q0 168 -182 168q-183 0 -348 -109v238q66 34 180.5 60t208.5 26q438 0 438 -437v-612h-299v147h-4q-103 -172 -305 -172q-149 0 -234.5 84.5t-85.5 225.5zM278 1186v172h586v-172h-586zM348 322q0 -54 37.5 -88.5t101.5 -34.5q89 0 145 61.5 t56 155.5v69l-186 -24q-154 -20 -154 -139z" />
<glyph unicode="&#x102;" horiz-adv-x="1440" d="M10 0l522 1434h383l510 -1434h-352l-102 319h-510l-101 -319h-350zM383 1874h179q17 -135 159 -135q137 0 156 135h180q-12 -141 -102.5 -224t-237.5 -83q-146 0 -238 85.5t-96 221.5zM530 567h367l-154 482q-17 54 -24 129h-8q-5 -63 -25 -125z" />
<glyph unicode="&#x103;" d="M57 285q0 298 353 344l278 37q0 168 -182 168q-183 0 -348 -109v238q66 34 180.5 60t208.5 26q438 0 438 -437v-612h-299v147h-4q-103 -172 -305 -172q-149 0 -234.5 84.5t-85.5 225.5zM234 1493h179q17 -135 159 -135q137 0 156 135h180q-12 -141 -102.5 -224 t-237.5 -83q-146 0 -238 85.5t-96 221.5zM348 322q0 -54 37.5 -88.5t101.5 -34.5q89 0 145 61.5t56 155.5v69l-186 -24q-154 -20 -154 -139z" />
<glyph unicode="&#x104;" horiz-adv-x="1440" d="M10 0l522 1434h383l510 -1434h-352l-102 319h-510l-101 -319h-350zM530 567h367l-154 482q-17 54 -24 129h-8q-5 -63 -25 -125zM908 -245q0 31 11 64.5t32 66t52 61.5t71 53h155q-78 -57 -115.5 -111.5t-37.5 -96.5q0 -33 17 -49.5t46 -16.5q19 0 40 3t41 9l1 -138 q-24 -8 -57.5 -13.5t-68.5 -5.5q-85 0 -136 44.5t-51 129.5z" />
<glyph unicode="&#x105;" d="M57 285q0 298 353 344l278 37q0 168 -182 168q-183 0 -348 -109v238q66 34 180.5 60t208.5 26q438 0 438 -437v-612h-299v147h-4q-103 -172 -305 -172q-149 0 -234.5 84.5t-85.5 225.5zM348 322q0 -54 37.5 -88.5t101.5 -34.5q89 0 145 61.5t56 155.5v69l-186 -24 q-154 -20 -154 -139zM521 -245q0 31 11 64.5t32 66t52 61.5t71 53h155q-78 -57 -115.5 -111.5t-37.5 -96.5q0 -33 17 -49.5t46 -16.5q19 0 40 3t41 9l1 -138q-24 -8 -57.5 -13.5t-68.5 -5.5q-85 0 -136 44.5t-51 129.5z" />
<glyph unicode="&#x106;" horiz-adv-x="1278" d="M74 686q0 344 212.5 558t551.5 214q210 0 354 -53v-311q-144 86 -328 86q-202 0 -326 -127t-124 -344q0 -208 117 -331.5t315 -123.5q189 0 346 92v-295q-157 -76 -410 -76q-330 0 -519 194t-189 517zM618 1567l260 323h281l-313 -323h-228z" />
<glyph unicode="&#x107;" horiz-adv-x="983" d="M72 487q0 261 156.5 411.5t418.5 150.5q181 0 262 -48v-268q-99 74 -221 74q-136 0 -215.5 -79.5t-79.5 -219.5q0 -136 76 -213.5t209 -77.5q118 0 231 74v-254q-107 -62 -309 -62q-236 0 -382 143t-146 369zM385 1186l260 323h281l-313 -323h-228z" />
<glyph unicode="&#x108;" horiz-adv-x="1278" d="M74 686q0 344 212.5 558t551.5 214q210 0 354 -53v-311q-144 86 -328 86q-202 0 -326 -127t-124 -344q0 -208 117 -331.5t315 -123.5q189 0 346 92v-295q-157 -76 -410 -76q-330 0 -519 194t-189 517zM440 1567l235 325h248l236 -325h-207l-158 188l-147 -188h-207z" />
<glyph unicode="&#x109;" horiz-adv-x="983" d="M72 487q0 261 156.5 411.5t418.5 150.5q181 0 262 -48v-268q-99 74 -221 74q-136 0 -215.5 -79.5t-79.5 -219.5q0 -136 76 -213.5t209 -77.5q118 0 231 74v-254q-107 -62 -309 -62q-236 0 -382 143t-146 369zM234 1186l235 325h248l236 -325h-207l-158 188l-147 -188 h-207z" />
<glyph unicode="&#x10a;" horiz-adv-x="1278" d="M74 686q0 344 212.5 558t551.5 214q210 0 354 -53v-311q-144 86 -328 86q-202 0 -326 -127t-124 -344q0 -208 117 -331.5t315 -123.5q189 0 346 92v-295q-157 -76 -410 -76q-330 0 -519 194t-189 517zM665 1704q0 60 44 97.5t110 37.5q67 0 109.5 -38t42.5 -97t-42.5 -98 t-109.5 -39t-110.5 40t-43.5 97z" />
<glyph unicode="&#x10b;" horiz-adv-x="983" d="M72 487q0 261 156.5 411.5t418.5 150.5q181 0 262 -48v-268q-99 74 -221 74q-136 0 -215.5 -79.5t-79.5 -219.5q0 -136 76 -213.5t209 -77.5q118 0 231 74v-254q-107 -62 -309 -62q-236 0 -382 143t-146 369zM456 1323q0 60 44 97.5t110 37.5q67 0 109.5 -38t42.5 -97 t-42.5 -98t-109.5 -39t-110.5 40t-43.5 97z" />
<glyph unicode="&#x10c;" horiz-adv-x="1278" d="M74 686q0 344 212.5 558t551.5 214q210 0 354 -53v-311q-144 86 -328 86q-202 0 -326 -127t-124 -344q0 -208 117 -331.5t315 -123.5q189 0 346 92v-295q-157 -76 -410 -76q-330 0 -519 194t-189 517zM442 1892h205l155 -188l156 188h205l-238 -325h-248z" />
<glyph unicode="&#x10d;" horiz-adv-x="983" d="M72 487q0 261 156.5 411.5t418.5 150.5q181 0 262 -48v-268q-99 74 -221 74q-136 0 -215.5 -79.5t-79.5 -219.5q0 -136 76 -213.5t209 -77.5q118 0 231 74v-254q-107 -62 -309 -62q-236 0 -382 143t-146 369zM229 1511h205l155 -188l156 188h205l-238 -325h-248z" />
<glyph unicode="&#x10e;" horiz-adv-x="1510" d="M164 0v1434h508q764 0 764 -699q0 -335 -208.5 -535t-555.5 -200h-508zM356 1892h205l155 -188l156 188h205l-238 -325h-248zM487 262h160q210 0 329.5 126t119.5 343q0 205 -118.5 322.5t-332.5 117.5h-158v-909z" />
<glyph unicode="&#x10f;" horiz-adv-x="1517" d="M72 489q0 254 129 407t338 153q198 0 276 -142h4v609h316v-1516h-316v141h-4q-108 -166 -317 -166q-192 0 -309 135.5t-117 378.5zM393 498q0 -135 57 -208t158 -73q96 0 156.5 77t60.5 204v77q0 100 -58 166t-151 66q-105 0 -164 -82.5t-59 -226.5zM1218 1164l90 352 h272l-168 -352h-194z" />
<glyph unicode="&#x110;" horiz-adv-x="1510" d="M0 586v266h164v582h508q764 0 764 -699q0 -335 -208.5 -535t-555.5 -200h-508v586h-164zM487 262h160q210 0 329.5 126t119.5 343q0 205 -118.5 322.5t-332.5 117.5h-158v-319h271v-266h-271v-324z" />
<glyph unicode="&#x111;" horiz-adv-x="1295" d="M72 489q0 254 129 407t338 153q198 0 276 -142h4v264h-330v205h330v140h316v-140h143v-205h-143v-1171h-316v141h-4q-108 -166 -317 -166q-192 0 -309 135.5t-117 378.5zM393 498q0 -135 57 -208t158 -73q96 0 156.5 77t60.5 204v77q0 100 -58 166t-151 66 q-105 0 -164 -82.5t-59 -226.5z" />
<glyph unicode="&#x112;" horiz-adv-x="1090" d="M164 0v1434h827v-263h-504v-319h469v-262h-469v-328h537v-262h-860zM278 1567v172h586v-172h-586z" />
<glyph unicode="&#x113;" horiz-adv-x="1108" d="M72 496q0 255 148 404t364 149q224 0 346.5 -133t122.5 -361v-133h-668q16 -223 281 -223q169 0 297 80v-228q-142 -76 -369 -76q-248 0 -385 137.5t-137 383.5zM281 1186v172h586v-172h-586zM383 616h377q0 220 -178 220q-76 0 -131.5 -63t-67.5 -157z" />
<glyph unicode="&#x114;" horiz-adv-x="1090" d="M164 0v1434h827v-263h-504v-319h469v-262h-469v-328h537v-262h-860zM252 1874h179q17 -135 159 -135q137 0 156 135h180q-12 -141 -102.5 -224t-237.5 -83q-146 0 -238 85.5t-96 221.5z" />
<glyph unicode="&#x115;" horiz-adv-x="1108" d="M72 496q0 255 148 404t364 149q224 0 346.5 -133t122.5 -361v-133h-668q16 -223 281 -223q169 0 297 80v-228q-142 -76 -369 -76q-248 0 -385 137.5t-137 383.5zM237 1493h179q17 -135 159 -135q137 0 156 135h180q-12 -141 -102.5 -224t-237.5 -83q-146 0 -238 85.5 t-96 221.5zM383 616h377q0 220 -178 220q-76 0 -131.5 -63t-67.5 -157z" />
<glyph unicode="&#x116;" horiz-adv-x="1090" d="M164 0v1434h827v-263h-504v-319h469v-262h-469v-328h537v-262h-860zM435 1704q0 60 44 97.5t110 37.5q67 0 109.5 -38t42.5 -97t-42.5 -98t-109.5 -39t-110.5 40t-43.5 97z" />
<glyph unicode="&#x117;" horiz-adv-x="1108" d="M72 496q0 255 148 404t364 149q224 0 346.5 -133t122.5 -361v-133h-668q16 -223 281 -223q169 0 297 80v-228q-142 -76 -369 -76q-248 0 -385 137.5t-137 383.5zM383 616h377q0 220 -178 220q-76 0 -131.5 -63t-67.5 -157zM442 1323q0 60 44 97.5t110 37.5 q67 0 109.5 -38t42.5 -97t-42.5 -98t-109.5 -39t-110.5 40t-43.5 97z" />
<glyph unicode="&#x118;" horiz-adv-x="1090" d="M164 0v1434h827v-263h-504v-319h469v-262h-469v-328h537v-262h-860zM607 -245q0 31 11 64.5t32 66t52 61.5t71 53h155q-78 -57 -115.5 -111.5t-37.5 -96.5q0 -33 17 -49.5t46 -16.5q19 0 40 3t41 9l1 -138q-24 -8 -57.5 -13.5t-68.5 -5.5q-85 0 -136 44.5t-51 129.5z" />
<glyph unicode="&#x119;" horiz-adv-x="1108" d="M72 496q0 255 148 404t364 149q224 0 346.5 -133t122.5 -361v-133h-668q16 -223 281 -223q169 0 297 80v-228q-142 -76 -369 -76q-248 0 -385 137.5t-137 383.5zM383 616h377q0 220 -178 220q-76 0 -131.5 -63t-67.5 -157zM495 -245q0 31 11 64.5t32 66t52 61.5t71 53 h155q-78 -57 -115.5 -111.5t-37.5 -96.5q0 -33 17 -49.5t46 -16.5q19 0 40 3t41 9l1 -138q-24 -8 -57.5 -13.5t-68.5 -5.5q-85 0 -136 44.5t-51 129.5z" />
<glyph unicode="&#x11a;" horiz-adv-x="1090" d="M164 0v1434h827v-263h-504v-319h469v-262h-469v-328h537v-262h-860zM233 1892h205l155 -188l156 188h205l-238 -325h-248z" />
<glyph unicode="&#x11b;" horiz-adv-x="1108" d="M72 496q0 255 148 404t364 149q224 0 346.5 -133t122.5 -361v-133h-668q16 -223 281 -223q169 0 297 80v-228q-142 -76 -369 -76q-248 0 -385 137.5t-137 383.5zM214 1511h205l155 -188l156 188h205l-238 -325h-248zM383 616h377q0 220 -178 220q-76 0 -131.5 -63 t-67.5 -157z" />
<glyph unicode="&#x11c;" horiz-adv-x="1456" d="M74 694q0 338 218 551t580 213q228 0 402 -63v-303q-166 96 -406 96q-201 0 -327.5 -130.5t-126.5 -348.5q0 -221 113.5 -342t306.5 -121q116 0 184 33v280h-287v258h610v-721q-210 -121 -522 -121q-346 0 -545.5 191.5t-199.5 527.5zM477 1567l235 325h248l236 -325 h-207l-158 188l-147 -188h-207z" />
<glyph unicode="&#x11d;" horiz-adv-x="1268" d="M72 483q0 260 128 413t337 153q187 0 280 -144h4v119h316v-907q0 -285 -165 -441.5t-478 -156.5q-207 0 -328 59v266q158 -92 319 -92q160 0 248 84.5t88 229.5v81h-4q-108 -172 -319 -172q-196 0 -311 138t-115 370zM274 1186l235 325h248l236 -325h-207l-158 188 l-147 -188h-207zM393 494q0 -128 57 -202.5t156 -74.5q98 0 158.5 75.5t60.5 199.5v81q0 97 -57.5 165.5t-149.5 68.5q-105 0 -165 -82t-60 -231z" />
<glyph unicode="&#x11e;" horiz-adv-x="1456" d="M74 694q0 338 218 551t580 213q228 0 402 -63v-303q-166 96 -406 96q-201 0 -327.5 -130.5t-126.5 -348.5q0 -221 113.5 -342t306.5 -121q116 0 184 33v280h-287v258h610v-721q-210 -121 -522 -121q-346 0 -545.5 191.5t-199.5 527.5zM469 1874h179q17 -135 159 -135 q137 0 156 135h180q-12 -141 -102.5 -224t-237.5 -83q-146 0 -238 85.5t-96 221.5z" />
<glyph unicode="&#x11f;" horiz-adv-x="1268" d="M72 483q0 260 128 413t337 153q187 0 280 -144h4v119h316v-907q0 -285 -165 -441.5t-478 -156.5q-207 0 -328 59v266q158 -92 319 -92q160 0 248 84.5t88 229.5v81h-4q-108 -172 -319 -172q-196 0 -311 138t-115 370zM297 1493h179q17 -135 159 -135q137 0 156 135h180 q-12 -141 -102.5 -224t-237.5 -83q-146 0 -238 85.5t-96 221.5zM393 494q0 -128 57 -202.5t156 -74.5q98 0 158.5 75.5t60.5 199.5v81q0 97 -57.5 165.5t-149.5 68.5q-105 0 -165 -82t-60 -231z" />
<glyph unicode="&#x120;" horiz-adv-x="1456" d="M74 694q0 338 218 551t580 213q228 0 402 -63v-303q-166 96 -406 96q-201 0 -327.5 -130.5t-126.5 -348.5q0 -221 113.5 -342t306.5 -121q116 0 184 33v280h-287v258h610v-721q-210 -121 -522 -121q-346 0 -545.5 191.5t-199.5 527.5zM665 1704q0 60 44 97.5t110 37.5 q67 0 109.5 -38t42.5 -97t-42.5 -98t-109.5 -39t-110.5 40t-43.5 97z" />
<glyph unicode="&#x121;" horiz-adv-x="1268" d="M72 483q0 260 128 413t337 153q187 0 280 -144h4v119h316v-907q0 -285 -165 -441.5t-478 -156.5q-207 0 -328 59v266q158 -92 319 -92q160 0 248 84.5t88 229.5v81h-4q-108 -172 -319 -172q-196 0 -311 138t-115 370zM393 494q0 -128 57 -202.5t156 -74.5 q98 0 158.5 75.5t60.5 199.5v81q0 97 -57.5 165.5t-149.5 68.5q-105 0 -165 -82t-60 -231zM480 1323q0 60 44 97.5t110 37.5q67 0 109.5 -38t42.5 -97t-42.5 -98t-109.5 -39t-110.5 40t-43.5 97z" />
<glyph unicode="&#x122;" horiz-adv-x="1456" d="M74 694q0 338 218 551t580 213q228 0 402 -63v-303q-166 96 -406 96q-201 0 -327.5 -130.5t-126.5 -348.5q0 -221 113.5 -342t306.5 -121q116 0 184 33v280h-287v258h610v-721q-210 -121 -522 -121q-346 0 -545.5 191.5t-199.5 527.5zM610 -469l90 352h272l-168 -352 h-194z" />
<glyph unicode="&#x123;" horiz-adv-x="1268" d="M72 483q0 260 128 413t337 153q187 0 280 -144h4v119h316v-907q0 -285 -165 -441.5t-478 -156.5q-207 0 -328 59v266q158 -92 319 -92q160 0 248 84.5t88 229.5v81h-4q-108 -172 -319 -172q-196 0 -311 138t-115 370zM393 494q0 -128 57 -202.5t156 -74.5 q98 0 158.5 75.5t60.5 199.5v81q0 97 -57.5 165.5t-149.5 68.5q-105 0 -165 -82t-60 -231zM459 1186l168 352h194l-90 -352h-272z" />
<glyph unicode="&#x124;" horiz-adv-x="1569" d="M164 0v1434h323v-572h594v572h324v-1434h-324v584h-594v-584h-323zM425 1567l235 325h248l236 -325h-207l-158 188l-147 -188h-207z" />
<glyph unicode="&#x125;" horiz-adv-x="1233" d="M133 0v1516h316v-644h4q116 177 315 177q348 0 348 -420v-629h-315v582q0 225 -164 225q-84 0 -136 -63t-52 -160v-584h-316zM293 1567l235 325h248l236 -325h-207l-158 188l-147 -188h-207z" />
<glyph unicode="&#x126;" horiz-adv-x="1569" d="M0 1018v205h164v211h323v-211h594v211h324v-211h164v-205h-164v-1018h-324v584h-594v-584h-323v1018h-164zM487 862h594v156h-594v-156z" />
<glyph unicode="&#x127;" horiz-adv-x="1262" d="M27 1179v159h143v178h315v-178h330v-159h-330v-329h4q116 176 316 176q344 0 344 -420v-606h-311v553q0 225 -164 225q-88 0 -138.5 -61t-50.5 -158v-559h-315v1179h-143z" />
<glyph unicode="&#x128;" horiz-adv-x="649" d="M-35 1549q0 139 55 216t154 77q81 0 168 -49q79 -44 120 -44q78 0 78 111h144q0 -140 -55.5 -216.5t-151.5 -76.5q-86 0 -168 43q-89 47 -123 47q-80 0 -80 -108h-141zM164 0v1434h323v-1434h-323z" />
<glyph unicode="&#x129;" horiz-adv-x="582" d="M-69 1186q0 139 55 216t154 77q81 0 168 -49q79 -44 120 -44q78 0 78 111h144q0 -140 -55.5 -216.5t-151.5 -76.5q-86 0 -168 43q-89 47 -123 47q-80 0 -80 -108h-141zM133 0v1024h316v-1024h-316z" />
<glyph unicode="&#x12a;" horiz-adv-x="649" d="M31 1567v172h586v-172h-586zM164 0v1434h323v-1434h-323z" />
<glyph unicode="&#x12b;" horiz-adv-x="582" d="M-2 1186v172h586v-172h-586zM133 0v1024h316v-1024h-316z" />
<glyph unicode="&#x12c;" horiz-adv-x="649" d="M-12 1874h179q17 -135 159 -135q137 0 156 135h180q-12 -141 -102.5 -224t-237.5 -83q-146 0 -238 85.5t-96 221.5zM164 0v1434h323v-1434h-323z" />
<glyph unicode="&#x12d;" horiz-adv-x="582" d="M-46 1493h179q17 -135 159 -135q137 0 156 135h180q-12 -141 -102.5 -224t-237.5 -83q-146 0 -238 85.5t-96 221.5zM133 0v1024h316v-1024h-316z" />
<glyph unicode="&#x12e;" horiz-adv-x="649" d="M164 0v1434h323v-1434h-323zM165 -245q0 31 11 64.5t32 66t52 61.5t71 53h155q-78 -57 -115.5 -111.5t-37.5 -96.5q0 -33 17 -49.5t46 -16.5q19 0 40 3t41 9l1 -138q-24 -8 -57.5 -13.5t-68.5 -5.5q-85 0 -136 44.5t-51 129.5z" />
<glyph unicode="&#x12f;" horiz-adv-x="582" d="M111 1350q0 71 51 116t131 45q81 0 131.5 -45t50.5 -116q0 -72 -50.5 -118t-131.5 -46q-80 0 -131 47.5t-51 116.5zM128 -245q0 31 11 64.5t32 66t52 61.5t71 53h155q-78 -57 -115.5 -111.5t-37.5 -96.5q0 -33 17 -49.5t46 -16.5q19 0 40 3t41 9l1 -138 q-24 -8 -57.5 -13.5t-68.5 -5.5q-85 0 -136 44.5t-51 129.5zM133 0v1024h316v-1024h-316z" />
<glyph unicode="&#x130;" horiz-adv-x="649" d="M164 0v1434h323v-1434h-323zM171 1704q0 60 44 97.5t110 37.5q67 0 109.5 -38t42.5 -97t-42.5 -98t-109.5 -39t-110.5 40t-43.5 97z" />
<glyph unicode="&#x131;" horiz-adv-x="582" d="M133 0v1024h316v-1024h-316z" />
<glyph unicode="&#x132;" horiz-adv-x="1561" d="M164 0v1434h323v-1434h-323zM683 14v303q83 -63 186 -63q221 0 221 328v852h322v-865q0 -288 -133.5 -441t-386.5 -153q-113 0 -209 39z" />
<glyph unicode="&#x133;" horiz-adv-x="1238" d="M111 1350q0 71 51 116t131 45q81 0 131.5 -45t50.5 -116q0 -72 -50.5 -118t-131.5 -46q-80 0 -131 47.5t-51 116.5zM133 0v1024h316v-1024h-316zM523 -203q66 -37 117 -37q149 0 149 234v1030h316v-1006q0 -227 -111 -363t-320 -136q-69 0 -151 30v248zM767 1350 q0 71 51 116t131 45q81 0 131.5 -45t50.5 -116q0 -72 -50.5 -118t-131.5 -46q-80 0 -131 47.5t-51 116.5z" />
<glyph unicode="&#x134;" horiz-adv-x="912" d="M33 14v303q83 -63 186 -63q221 0 221 328v852h322v-865q0 -288 -133.5 -441t-386.5 -153q-113 0 -209 39zM240 1567l235 325h248l236 -325h-207l-158 188l-147 -188h-207z" />
<glyph unicode="&#x135;" horiz-adv-x="582" d="M-133 -203q66 -37 117 -37q149 0 149 234v1030h316v-1006q0 -227 -111 -363t-320 -136q-69 0 -151 30v248zM-70 1186l235 325h248l236 -325h-207l-158 188l-147 -188h-207z" />
<glyph unicode="&#x136;" horiz-adv-x="1329" d="M164 0v1434h323v-678h5q12 28 40 80l396 598h385l-500 -684l543 -750h-408l-418 623q-12 18 -38 79h-5v-702h-323zM524 -469l90 352h272l-168 -352h-194z" />
<glyph unicode="&#x137;" horiz-adv-x="1145" d="M133 0v1516h316v-965h4l305 473h375l-367 -481l393 -543h-379l-327 508h-4v-508h-316zM403 -469l90 352h272l-168 -352h-194z" />
<glyph unicode="&#x138;" horiz-adv-x="1145" d="M133 0v1024h316v-473h4l305 473h375l-367 -481l393 -543h-379l-327 508h-4v-508h-316z" />
<glyph unicode="&#x139;" horiz-adv-x="1047" d="M164 0v1434h323v-1172h531v-262h-854zM362 1567l260 323h281l-313 -323h-228z" />
<glyph unicode="&#x13a;" horiz-adv-x="582" d="M111 1649l260 323h281l-313 -323h-228zM133 0v1516h316v-1516h-316z" />
<glyph unicode="&#x13b;" horiz-adv-x="1047" d="M164 0v1434h323v-1172h531v-262h-854zM434 -313q35 -6 72 -6q123 0 123 73q0 66 -111 66q-13 0 -37 -2v182h172v-82q187 -8 187 -166q0 -207 -318 -207q-46 0 -88 4v138z" />
<glyph unicode="&#x13c;" horiz-adv-x="582" d="M127 -313q35 -6 72 -6q123 0 123 73q0 66 -111 66q-13 0 -37 -2v182h172v-82q187 -8 187 -166q0 -207 -318 -207q-46 0 -88 4v138zM133 0v1516h316v-1516h-316z" />
<glyph unicode="&#x13d;" horiz-adv-x="1047" d="M164 0v1434h323v-1172h531v-262h-854zM692 1084l90 352h272l-168 -352h-194z" />
<glyph unicode="&#x13e;" horiz-adv-x="746" d="M133 0v1516h316v-1516h-316zM555 1164l90 352h272l-168 -352h-194z" />
<glyph unicode="&#x13f;" horiz-adv-x="1047" d="M164 0v1434h323v-1172h531v-262h-854zM673 788q0 60 44 97.5t110 37.5q67 0 109.5 -38t42.5 -97t-42.5 -98t-109.5 -39t-110.5 40t-43.5 97z" />
<glyph unicode="&#x140;" horiz-adv-x="887" d="M133 0v1516h316v-1516h-316zM581 727q0 60 44 97.5t110 37.5q67 0 109.5 -38t42.5 -97t-42.5 -98t-109.5 -39t-110.5 40t-43.5 97z" />
<glyph unicode="&#x141;" horiz-adv-x="1047" d="M2 381v264l162 84v705h323v-549l283 149v-262l-283 -149v-361h531v-262h-854v467z" />
<glyph unicode="&#x142;" horiz-adv-x="643" d="M29 389v258l131 82v787h315v-592l135 86v-256l-135 -86v-668h-315v473z" />
<glyph unicode="&#x143;" horiz-adv-x="1618" d="M164 0v1434h348l569 -873q39 -59 72 -117h4q-8 50 -8 197v793h305v-1434h-326l-591 901q-52 79 -72 119h-4q8 -76 8 -232v-788h-305zM602 1567l260 323h281l-313 -323h-228z" />
<glyph unicode="&#x144;" horiz-adv-x="1239" d="M133 0v1024h316v-162h4q113 187 329 187q340 0 340 -422v-627h-315v569q0 238 -170 238q-82 0 -135 -63t-53 -160v-584h-316zM431 1186l260 323h281l-313 -323h-228z" />
<glyph unicode="&#x145;" horiz-adv-x="1618" d="M164 0v1434h348l569 -873q39 -59 72 -117h4q-8 50 -8 197v793h305v-1434h-326l-591 901q-52 79 -72 119h-4q8 -76 8 -232v-788h-305zM628 -469l90 352h272l-168 -352h-194z" />
<glyph unicode="&#x146;" horiz-adv-x="1239" d="M133 0v1024h316v-162h4q113 187 329 187q340 0 340 -422v-627h-315v569q0 238 -170 238q-82 0 -135 -63t-53 -160v-584h-316zM438 -469l90 352h272l-168 -352h-194z" />
<glyph unicode="&#x147;" horiz-adv-x="1618" d="M164 0v1434h348l569 -873q39 -59 72 -117h4q-8 50 -8 197v793h305v-1434h-326l-591 901q-52 79 -72 119h-4q8 -76 8 -232v-788h-305zM449 1892h205l155 -188l156 188h205l-238 -325h-248z" />
<glyph unicode="&#x148;" horiz-adv-x="1239" d="M133 0v1024h316v-162h4q113 187 329 187q340 0 340 -422v-627h-315v569q0 238 -170 238q-82 0 -135 -63t-53 -160v-584h-316zM280 1511h205l155 -188l156 188h205l-238 -325h-248z" />
<glyph unicode="&#x149;" horiz-adv-x="1403" d="M-61 1024l114 444h273l-193 -444h-194zM297 0v1024h315v-162h4q113 187 330 187q340 0 340 -422v-627h-315v569q0 238 -170 238q-84 0 -136.5 -63.5t-52.5 -159.5v-584h-315z" />
<glyph unicode="&#x14a;" horiz-adv-x="1618" d="M164 0v1434h348l569 -840q57 -84 72 -117h4q-8 50 -8 197v760h305v-1354q0 -500 -397 -500q-119 0 -203 31v248q66 -37 139 -37q152 0 156 181l-612 898q-46 68 -72 119h-4q8 -76 8 -232v-788h-305z" />
<glyph unicode="&#x14b;" horiz-adv-x="1239" d="M133 0v1024h316v-162h4q113 187 329 187q340 0 340 -422v-564q0 -485 -409 -485q-88 0 -172 31v248q66 -37 116 -37q150 0 150 233v516q0 238 -170 238q-82 0 -135 -63t-53 -160v-584h-316z" />
<glyph unicode="&#x14c;" horiz-adv-x="1553" d="M74 698q0 340 197 550t522 210q307 0 496.5 -201t189.5 -530q0 -338 -196.5 -545t-512.5 -207q-308 0 -502 200.5t-194 522.5zM414 715q0 -213 100 -337t262 -124q167 0 265 120.5t98 334.5q0 223 -95 347t-260 124q-170 0 -270 -127.5t-100 -337.5zM483 1567v172h586 v-172h-586z" />
<glyph unicode="&#x14d;" horiz-adv-x="1252" d="M72 508q0 254 152 397.5t411 143.5q255 0 400 -143.5t145 -379.5q0 -255 -149.5 -403t-409.5 -148q-256 0 -402.5 143.5t-146.5 389.5zM333 1186v172h586v-172h-586zM393 512q0 -295 238 -295q227 0 227 303q0 287 -229 287q-112 0 -174 -77t-62 -218z" />
<glyph unicode="&#x14e;" horiz-adv-x="1553" d="M74 698q0 340 197 550t522 210q307 0 496.5 -201t189.5 -530q0 -338 -196.5 -545t-512.5 -207q-308 0 -502 200.5t-194 522.5zM414 715q0 -213 100 -337t262 -124q167 0 265 120.5t98 334.5q0 223 -95 347t-260 124q-170 0 -270 -127.5t-100 -337.5zM439 1874h179 q17 -135 159 -135q137 0 156 135h180q-12 -141 -102.5 -224t-237.5 -83q-146 0 -238 85.5t-96 221.5z" />
<glyph unicode="&#x14f;" horiz-adv-x="1252" d="M72 508q0 254 152 397.5t411 143.5q255 0 400 -143.5t145 -379.5q0 -255 -149.5 -403t-409.5 -148q-256 0 -402.5 143.5t-146.5 389.5zM289 1493h179q17 -135 159 -135q137 0 156 135h180q-12 -141 -102.5 -224t-237.5 -83q-146 0 -238 85.5t-96 221.5zM393 512 q0 -295 238 -295q227 0 227 303q0 287 -229 287q-112 0 -174 -77t-62 -218z" />
<glyph unicode="&#x150;" horiz-adv-x="1553" d="M74 698q0 340 197 550t522 210q307 0 496.5 -201t189.5 -530q0 -338 -196.5 -545t-512.5 -207q-308 0 -502 200.5t-194 522.5zM414 715q0 -213 100 -337t262 -124q167 0 265 120.5t98 334.5q0 223 -95 347t-260 124q-170 0 -270 -127.5t-100 -337.5zM440 1567l211 319 h248l-248 -319h-211zM815 1567l213 319h249l-252 -319h-210z" />
<glyph unicode="&#x151;" horiz-adv-x="1252" d="M72 508q0 254 152 397.5t411 143.5q255 0 400 -143.5t145 -379.5q0 -255 -149.5 -403t-409.5 -148q-256 0 -402.5 143.5t-146.5 389.5zM269 1186l211 319h248l-248 -319h-211zM393 512q0 -295 238 -295q227 0 227 303q0 287 -229 287q-112 0 -174 -77t-62 -218zM644 1186 l213 319h249l-252 -319h-210z" />
<glyph unicode="&#x152;" horiz-adv-x="1925" d="M74 698q0 342 194 551t516 209q63 0 151 -12q89 -12 109 -12h783v-263h-504v-323h469v-264h-469v-322h537v-262h-828q-26 0 -117 -12q-90 -13 -157 -13q-307 0 -495.5 203t-188.5 520zM416 711q0 -208 101 -332.5t261 -124.5q116 0 213 51v823q-86 52 -209 52 q-168 0 -267 -129.5t-99 -339.5z" />
<glyph unicode="&#x153;" horiz-adv-x="1893" d="M72 508q0 251 147 397t389 146q134 0 238.5 -49.5t154.5 -127.5h5q118 175 376 175q213 0 334 -134t121 -358v-135h-670q14 -223 283 -223q167 0 295 80v-228q-142 -76 -346 -76q-252 0 -391 189h-4q-137 -187 -408 -187q-234 0 -379 143t-145 388zM393 512 q0 -293 236 -293q229 0 229 297q0 138 -59.5 214.5t-167.5 76.5q-113 0 -175.5 -77.5t-62.5 -217.5zM1167 616h375q0 220 -174 220q-80 0 -135 -63.5t-66 -156.5z" />
<glyph unicode="&#x154;" horiz-adv-x="1337" d="M164 0v1434h512q522 0 522 -390q0 -75 -23 -138.5t-65 -114.5t-101.5 -88t-132.5 -58v-4q32 -10 62 -32.5t58 -52.5t53.5 -64.5t46.5 -67.5l271 -424h-371l-223 369q-25 42 -48 75t-46.5 56.5t-49 36t-55.5 12.5h-87v-549h-323zM438 1567l260 323h281l-313 -323h-228z M487 793h140q104 0 167 60q64 61 64 151q0 188 -225 188h-146v-399z" />
<glyph unicode="&#x155;" horiz-adv-x="815" d="M133 0v1024h316v-190h4q75 208 270 208q50 0 78 -12v-291q-57 31 -133 31q-103 0 -161 -75.5t-58 -205.5v-489h-316zM231 1186l260 323h281l-313 -323h-228z" />
<glyph unicode="&#x156;" horiz-adv-x="1337" d="M164 0v1434h512q522 0 522 -390q0 -75 -23 -138.5t-65 -114.5t-101.5 -88t-132.5 -58v-4q32 -10 62 -32.5t58 -52.5t53.5 -64.5t46.5 -67.5l271 -424h-371l-223 369q-25 42 -48 75t-46.5 56.5t-49 36t-55.5 12.5h-87v-549h-323zM487 -469l90 352h272l-168 -352h-194z M487 793h140q104 0 167 60q64 61 64 151q0 188 -225 188h-146v-399z" />
<glyph unicode="&#x157;" horiz-adv-x="815" d="M133 0v1024h316v-190h4q75 208 270 208q50 0 78 -12v-291q-57 31 -133 31q-103 0 -161 -75.5t-58 -205.5v-489h-316zM231 -469l90 352h272l-168 -352h-194z" />
<glyph unicode="&#x158;" horiz-adv-x="1337" d="M164 0v1434h512q522 0 522 -390q0 -75 -23 -138.5t-65 -114.5t-101.5 -88t-132.5 -58v-4q32 -10 62 -32.5t58 -52.5t53.5 -64.5t46.5 -67.5l271 -424h-371l-223 369q-25 42 -48 75t-46.5 56.5t-49 36t-55.5 12.5h-87v-549h-323zM276 1892h205l155 -188l156 188h205 l-238 -325h-248zM487 793h140q104 0 167 60q64 61 64 151q0 188 -225 188h-146v-399z" />
<glyph unicode="&#x159;" horiz-adv-x="815" d="M68 1511h205l155 -188l156 188h205l-238 -325h-248zM133 0v1024h316v-190h4q75 208 270 208q50 0 78 -12v-291q-57 31 -133 31q-103 0 -161 -75.5t-58 -205.5v-489h-316z" />
<glyph unicode="&#x15a;" horiz-adv-x="1148" d="M92 1032q0 112 45 192.5t122.5 132.5t179.5 76.5t216 24.5q112 0 198.5 -13.5t159.5 -41.5v-299q-36 25 -78.5 44t-87.5 31.5t-89.5 18.5t-84.5 6q-55 0 -100 -10.5t-76 -29.5t-48 -45.5t-17 -59.5q0 -36 19 -64.5t54 -54t85 -50t113 -50.5q86 -36 154.5 -76.5 t117.5 -91.5t75 -116.5t26 -152.5q0 -120 -45.5 -201.5t-123.5 -132t-181.5 -72.5t-218.5 -22q-118 0 -224.5 20t-184.5 60v320q87 -73 189 -109.5t206 -36.5q61 0 106.5 11t76 30.5t45.5 46t15 57.5q0 42 -24 75t-65.5 61t-98.5 54t-123 53q-168 70 -250.5 171t-82.5 244z M338 1567l260 323h281l-313 -323h-228z" />
<glyph unicode="&#x15b;" horiz-adv-x="901" d="M66 27v256q78 -47 155.5 -70t146.5 -23q84 0 132.5 23t48.5 70q0 30 -22 50t-56.5 35t-75.5 27t-79 27q-61 23 -107.5 49.5t-78 61.5t-48 81t-16.5 109q0 86 37.5 148t100 101.5t143 58t167.5 18.5q68 0 138 -10.5t138 -30.5v-244q-60 35 -128.5 52.5t-134.5 17.5 q-31 0 -58.5 -5.5t-48.5 -16t-33 -27t-12 -37.5q0 -28 18 -48t47 -34.5t64.5 -26t70.5 -23.5q63 -22 114 -48t87.5 -61t56 -82t19.5 -112q0 -91 -39.5 -155.5t-105 -105t-151 -59t-177.5 -18.5q-169 0 -313 52zM252 1186l260 323h281l-313 -323h-228z" />
<glyph unicode="&#x15c;" horiz-adv-x="1148" d="M92 1032q0 112 45 192.5t122.5 132.5t179.5 76.5t216 24.5q112 0 198.5 -13.5t159.5 -41.5v-299q-36 25 -78.5 44t-87.5 31.5t-89.5 18.5t-84.5 6q-55 0 -100 -10.5t-76 -29.5t-48 -45.5t-17 -59.5q0 -36 19 -64.5t54 -54t85 -50t113 -50.5q86 -36 154.5 -76.5 t117.5 -91.5t75 -116.5t26 -152.5q0 -120 -45.5 -201.5t-123.5 -132t-181.5 -72.5t-218.5 -22q-118 0 -224.5 20t-184.5 60v320q87 -73 189 -109.5t206 -36.5q61 0 106.5 11t76 30.5t45.5 46t15 57.5q0 42 -24 75t-65.5 61t-98.5 54t-123 53q-168 70 -250.5 171t-82.5 244z M203 1567l235 325h248l236 -325h-207l-158 188l-147 -188h-207z" />
<glyph unicode="&#x15d;" horiz-adv-x="901" d="M66 27v256q78 -47 155.5 -70t146.5 -23q84 0 132.5 23t48.5 70q0 30 -22 50t-56.5 35t-75.5 27t-79 27q-61 23 -107.5 49.5t-78 61.5t-48 81t-16.5 109q0 86 37.5 148t100 101.5t143 58t167.5 18.5q68 0 138 -10.5t138 -30.5v-244q-60 35 -128.5 52.5t-134.5 17.5 q-31 0 -58.5 -5.5t-48.5 -16t-33 -27t-12 -37.5q0 -28 18 -48t47 -34.5t64.5 -26t70.5 -23.5q63 -22 114 -48t87.5 -61t56 -82t19.5 -112q0 -91 -39.5 -155.5t-105 -105t-151 -59t-177.5 -18.5q-169 0 -313 52zM106 1186l235 325h248l236 -325h-207l-158 188l-147 -188h-207 z" />
<glyph unicode="&#x15e;" horiz-adv-x="1148" d="M92 1032q0 112 45 192.5t122.5 132.5t179.5 76.5t216 24.5q112 0 198.5 -13.5t159.5 -41.5v-299q-36 25 -78.5 44t-87.5 31.5t-89.5 18.5t-84.5 6q-55 0 -100 -10.5t-76 -29.5t-48 -45.5t-17 -59.5q0 -36 19 -64.5t54 -54t85 -50t113 -50.5q86 -36 154.5 -76.5 t117.5 -91.5t75 -116.5t26 -152.5q0 -120 -45.5 -201.5t-123.5 -132t-181.5 -72.5t-218.5 -22q-118 0 -224.5 20t-184.5 60v320q87 -73 189 -109.5t206 -36.5q61 0 106.5 11t76 30.5t45.5 46t15 57.5q0 42 -24 75t-65.5 61t-98.5 54t-123 53q-168 70 -250.5 171t-82.5 244z M417 -313q35 -6 72 -6q123 0 123 73q0 66 -111 66q-13 0 -37 -2v182h172v-82q187 -8 187 -166q0 -207 -318 -207q-46 0 -88 4v138z" />
<glyph unicode="&#x15f;" horiz-adv-x="901" d="M66 27v256q78 -47 155.5 -70t146.5 -23q84 0 132.5 23t48.5 70q0 30 -22 50t-56.5 35t-75.5 27t-79 27q-61 23 -107.5 49.5t-78 61.5t-48 81t-16.5 109q0 86 37.5 148t100 101.5t143 58t167.5 18.5q68 0 138 -10.5t138 -30.5v-244q-60 35 -128.5 52.5t-134.5 17.5 q-31 0 -58.5 -5.5t-48.5 -16t-33 -27t-12 -37.5q0 -28 18 -48t47 -34.5t64.5 -26t70.5 -23.5q63 -22 114 -48t87.5 -61t56 -82t19.5 -112q0 -91 -39.5 -155.5t-105 -105t-151 -59t-177.5 -18.5q-169 0 -313 52zM279 -313q35 -6 72 -6q123 0 123 73q0 66 -111 66 q-13 0 -37 -2v182h172v-82q187 -8 187 -166q0 -207 -318 -207q-46 0 -88 4v138z" />
<glyph unicode="&#x160;" horiz-adv-x="1148" d="M92 1032q0 112 45 192.5t122.5 132.5t179.5 76.5t216 24.5q112 0 198.5 -13.5t159.5 -41.5v-299q-36 25 -78.5 44t-87.5 31.5t-89.5 18.5t-84.5 6q-55 0 -100 -10.5t-76 -29.5t-48 -45.5t-17 -59.5q0 -36 19 -64.5t54 -54t85 -50t113 -50.5q86 -36 154.5 -76.5 t117.5 -91.5t75 -116.5t26 -152.5q0 -120 -45.5 -201.5t-123.5 -132t-181.5 -72.5t-218.5 -22q-118 0 -224.5 20t-184.5 60v320q87 -73 189 -109.5t206 -36.5q61 0 106.5 11t76 30.5t45.5 46t15 57.5q0 42 -24 75t-65.5 61t-98.5 54t-123 53q-168 70 -250.5 171t-82.5 244z M252 1861h205l155 -188l156 188h205l-238 -325h-248z" />
<glyph unicode="&#x161;" horiz-adv-x="901" d="M66 27v256q78 -47 155.5 -70t146.5 -23q84 0 132.5 23t48.5 70q0 30 -22 50t-56.5 35t-75.5 27t-79 27q-61 23 -107.5 49.5t-78 61.5t-48 81t-16.5 109q0 86 37.5 148t100 101.5t143 58t167.5 18.5q68 0 138 -10.5t138 -30.5v-244q-60 35 -128.5 52.5t-134.5 17.5 q-31 0 -58.5 -5.5t-48.5 -16t-33 -27t-12 -37.5q0 -28 18 -48t47 -34.5t64.5 -26t70.5 -23.5q63 -22 114 -48t87.5 -61t56 -82t19.5 -112q0 -91 -39.5 -155.5t-105 -105t-151 -59t-177.5 -18.5q-169 0 -313 52zM90 1511h205l155 -188l156 188h205l-238 -325h-248z" />
<glyph unicode="&#x162;" horiz-adv-x="1200" d="M31 1171v263h1140v-263h-409v-1171h-324v1171h-407zM426 -313q35 -6 72 -6q123 0 123 73q0 66 -111 66q-13 0 -37 -2v182h172v-82q187 -8 187 -166q0 -207 -318 -207q-46 0 -88 4v138z" />
<glyph unicode="&#x163;" horiz-adv-x="797" d="M41 791v233h166v221l315 90v-311h230v-233h-230v-414q0 -160 127 -160q50 0 103 29v-234q-70 -37 -211 -37q-334 0 -334 347v469h-166zM338 -313q35 -6 72 -6q123 0 123 73q0 66 -111 66q-13 0 -37 -2v182h172v-82q187 -8 187 -166q0 -207 -318 -207q-46 0 -88 4v138z " />
<glyph unicode="&#x164;" horiz-adv-x="1200" d="M31 1171v263h1140v-263h-409v-1171h-324v1171h-407zM240 1892h205l155 -188l156 188h205l-238 -325h-248z" />
<glyph unicode="&#x165;" horiz-adv-x="1050" d="M41 791v233h166v221l315 90v-311h230v-233h-230v-414q0 -160 127 -160q50 0 103 29v-234q-70 -37 -211 -37q-334 0 -334 347v469h-166zM751 1164l90 352h272l-168 -352h-194z" />
<glyph unicode="&#x166;" horiz-adv-x="1200" d="M31 1171v263h1140v-263h-409v-366h237v-266h-237v-539h-324v539h-237v266h237v366h-407z" />
<glyph unicode="&#x167;" horiz-adv-x="797" d="M41 791v233h166v221l315 90v-311h230v-233h-230v-144h219v-205h-219v-65q0 -160 127 -160q50 0 103 29v-234q-70 -37 -211 -37q-334 0 -334 347v120h-146v205h146v144h-166z" />
<glyph unicode="&#x168;" horiz-adv-x="1481" d="M147 606v828h324v-832q0 -348 272 -348q267 0 267 336v844h323v-813q0 -646 -602 -646q-584 0 -584 631zM381 1518q0 139 55 216t154 77q81 0 168 -49q79 -44 120 -44q78 0 78 111h144q0 -140 -55.5 -216.5t-151.5 -76.5q-86 0 -168 43q-89 47 -123 47q-80 0 -80 -108 h-141z" />
<glyph unicode="&#x169;" horiz-adv-x="1239" d="M117 406v618h315v-590q0 -217 172 -217q85 0 136 59.5t51 161.5v586h315v-1024h-315v156h-5q-117 -181 -313 -181q-356 0 -356 431zM260 1186q0 139 55 216t154 77q81 0 168 -49q79 -44 120 -44q78 0 78 111h144q0 -140 -55.5 -216.5t-151.5 -76.5q-86 0 -168 43 q-89 47 -123 47q-80 0 -80 -108h-141z" />
<glyph unicode="&#x16a;" horiz-adv-x="1481" d="M147 606v828h324v-832q0 -348 272 -348q267 0 267 336v844h323v-813q0 -646 -602 -646q-584 0 -584 631zM447 1567v172h586v-172h-586z" />
<glyph unicode="&#x16b;" horiz-adv-x="1239" d="M117 406v618h315v-590q0 -217 172 -217q85 0 136 59.5t51 161.5v586h315v-1024h-315v156h-5q-117 -181 -313 -181q-356 0 -356 431zM326 1186v172h586v-172h-586z" />
<glyph unicode="&#x16c;" horiz-adv-x="1481" d="M147 606v828h324v-832q0 -348 272 -348q267 0 267 336v844h323v-813q0 -646 -602 -646q-584 0 -584 631zM403 1874h179q17 -135 159 -135q137 0 156 135h180q-12 -141 -102.5 -224t-237.5 -83q-146 0 -238 85.5t-96 221.5z" />
<glyph unicode="&#x16d;" horiz-adv-x="1239" d="M117 406v618h315v-590q0 -217 172 -217q85 0 136 59.5t51 161.5v586h315v-1024h-315v156h-5q-117 -181 -313 -181q-356 0 -356 431zM282 1493h179q17 -135 159 -135q137 0 156 135h180q-12 -141 -102.5 -224t-237.5 -83q-146 0 -238 85.5t-96 221.5z" />
<glyph unicode="&#x16e;" horiz-adv-x="1481" d="M147 606v828h324v-832q0 -348 272 -348q267 0 267 336v844h323v-813q0 -646 -602 -646q-584 0 -584 631zM501 1782q0 101 69.5 161t170.5 60q107 0 173 -59.5t66 -155.5q0 -98 -71.5 -159.5t-172.5 -61.5q-102 0 -168.5 59.5t-66.5 155.5zM640 1786q0 -94 96 -94 q45 0 74 27.5t29 66.5q0 41 -28.5 67.5t-74.5 26.5q-96 0 -96 -94z" />
<glyph unicode="&#x16f;" horiz-adv-x="1239" d="M117 406v618h315v-590q0 -217 172 -217q85 0 136 59.5t51 161.5v586h315v-1024h-315v156h-5q-117 -181 -313 -181q-356 0 -356 431zM380 1401q0 101 69.5 161t170.5 60q107 0 173 -59.5t66 -155.5q0 -98 -71.5 -159.5t-172.5 -61.5q-102 0 -168.5 59.5t-66.5 155.5z M519 1405q0 -94 96 -94q45 0 74 27.5t29 66.5q0 41 -28.5 67.5t-74.5 26.5q-96 0 -96 -94z" />
<glyph unicode="&#x170;" horiz-adv-x="1481" d="M147 606v828h324v-832q0 -348 272 -348q267 0 267 336v844h323v-813q0 -646 -602 -646q-584 0 -584 631zM384 1567l211 319h248l-248 -319h-211zM759 1567l213 319h249l-252 -319h-210z" />
<glyph unicode="&#x171;" horiz-adv-x="1239" d="M117 406v618h315v-590q0 -217 172 -217q85 0 136 59.5t51 161.5v586h315v-1024h-315v156h-5q-117 -181 -313 -181q-356 0 -356 431zM253 1186l211 319h248l-248 -319h-211zM628 1186l213 319h249l-252 -319h-210z" />
<glyph unicode="&#x172;" horiz-adv-x="1481" d="M147 606v828h324v-832q0 -348 272 -348q267 0 267 336v844h323v-813q0 -646 -602 -646q-584 0 -584 631zM611 -245q0 31 11 64.5t32 66t52 61.5t71 53h155q-78 -57 -115.5 -111.5t-37.5 -96.5q0 -33 17 -49.5t46 -16.5q19 0 40 3t41 9l1 -138q-24 -8 -57.5 -13.5 t-68.5 -5.5q-85 0 -136 44.5t-51 129.5z" />
<glyph unicode="&#x173;" horiz-adv-x="1239" d="M117 406v618h315v-590q0 -217 172 -217q85 0 136 59.5t51 161.5v586h315v-1024h-315v156h-5q-117 -181 -313 -181q-356 0 -356 431zM627 -245q0 31 11 64.5t32 66t52 61.5t71 53h155q-78 -57 -115.5 -111.5t-37.5 -96.5q0 -33 17 -49.5t46 -16.5q19 0 40 3t41 9l1 -138 q-24 -8 -57.5 -13.5t-68.5 -5.5q-85 0 -136 44.5t-51 129.5z" />
<glyph unicode="&#x174;" horiz-adv-x="2058" d="M18 1434h353l202 -955q13 -61 19 -164h6q4 77 29 168l260 951h346l235 -963q13 -53 23 -154h4q4 79 21 160l198 957h326l-379 -1434h-358l-238 920q-19 72 -23 161h-4q-9 -98 -26 -161l-244 -920h-373zM670 1567l235 325h248l236 -325h-207l-158 188l-147 -188h-207z" />
<glyph unicode="&#x175;" horiz-adv-x="1633" d="M16 1024h322l141 -668q10 -47 15 -114h6q5 70 18 118l176 664h301l158 -668q6 -25 14 -116h7q5 58 16 116l133 668h293l-295 -1024h-332l-151 600q-15 60 -17 131h-6q-7 -78 -20 -127l-162 -604h-328zM457 1186l235 325h248l236 -325h-207l-158 188l-147 -188h-207z" />
<glyph unicode="&#x176;" horiz-adv-x="1243" d="M0 1434h369l231 -535q6 -15 33 -117h4q13 72 31 113l235 539h342l-467 -924v-510h-323v504zM262 1567l235 325h248l236 -325h-207l-158 188l-147 -188h-207z" />
<glyph unicode="&#x177;" d="M-4 1024h350l191 -623q18 -58 28 -137h4q9 58 33 135l193 625h313l-416 -1106q-150 -399 -452 -399q-115 0 -189 26v252q63 -37 137 -37q122 0 170 115l54 127zM191 1186l235 325h248l236 -325h-207l-158 188l-147 -188h-207z" />
<glyph unicode="&#x178;" horiz-adv-x="1243" d="M0 1434h369l231 -535q6 -15 33 -117h4q13 72 31 113l235 539h342l-467 -924v-510h-323v504zM246 1704q0 60 44 98.5t110 38.5q68 0 110.5 -38.5t42.5 -98.5q0 -61 -42.5 -99t-110.5 -38t-111 39.5t-43 97.5zM705 1704q0 61 43 99t110 38t110.5 -38.5t43.5 -98.5 t-43 -98.5t-111 -38.5q-67 0 -110 39t-43 98z" />
<glyph unicode="&#x179;" horiz-adv-x="1243" d="M41 0v186l735 985h-682v263h1100v-181l-719 -991h721v-262h-1155zM426 1567l260 323h281l-313 -323h-228z" />
<glyph unicode="&#x17a;" horiz-adv-x="981" d="M25 0v131l514 660h-463v233h864v-156l-487 -635h491v-233h-919zM295 1186l260 323h281l-313 -323h-228z" />
<glyph unicode="&#x17b;" horiz-adv-x="1243" d="M41 0v186l735 985h-682v263h1100v-181l-719 -991h721v-262h-1155zM487 1704q0 60 44 97.5t110 37.5q67 0 109.5 -38t42.5 -97t-42.5 -98t-109.5 -39t-110.5 40t-43.5 97z" />
<glyph unicode="&#x17c;" horiz-adv-x="981" d="M25 0v131l514 660h-463v233h864v-156l-487 -635h491v-233h-919zM358 1323q0 60 44 97.5t110 37.5q67 0 109.5 -38t42.5 -97t-42.5 -98t-109.5 -39t-110.5 40t-43.5 97z" />
<glyph unicode="&#x17d;" horiz-adv-x="1243" d="M41 0v186l735 985h-682v263h1100v-181l-719 -991h721v-262h-1155zM269 1858h205l155 -188l156 188h205l-238 -325h-248z" />
<glyph unicode="&#x17e;" horiz-adv-x="981" d="M25 0v131l514 660h-463v233h864v-156l-487 -635h491v-233h-919zM151 1511h205l155 -188l156 188h205l-238 -325h-248z" />
<glyph unicode="&#x17f;" horiz-adv-x="613" d="M133 0v1151q0 175 114 282t310 107q96 0 160 -20v-246q-61 24 -117 24q-151 0 -151 -165v-1133h-316z" />
<glyph unicode="&#x180;" horiz-adv-x="1270" d="M-18 1171v205h151v140h316v-140h233v-205h-233v-301h4q117 179 333 179q198 0 305 -136t107 -372q0 -256 -125 -411t-334 -155q-189 0 -286 144h-4v-119h-316v1171h-151zM444 446q0 -99 57 -164t146 -65q108 0 167.5 83.5t59.5 236.5q0 127 -54.5 198.5t-155.5 71.5 q-95 0 -157.5 -71t-62.5 -185v-105z" />
<glyph unicode="&#x181;" horiz-adv-x="1622" d="M-51 1020q0 180 131.5 297t357.5 117h555q240 0 369 -88t129 -248q0 -117 -79 -204t-200 -120v-4q153 -19 244.5 -113t91.5 -229q0 -197 -141 -312.5t-385 -115.5h-551v1196h-45q-84 0 -136 -53.5t-52 -134.5q0 -68 22 -136h-287q-24 65 -24 148zM795 238h174 q112 0 175.5 52t63.5 142q0 86 -62.5 135t-174.5 49h-176v-378zM795 856h141q100 0 157.5 48.5t57.5 133.5q0 158 -236 158h-120v-340z" />
<glyph unicode="&#x182;" horiz-adv-x="1315" d="M164 0v1434h923v-267h-600v-311h279q228 0 353.5 -106t125.5 -295q0 -216 -133.5 -335.5t-378.5 -119.5h-569zM487 236h189q227 0 227 198q0 187 -215 187h-201v-385z" />
<glyph unicode="&#x183;" horiz-adv-x="1270" d="M133 0v1516h920v-205h-604v-441h4q117 179 333 179q198 0 305 -136t107 -372q0 -256 -125 -411t-334 -155q-189 0 -286 144h-4v-119h-316zM444 446q0 -99 57 -164t146 -65q108 0 167.5 83.5t59.5 236.5q0 127 -54.5 198.5t-155.5 71.5q-95 0 -157.5 -71t-62.5 -185v-105z " />
<glyph unicode="&#x184;" horiz-adv-x="1315" d="M-41 1182v26l502 250h26v-602h279q228 0 353.5 -106t125.5 -295q0 -217 -133.5 -336t-378.5 -119h-569v1001zM487 236h189q227 0 227 198q0 187 -215 187h-201v-385z" />
<glyph unicode="&#x185;" horiz-adv-x="1270" d="M-72 1239v26l496 250h26l-1 -645h4q117 179 333 179q198 0 305 -136t107 -372q0 -256 -125 -411t-334 -155q-189 0 -286 144h-4v-119h-316v1058zM444 446q0 -99 57 -164t146 -65q108 0 167.5 83.5t59.5 236.5q0 127 -54.5 198.5t-155.5 71.5q-95 0 -157.5 -71t-62.5 -185 v-105z" />
<glyph unicode="&#x186;" horiz-adv-x="1280" d="M88 29v311q145 -86 328 -86q202 0 326 127t124 344q0 208 -117 331.5t-315 123.5q-187 0 -346 -93v295q158 76 410 76q330 0 519 -193.5t189 -516.5q0 -345 -213 -559t-551 -214q-207 0 -354 54z" />
<glyph unicode="&#x187;" horiz-adv-x="1280" d="M74 686q0 344 208.5 558t539.5 214q83 0 165 -24q28 99 112.5 161t201.5 62q74 0 133 -23v-248q-52 27 -101 27q-68 0 -106.5 -49t-38.5 -129q0 -77 12 -141l-8 -7q-178 93 -358 93q-194 0 -307 -128t-113 -343q0 -208 117 -331.5t315 -123.5q189 0 346 92v-295 q-157 -76 -410 -76q-330 0 -519 194t-189 517z" />
<glyph unicode="&#x188;" horiz-adv-x="985" d="M72 487q0 261 155 411.5t416 150.5q45 0 94 -9q20 86 99.5 146.5t181.5 60.5q69 0 121 -20v-226q-44 23 -90 23q-64 0 -102 -48.5t-38 -121.5q0 -57 9 -111l-9 -6q-105 70 -225 70q-135 0 -213 -79t-78 -220q0 -136 76 -213.5t209 -77.5q118 0 231 74v-254 q-107 -62 -309 -62q-236 0 -382 143t-146 369z" />
<glyph unicode="&#x189;" horiz-adv-x="1510" d="M0 586v266h164v582h508q764 0 764 -699q0 -335 -208.5 -535t-555.5 -200h-508v586h-164zM487 262h160q210 0 329.5 126t119.5 343q0 205 -118.5 322.5t-332.5 117.5h-158v-319h271v-266h-271v-324z" />
<glyph unicode="&#x18a;" horiz-adv-x="1817" d="M-51 1020q0 175 133 294.5t356 119.5h541q764 0 764 -699q0 -335 -208.5 -535t-555.5 -200h-508v1171h-45q-85 0 -136.5 -49t-51.5 -125q0 -62 22 -125h-287q-24 65 -24 148zM795 262h159q210 0 329.5 126t119.5 343q0 205 -118.5 322.5t-332.5 117.5h-157v-909z" />
<glyph unicode="&#x18b;" horiz-adv-x="1315" d="M70 401q0 217 133.5 336t378.5 119h245v311h-600v267h924v-1434h-602q-228 0 -353.5 106t-125.5 295zM412 422q0 -186 215 -186h200v385h-188q-108 0 -167.5 -53t-59.5 -146z" />
<glyph unicode="&#x18c;" horiz-adv-x="1270" d="M72 489q0 254 129 407t338 153q200 0 278 -142h4v404h-604v205h920v-1516h-316v141h-4q-108 -166 -317 -166q-192 0 -310 135.5t-118 378.5zM393 498q0 -135 57 -208t158 -73q96 0 156.5 77t60.5 204v77q0 100 -58 166t-151 66q-105 0 -164 -82.5t-59 -226.5z" />
<glyph unicode="&#x18d;" horiz-adv-x="1252" d="M72 545q0 221 152 362.5t413 141.5q251 0 397 -136.5t146 -349.5q0 -261 -306 -436q160 -114 160 -274q0 -145 -129.5 -239.5t-320.5 -94.5q-195 0 -363 82v286q156 -116 338 -116q152 0 152 92q0 43 -45.5 78.5t-227.5 124.5q-366 179 -366 479zM393 559q0 -82 51 -150 t203 -151q211 115 211 301q0 111 -62.5 179.5t-168.5 68.5t-170 -70t-64 -178z" />
<glyph unicode="&#x18e;" horiz-adv-x="1090" d="M66 0v262h536v322h-469v264h469v323h-504v263h828v-1434h-860z" />
<glyph unicode="&#x18f;" horiz-adv-x="1557" d="M78 707v143h1055q-60 344 -447 344q-214 0 -444 -152v287q207 129 491 129q361 0 555.5 -190t194.5 -533q0 -339 -198.5 -549.5t-524.5 -210.5q-306 0 -494 201t-188 531zM428 594q17 -165 106.5 -259.5t227.5 -94.5q146 0 244 95t127 259h-705z" />
<glyph unicode="&#x190;" horiz-adv-x="1143" d="M78 397q0 132 76 225.5t213 129.5v6q-240 77 -240 301q0 184 155.5 291.5t426.5 107.5q181 0 338 -61v-283q-149 66 -318 66q-264 0 -264 -158t303 -158h119v-268h-129q-177 0 -258.5 -39t-81.5 -133q0 -170 301 -170q194 0 352 74v-285q-168 -68 -379 -68 q-294 0 -454 110.5t-160 311.5z" />
<glyph unicode="&#x191;" horiz-adv-x="1067" d="M-113 -104q56 -27 119 -27q158 0 158 188v1377h829v-263h-506v-352h465v-262h-465v-504q0 -219 -116 -341t-320 -122q-90 0 -164 27v279z" />
<glyph unicode="&#x192;" horiz-adv-x="1178" d="M78 -43q39 -20 92 -20q123 0 154 202l88 576h-105v215h142l22 149q25 167 135 267t279 100q82 0 159 -23v-249q-64 30 -133 30q-124 0 -147 -137l-23 -137h158v-215h-192l-91 -594q-30 -196 -140 -311t-277 -115q-50 0 -121 20v242z" />
<glyph unicode="&#x193;" horiz-adv-x="1458" d="M74 694q0 338 217.5 551t578.5 213q115 0 197 -24q28 99 112.5 161t201.5 62q73 0 132 -23v-248q-52 27 -100 27q-68 0 -106.5 -49t-38.5 -129q0 -77 12 -141l-8 -7q-185 101 -404 101q-201 0 -326.5 -130t-125.5 -349q0 -222 113 -342.5t305 -120.5q116 0 184 33v280 h-287v258h610v-721q-210 -121 -522 -121q-346 0 -545.5 191.5t-199.5 527.5z" />
<glyph unicode="&#x194;" horiz-adv-x="1368" d="M10 1434h357l262 -736q18 -51 57 -202h4q16 63 60 202l264 736h344l-461 -1145l37 -60q133 -216 133 -364q0 -142 -109 -244t-280 -102q-169 0 -273 100.5t-104 245.5q0 75 26.5 146t108.5 212l35 60zM612 -127q0 -100 72 -100t72 100q0 61 -72 186q-72 -126 -72 -186z " />
<glyph unicode="&#x195;" horiz-adv-x="1913" d="M133 0v1516h316v-644h4q116 177 315 177q348 0 348 -420v-150q0 -252 187 -252q90 0 141 67.5t51 186.5q0 247 -129 543h326q118 -271 118 -539q0 -240 -138 -375t-382 -135q-239 0 -364 124t-125 356v127q0 225 -164 225q-84 0 -136 -63t-52 -160v-584h-316z" />
<glyph unicode="&#x196;" horiz-adv-x="772" d="M164 399v1035h323v-1010q0 -170 140 -170q56 0 104 29v-271q-101 -37 -213 -37q-354 0 -354 424z" />
<glyph unicode="&#x197;" horiz-adv-x="733" d="M41 584v278h164v572h323v-572h164v-278h-164v-584h-323v584h-164z" />
<glyph unicode="&#x198;" horiz-adv-x="1329" d="M164 0v1434h323v-666h5q16 32 36 63l201 308q131 201 218 260t202 59q70 0 137 -26v-283q-48 31 -100 31q-82 0 -189 -160l-184 -277l543 -743h-408l-420 618q-8 12 -36 72h-5v-690h-323z" />
<glyph unicode="&#x199;" horiz-adv-x="1145" d="M133 0v1137q0 403 379 403q93 0 168 -24v-242q-48 24 -107 24q-124 0 -124 -161v-586h4l305 473h375l-367 -481l393 -543h-379l-327 508h-4v-508h-316z" />
<glyph unicode="&#x19a;" horiz-adv-x="668" d="M20 688v205h156v623h316v-623h155v-205h-155v-688h-316v688h-156z" />
<glyph unicode="&#x19b;" horiz-adv-x="1125" d="M6 0l443 1012l-224 -109l-73 146l241 116q-45 84 -133 84q-69 0 -141 -37v271q77 26 198 26q233 0 345 -217l194 94l70 -143l-205 -98l381 -1145h-330l-199 709l-229 -709h-338z" />
<glyph unicode="&#x19c;" horiz-adv-x="1991" d="M160 451v983h323v-922q0 -258 168 -258q79 0 129.5 75.5t50.5 192.5v912h324v-930q0 -250 166 -250q82 0 132 73.5t50 200.5v906h324v-1434h-324v188h-4q-51 -95 -141.5 -154t-198.5 -59q-215 0 -305 220q-120 -220 -352 -220q-342 0 -342 476z" />
<glyph unicode="&#x19d;" horiz-adv-x="1618" d="M-113 -98q56 -27 119 -27q158 0 158 188v1371h348l569 -873q39 -59 72 -117h4q-8 50 -8 197v793h305v-1434h-326l-591 901q-52 79 -72 119h-4q8 -76 8 -232v-729q0 -220 -110 -341t-308 -121q-93 0 -164 26v279z" />
<glyph unicode="&#x19e;" horiz-adv-x="1235" d="M133 0v1024h316v-162h4q113 187 329 187q340 0 340 -422v-1098h-317v1040q0 238 -168 238q-82 0 -135 -63t-53 -160v-584h-316z" />
<glyph unicode="&#x19f;" horiz-adv-x="1553" d="M74 698q0 340 197 550t522 210q307 0 496.5 -201t189.5 -530q0 -338 -196.5 -545t-512.5 -207q-308 0 -502 200.5t-194 522.5zM426 594q26 -160 120 -250t230 -90q142 0 235.5 89t118.5 251h-704zM426 838h702q-26 164 -115.5 253t-228.5 89q-142 0 -236 -91t-122 -251z " />
<glyph unicode="&#x1a0;" horiz-adv-x="1592" d="M74 698q0 340 197 550t522 210q198 0 351 -87q58 -14 91 -14q191 0 191 131q0 50 -18 111h192q23 -69 23 -135q0 -120 -67.5 -187t-192.5 -67q-6 0 -18 1l-18 1q152 -195 152 -485q0 -338 -196.5 -545t-512.5 -207q-308 0 -502 200.5t-194 522.5zM414 715 q0 -213 100 -337t262 -124q167 0 265 120.5t98 334.5q0 223 -95 347t-260 124q-170 0 -270 -127.5t-100 -337.5z" />
<glyph unicode="&#x1a1;" horiz-adv-x="1290" d="M72 508q0 254 152 397.5t411 143.5q68 0 153 -15q57 -10 110 -10q177 0 177 141q0 50 -18 111h192q23 -69 23 -131q0 -226 -229 -248q137 -142 137 -371q0 -255 -149.5 -403t-409.5 -148q-256 0 -402.5 143.5t-146.5 389.5zM393 512q0 -295 238 -295q227 0 227 303 q0 287 -229 287q-112 0 -174 -77t-62 -218z" />
<glyph unicode="&#x1a2;" horiz-adv-x="2165" d="M74 698q0 337 207 548.5t546 211.5q131 0 348 -39q218 -39 353 -39q256 0 473 78v-1458h-324v1118q-83 -12 -166 -12q-81 0 -174 10v-1020q-210 -121 -532 -121q-338 0 -534.5 193.5t-196.5 529.5zM416 711q0 -220 110.5 -342.5t292.5 -122.5q127 0 195 33v884 q-120 17 -193 17q-187 0 -296 -128.5t-109 -340.5z" />
<glyph unicode="&#x1a3;" horiz-adv-x="1745" d="M72 506q0 249 157 396t414 147q135 0 298 -32t271 -32q214 0 400 64v-1049h-307v750q-60 -7 -105 -7q-77 0 -162 11v-693q-181 -86 -413 -86q-263 0 -408 141t-145 390zM387 512q0 -141 67 -218t185 -77q56 0 92 10v576q-39 4 -94 4q-115 0 -182.5 -78.5t-67.5 -216.5z " />
<glyph unicode="&#x1a4;" horiz-adv-x="1567" d="M-51 1020q0 175 133 294.5t356 119.5h539q543 0 543 -457q0 -216 -155.5 -349.5t-416.5 -133.5h-153v-494h-324v1186h-45q-86 0 -137 -54t-51 -135q0 -62 22 -125h-287q-24 65 -24 148zM795 739h127q258 0 258 226q0 221 -258 221h-127v-447z" />
<glyph unicode="&#x1a5;" horiz-adv-x="1270" d="M133 -471v1608q0 403 379 403q93 0 168 -24v-242q-48 24 -107 24q-124 0 -124 -161v-267h4q117 179 329 179q199 0 307.5 -136.5t108.5 -371.5q0 -256 -126.5 -411t-336.5 -155q-185 0 -282 144h-4v-590h-316zM444 457q0 -106 56 -173t147 -67q108 0 167.5 83.5 t59.5 236.5q0 270 -210 270q-97 0 -158.5 -73.5t-61.5 -194.5v-82z" />
<glyph unicode="&#x1a6;" horiz-adv-x="1303" d="M164 0v1434h323v-195h181q524 0 524 -387q0 -279 -322 -369v-4q131 -60 209 -233l199 -441h-371l-157 385q-78 191 -211 191h-52v-381h-323zM487 625h131q110 0 171 49.5t61 134.5q0 184 -229 184h-134v-368z" />
<glyph unicode="&#x1a7;" horiz-adv-x="1148" d="M72 403q0 87 26 152.5t75 116.5t118 91.5t154 76.5q63 26 113 50.5t85 50t54 54t19 64.5q0 33 -17 59.5t-48 45.5t-75.5 29.5t-100.5 10.5q-40 0 -84.5 -6t-89.5 -18.5t-87.5 -31.5t-78.5 -44v299q73 28 159.5 41.5t198.5 13.5q114 0 216 -24.5t179.5 -76.5t122.5 -132.5 t45 -192.5q0 -143 -82.5 -244t-250.5 -171q-66 -27 -123 -53t-98.5 -54t-65.5 -61t-24 -75q0 -31 15 -57.5t45.5 -46t76 -30.5t106.5 -11q104 0 206 36.5t189 109.5v-320q-78 -40 -184.5 -60t-224.5 -20q-115 0 -218.5 22t-181.5 72.5t-123.5 132t-45.5 201.5z" />
<glyph unicode="&#x1a8;" horiz-adv-x="901" d="M49 313q0 65 19.5 112t56 82t87.5 61t114 48q35 12 70.5 23.5t64.5 26t47 34.5t18 48q0 21 -12 37.5t-33 27t-48.5 16t-58.5 5.5q-66 0 -134.5 -17.5t-128.5 -52.5v244q68 20 138 30.5t138 10.5q87 0 167.5 -18.5t143 -58t100 -101.5t37.5 -148q0 -63 -16.5 -109t-48 -81 t-78 -61.5t-107.5 -49.5q-38 -15 -79 -27t-75.5 -27t-56.5 -35t-22 -50q0 -47 48.5 -70t132.5 -23q69 0 146.5 23t155.5 70v-256q-144 -52 -313 -52q-92 0 -177.5 18.5t-151 59t-105 105t-39.5 155.5z" />
<glyph unicode="&#x1a9;" horiz-adv-x="1165" d="M42 0v172l462 554l-437 523v185h996v-265h-540l353 -429l-384 -480h633v-260h-1083z" />
<glyph unicode="&#x1aa;" horiz-adv-x="934" d="M-123 1190q0 153 109.5 251.5t283.5 98.5q208 0 321.5 -120.5t113.5 -342.5v-1157q0 -160 126 -160q55 0 103 29v-233q-70 -37 -211 -37q-334 0 -334 346v1022q-80 -33 -170 -33q-145 0 -243.5 94t-98.5 242zM156 1200q0 -46 31.5 -75t80.5 -29q67 0 121 28v15 q0 164 -127 164q-49 0 -77.5 -29.5t-28.5 -73.5z" />
<glyph unicode="&#x1ab;" horiz-adv-x="797" d="M41 791v233h166v221l313 90v-311h232v-233h-232v-414q0 -160 129 -160q50 0 103 29v-275q0 -169 -104.5 -275t-264.5 -106q-83 0 -156 31v225q61 -32 131 -32q152 0 152 161q-144 0 -223.5 91.5t-79.5 255.5v469h-166z" />
<glyph unicode="&#x1ac;" horiz-adv-x="1305" d="M-20 1026q0 182 126.5 295t354.5 113h813v-263h-410v-1171h-323v1171h-92q-87 0 -139 -46.5t-52 -120.5q0 -54 16 -109h-274q-20 64 -20 131z" />
<glyph unicode="&#x1ad;" horiz-adv-x="797" d="M41 791v233h166v109q0 189 92 298t256 109q106 0 197 -35v-237q-54 30 -107 30q-125 0 -125 -174v-100h232v-233h-232v-414q0 -160 129 -160q50 0 103 29v-234q-70 -37 -211 -37q-334 0 -334 347v469h-166z" />
<glyph unicode="&#x1ae;" horiz-adv-x="1202" d="M31 1171v263h1140v-263h-409v-1114q0 -188 158 -188q62 0 118 27v-273q-82 -33 -178 -33q-204 0 -313 119t-109 338v1124h-407z" />
<glyph unicode="&#x1af;" horiz-adv-x="1604" d="M147 606v828h324v-832q0 -348 272 -348q267 0 267 336v844h301q64 0 103.5 42t39.5 105q0 44 -18 105h190q19 -57 19 -119q0 -120 -82.5 -196t-229.5 -82v-668q0 -646 -602 -646q-584 0 -584 631z" />
<glyph unicode="&#x1b0;" horiz-adv-x="1368" d="M117 406v618h315v-590q0 -217 172 -217q85 0 136 59.5t51 161.5v586h288q125 0 125 148q0 43 -18 104h184q16 -48 16 -117q0 -117 -73.5 -189.5t-206.5 -79.5v-890h-315v156h-5q-117 -181 -313 -181q-356 0 -356 431z" />
<glyph unicode="&#x1b1;" horiz-adv-x="1567" d="M82 600q0 381 348 574h-348v260h602v-260q-262 -226 -262 -525q0 -180 101.5 -288.5t254.5 -108.5q159 0 262 108t103 299q0 282 -258 515v260h600v-260h-340q338 -196 338 -570q0 -285 -195.5 -457t-503.5 -172q-316 0 -509 173.5t-193 451.5z" />
<glyph unicode="&#x1b2;" horiz-adv-x="1602" d="M164 602v832h323v-816q0 -364 289 -364q184 0 299 152t115 393q0 184 -63.5 286.5t-178.5 102.5q-88 0 -164 -35v272q98 33 207 33q248 0 388.5 -171.5t140.5 -477.5q0 -355 -212 -594.5t-546 -239.5q-598 0 -598 627z" />
<glyph unicode="&#x1b3;" horiz-adv-x="1268" d="M0 1434h342l236 -539q18 -41 31 -113h4q29 111 32 117l125 270q72 156 162.5 222.5t235.5 66.5q80 0 151 -26v-281q-50 29 -98 29q-107 0 -189 -172l-241 -504v-504h-324v510z" />
<glyph unicode="&#x1b4;" horiz-adv-x="1219" d="M-4 1024h350l191 -623q18 -58 28 -137h4q13 78 31 135l86 265q67 207 162.5 296t245.5 89q81 0 155 -27v-248q-58 33 -120 33q-103 0 -173 -189l-258 -702q-146 -397 -458 -397q-115 0 -189 26v252q63 -37 137 -37q123 0 177 129l47 113z" />
<glyph unicode="&#x1b5;" horiz-adv-x="1243" d="M41 0v186l307 412h-176v262h373l231 311h-682v263h1100v-181l-285 -393h221v-262h-411l-244 -336h721v-262h-1155z" />
<glyph unicode="&#x1b6;" horiz-adv-x="981" d="M25 0v131l225 289h-113v194h264l138 177h-463v233h864v-156l-195 -254h138v-194h-287l-143 -187h491v-233h-919z" />
<glyph unicode="&#x1b7;" horiz-adv-x="1370" d="M41 -43q213 -160 487 -160q196 0 312 92t116 246q0 157 -129.5 244.5t-361.5 87.5h-143v186l460 518h-725v263h1155v-181l-477 -538q258 -38 409.5 -190.5t151.5 -383.5q0 -274 -216.5 -448t-551.5 -174q-260 0 -487 119v319z" />
<glyph unicode="&#x1b8;" horiz-adv-x="1370" d="M74 121q0 231 154.5 392t406.5 202l-477 538v181h1155v-263h-719l455 -518v-186h-144q-232 0 -361.5 -87.5t-129.5 -244.5q0 -154 116 -246t312 -92q291 0 487 148v-307q-231 -119 -504 -119q-333 0 -542 166.5t-209 435.5z" />
<glyph unicode="&#x1b9;" horiz-adv-x="1016" d="M20 -14q0 173 118 299t317 170l-363 413v156h914v-233h-533l346 -408v-131h-125q-167 0 -261.5 -66.5t-94.5 -181.5q0 -113 86.5 -178.5t230.5 -65.5q224 0 383 115v-262q-181 -94 -407 -94q-276 0 -443.5 127t-167.5 340z" />
<glyph unicode="&#x1ba;" horiz-adv-x="912" d="M-31 -197q0 118 74.5 197.5t247.5 138.5q160 54 204 90t44 84q0 67 -59.5 92t-190.5 25h-84v141l229 230h-403v223h790v-166l-266 -252q305 -42 305 -287q0 -134 -90.5 -223t-323.5 -162q-125 -39 -151.5 -61.5t-26.5 -52.5q0 -72 158 -72q149 0 297 72v-246 q-150 -55 -324 -55q-201 0 -315.5 75t-114.5 209z" />
<glyph unicode="&#x1bb;" horiz-adv-x="1178" d="M109 0v246l266 293h-182v241h397q112 137 112 234q0 192 -215 192q-181 0 -350 -147v278q187 121 398 121q222 0 355.5 -113t133.5 -294q0 -124 -113 -271h142v-241h-338l-244 -271v-6h582v-262h-944z" />
<glyph unicode="&#x1bc;" horiz-adv-x="1178" d="M131 1176v258h868v-258h-438l-51 -287q63 6 94 6q215 0 338 -117t123 -311q0 -217 -149 -354.5t-404 -137.5q-207 0 -348 62v270q147 -90 313 -90q125 0 195.5 59.5t70.5 161.5q0 100 -79.5 156.5t-225.5 56.5q-80 0 -248 -18l98 543h-157z" />
<glyph unicode="&#x1bd;" horiz-adv-x="910" d="M51 795v229h766v-229h-389l-16 -160q56 6 88 6q162 0 255 -82t93 -221q0 -160 -120.5 -261.5t-330.5 -101.5q-170 0 -295 41v230q117 -56 242 -56q182 0 182 117t-213 117q-102 0 -190 -16l43 387h-115z" />
<glyph unicode="&#x1be;" horiz-adv-x="901" d="M35 791v233h135v221l315 90v-311h230v-233h-230v-43q0 -36 22 -63t105 -68q134 -67 184 -137.5t50 -172.5q0 -153 -118.5 -242.5t-330.5 -89.5q-159 0 -297 52v256q156 -93 293 -93q150 0 150 93q0 29 -19 54.5t-121 73.5q-130 61 -181.5 132t-51.5 180v68h-135z" />
<glyph unicode="&#x1bf;" horiz-adv-x="1225" d="M133 -471v1495h316v-106h4q126 131 331 131q175 0 282.5 -115.5t107.5 -300.5q0 -229 -197.5 -414t-527.5 -274v-416h-316zM449 221q192 63 297.5 165.5t105.5 223.5q0 79 -48 132t-124 53q-109 0 -231 -121v-453z" />
<glyph unicode="&#x1c0;" horiz-adv-x="668" d="M209 -481v2048h252v-2048h-252z" />
<glyph unicode="&#x1c1;" horiz-adv-x="1127" d="M209 -481v2048h252v-2048h-252zM668 -481v2048h252v-2048h-252z" />
<glyph unicode="&#x1c2;" horiz-adv-x="1059" d="M61 233v234h342v268h-342v234h342v598h252v-598h342v-234h-342v-268h342v-234h-342v-714h-252v714h-342z" />
<glyph unicode="&#x1c3;" horiz-adv-x="670" d="M152 143q0 72 52.5 118t131.5 46q80 0 131 -46.5t51 -117.5q0 -72 -50.5 -119t-131.5 -47q-80 0 -132 48.5t-52 117.5zM168 1434h332l-39 -988h-256z" />
<glyph unicode="&#x1c4;" horiz-adv-x="2661" d="M164 0v1434h508q764 0 764 -699q0 -335 -208.5 -535t-555.5 -200h-508zM487 262h160q210 0 329.5 126t119.5 343q0 205 -118.5 322.5t-332.5 117.5h-158v-909zM1458 0v186l735 985h-682v263h1100v-181l-719 -991h721v-262h-1155zM1709 1891h205l155 -188l156 188h205 l-238 -325h-248z" />
<glyph unicode="&#x1c5;" horiz-adv-x="2476" d="M164 0v1434h508q764 0 764 -699q0 -335 -208.5 -535t-555.5 -200h-508zM487 262h160q210 0 329.5 126t119.5 343q0 205 -118.5 322.5t-332.5 117.5h-158v-909zM1520 0v131l514 660h-463v233h864v-156l-487 -635h491v-233h-919zM1661 1511h205l155 -188l156 188h205 l-238 -325h-248z" />
<glyph unicode="&#x1c6;" horiz-adv-x="2224" d="M72 489q0 254 129 407t338 153q198 0 276 -142h4v609h316v-1516h-316v141h-4q-108 -166 -317 -166q-192 0 -309 135.5t-117 378.5zM393 498q0 -135 57 -208t158 -73q96 0 156.5 77t60.5 204v77q0 100 -58 166t-151 66q-105 0 -164 -82.5t-59 -226.5zM1268 0v131l514 660 h-463v233h864v-156l-487 -635h491v-233h-919zM1410 1511h205l155 -188l156 188h205l-238 -325h-248z" />
<glyph unicode="&#x1c7;" horiz-adv-x="1958" d="M164 0v1434h323v-1172h510v-262h-833zM1079 14v303q83 -63 187 -63q221 0 221 328v852h321v-865q0 -288 -133.5 -441t-386.5 -153q-113 0 -209 39z" />
<glyph unicode="&#x1c8;" horiz-adv-x="1606" d="M164 0v1434h323v-1172h510v-262h-833zM891 -203q66 -37 117 -37q149 0 149 234v1030h316v-1006q0 -227 -111 -363t-320 -136q-69 0 -151 30v248zM1135 1350q0 71 51 116t131 45q81 0 131.5 -45t50.5 -116q0 -72 -50.5 -118t-131.5 -46q-80 0 -131 47.5t-51 116.5z" />
<glyph unicode="&#x1c9;" horiz-adv-x="1164" d="M133 0v1516h316v-1516h-316zM448 -203q66 -37 117 -37q149 0 149 234v1030h316v-1006q0 -227 -111 -363t-320 -136q-69 0 -151 30v248zM692 1350q0 71 51 116t131 45q81 0 131.5 -45t50.5 -116q0 -72 -50.5 -118t-131.5 -46q-80 0 -131 47.5t-51 116.5z" />
<glyph unicode="&#x1ca;" horiz-adv-x="2466" d="M164 0v1434h348l569 -873q39 -59 72 -117h4q-8 50 -8 197v793h305v-1434h-326l-591 901q-52 79 -72 119h-4q8 -76 8 -232v-788h-305zM1587 14v303q83 -63 186 -63q221 0 221 328v852h322v-865q0 -288 -133.5 -441t-386.5 -153q-113 0 -209 39z" />
<glyph unicode="&#x1cb;" horiz-adv-x="2169" d="M164 0v1434h348l569 -873q39 -59 72 -117h4q-8 50 -8 197v793h305v-1434h-326l-591 901q-52 79 -72 119h-4q8 -76 8 -232v-788h-305zM1454 -203q66 -37 117 -37q149 0 149 234v1030h316v-1006q0 -227 -111 -363t-320 -136q-69 0 -151 30v248zM1698 1350q0 71 51 116 t131 45q81 0 131.5 -45t50.5 -116q0 -72 -50.5 -118t-131.5 -46q-80 0 -131 47.5t-51 116.5z" />
<glyph unicode="&#x1cc;" horiz-adv-x="1837" d="M133 0v1024h316v-162h4q113 187 329 187q340 0 340 -422v-627h-315v569q0 238 -170 238q-82 0 -135 -63t-53 -160v-584h-316zM1123 -203q66 -37 117 -37q149 0 149 234v1030h316v-1006q0 -227 -111 -363t-320 -136q-69 0 -151 30v248zM1367 1350q0 71 51 116t131 45 q81 0 131.5 -45t50.5 -116q0 -72 -50.5 -118t-131.5 -46q-80 0 -131 47.5t-51 116.5z" />
<glyph unicode="&#x1cd;" horiz-adv-x="1440" d="M10 0l522 1434h383l510 -1434h-352l-102 319h-510l-101 -319h-350zM360 1883h205l155 -188l156 188h205l-238 -325h-248zM530 567h367l-154 482q-17 54 -24 129h-8q-5 -63 -25 -125z" />
<glyph unicode="&#x1ce;" d="M57 285q0 298 353 344l278 37q0 168 -182 168q-183 0 -348 -109v238q66 34 180.5 60t208.5 26q438 0 438 -437v-612h-299v147h-4q-103 -172 -305 -172q-149 0 -234.5 84.5t-85.5 225.5zM174 1499h205l155 -188l156 188h205l-238 -325h-248zM348 322q0 -54 37.5 -88.5 t101.5 -34.5q89 0 145 61.5t56 155.5v69l-186 -24q-154 -20 -154 -139z" />
<glyph unicode="&#x1cf;" horiz-adv-x="649" d="M-33 1883h205l155 -188l156 188h205l-238 -325h-248zM164 0v1434h323v-1434h-323z" />
<glyph unicode="&#x1d0;" horiz-adv-x="582" d="M-70 1499h205l155 -188l156 188h205l-238 -325h-248zM133 0v1024h316v-1024h-316z" />
<glyph unicode="&#x1d1;" horiz-adv-x="1553" d="M74 698q0 340 197 550t522 210q307 0 496.5 -201t189.5 -530q0 -338 -196.5 -545t-512.5 -207q-308 0 -502 200.5t-194 522.5zM414 715q0 -213 100 -337t262 -124q167 0 265 120.5t98 334.5q0 223 -95 347t-260 124q-170 0 -270 -127.5t-100 -337.5zM416 1883h205 l155 -188l156 188h205l-238 -325h-248z" />
<glyph unicode="&#x1d2;" horiz-adv-x="1252" d="M72 508q0 254 152 397.5t411 143.5q255 0 400 -143.5t145 -379.5q0 -255 -149.5 -403t-409.5 -148q-256 0 -402.5 143.5t-146.5 389.5zM266 1499h205l155 -188l156 188h205l-238 -325h-248zM393 512q0 -295 238 -295q227 0 227 303q0 287 -229 287q-112 0 -174 -77 t-62 -218z" />
<glyph unicode="&#x1d3;" horiz-adv-x="1481" d="M147 606v828h324v-832q0 -348 272 -348q267 0 267 336v844h323v-813q0 -646 -602 -646q-584 0 -584 631zM416 1883h205l155 -188l156 188h205l-238 -325h-248z" />
<glyph unicode="&#x1d4;" horiz-adv-x="1239" d="M117 406v618h315v-590q0 -217 172 -217q85 0 136 59.5t51 161.5v586h315v-1024h-315v156h-5q-117 -181 -313 -181q-356 0 -356 431zM260 1499h205l155 -188l156 188h205l-238 -325h-248z" />
<glyph unicode="&#x1d5;" horiz-adv-x="1481" d="M147 606v828h324v-832q0 -348 272 -348q267 0 267 336v844h323v-813q0 -646 -602 -646q-584 0 -584 631zM422 1734q0 47 34.5 77t86.5 30q53 0 87 -30t34 -77t-33 -77t-88 -30q-53 0 -87 31t-34 76zM449 1913v172h586v-172h-586zM821 1734q0 47 33.5 77t86.5 30t87 -30 t34 -77t-33 -77t-88 -30q-52 0 -86 30.5t-34 76.5z" />
<glyph unicode="&#x1d6;" horiz-adv-x="1239" d="M117 406v618h315v-590q0 -217 172 -217q85 0 136 59.5t51 161.5v586h315v-1024h-315v156h-5q-117 -181 -313 -181q-356 0 -356 431zM301 1355q0 47 34.5 77t86.5 30q53 0 87 -30t34 -77t-33 -77t-88 -30q-53 0 -87 31t-34 76zM328 1534v172h586v-172h-586zM700 1355 q0 47 33.5 77t86.5 30t87 -30t34 -77t-33 -77t-88 -30q-52 0 -86 30.5t-34 76.5z" />
<glyph unicode="&#x1d7;" horiz-adv-x="1481" d="M147 606v828h324v-832q0 -348 272 -348q267 0 267 336v844h323v-813q0 -646 -602 -646q-584 0 -584 631zM362 1682q0 47 34.5 77t86.5 30q53 0 87 -30t34 -77t-33 -77t-88 -30q-53 0 -87 31t-34 76zM578 1861l260 323h280l-313 -323h-227zM802 1682q0 47 33.5 77t86.5 30 t87 -30t34 -77t-33 -77t-88 -30q-52 0 -86 30.5t-34 76.5z" />
<glyph unicode="&#x1d8;" horiz-adv-x="1239" d="M117 406v618h315v-590q0 -217 172 -217q85 0 136 59.5t51 161.5v586h315v-1024h-315v156h-5q-117 -181 -313 -181q-356 0 -356 431zM242 1303q0 47 34.5 77t86.5 30q53 0 87 -30t34 -77t-33 -77t-88 -30q-53 0 -87 31t-34 76zM458 1482l260 323h280l-313 -323h-227z M682 1303q0 47 33.5 77t86.5 30t87 -30t34 -77t-33 -77t-88 -30q-52 0 -86 30.5t-34 76.5z" />
<glyph unicode="&#x1d9;" horiz-adv-x="1481" d="M147 606v828h324v-832q0 -348 272 -348q267 0 267 336v844h323v-813q0 -646 -602 -646q-584 0 -584 631zM375 2188h204l156 -188l156 188h205l-238 -325h-248zM415 1684q0 47 34.5 77t86.5 30q53 0 87 -30t34 -77t-33 -77t-88 -30q-53 0 -87 31t-34 76zM814 1684 q0 47 33.5 77t86.5 30t87 -30t34 -77t-33 -77t-88 -30q-52 0 -86 30.5t-34 76.5z" />
<glyph unicode="&#x1da;" horiz-adv-x="1239" d="M117 406v618h315v-590q0 -217 172 -217q85 0 136 59.5t51 161.5v586h315v-1024h-315v156h-5q-117 -181 -313 -181q-356 0 -356 431zM255 1808h204l156 -188l156 188h205l-238 -325h-248zM295 1304q0 47 34.5 77t86.5 30q53 0 87 -30t34 -77t-33 -77t-88 -30q-53 0 -87 31 t-34 76zM694 1304q0 47 33.5 77t86.5 30t87 -30t34 -77t-33 -77t-88 -30q-52 0 -86 30.5t-34 76.5z" />
<glyph unicode="&#x1db;" horiz-adv-x="1481" d="M147 606v828h324v-832q0 -348 272 -348q267 0 267 336v844h323v-813q0 -646 -602 -646q-584 0 -584 631zM347 2184h280l261 -323h-228zM422 1682q0 47 34 77t87 30t86.5 -30t33.5 -77q0 -46 -34 -76.5t-86 -30.5q-55 0 -88 30t-33 77zM861 1682q0 47 34 77t87 30 q52 0 86.5 -30t34.5 -77q0 -45 -34 -76t-87 -31q-55 0 -88 30t-33 77z" />
<glyph unicode="&#x1dc;" horiz-adv-x="1239" d="M117 406v618h315v-590q0 -217 172 -217q85 0 136 59.5t51 161.5v586h315v-1024h-315v156h-5q-117 -181 -313 -181q-356 0 -356 431zM227 1805h280l261 -323h-228zM302 1303q0 47 34 77t87 30t86.5 -30t33.5 -77q0 -46 -34 -76.5t-86 -30.5q-55 0 -88 30t-33 77zM741 1303 q0 47 34 77t87 30q52 0 86.5 -30t34.5 -77q0 -45 -34 -76t-87 -31q-55 0 -88 30t-33 77z" />
<glyph unicode="&#x1dd;" horiz-adv-x="1108" d="M55 469v133h668q-15 223 -281 223q-168 0 -297 -80v228q143 76 369 76q248 0 385 -137.5t137 -383.5q0 -255 -148 -404t-364 -149q-224 0 -346.5 133t-122.5 361zM348 408q0 -220 178 -220q76 0 131.5 63t67.5 157h-377z" />
<glyph unicode="&#x1de;" horiz-adv-x="1440" d="M10 0l522 1434h383l510 -1434h-352l-102 319h-510l-101 -319h-350zM396 1703q0 47 34.5 77t86.5 30q53 0 87 -30t34 -77t-33 -77t-88 -30q-53 0 -87 31t-34 76zM423 1882v172h586v-172h-586zM530 567h367l-154 482q-17 54 -24 129h-8q-5 -63 -25 -125zM795 1703 q0 47 33.5 77t86.5 30t87 -30t34 -77t-33 -77t-88 -30q-52 0 -86 30.5t-34 76.5z" />
<glyph unicode="&#x1df;" d="M57 285q0 298 353 344l278 37q0 168 -182 168q-183 0 -348 -109v238q66 34 180.5 60t208.5 26q438 0 438 -437v-612h-299v147h-4q-103 -172 -305 -172q-149 0 -234.5 84.5t-85.5 225.5zM238 1323q0 47 34.5 77t86.5 30q53 0 87 -30t34 -77t-33 -77t-88 -30q-53 0 -87 31 t-34 76zM265 1502v172h586v-172h-586zM348 322q0 -54 37.5 -88.5t101.5 -34.5q89 0 145 61.5t56 155.5v69l-186 -24q-154 -20 -154 -139zM637 1323q0 47 33.5 77t86.5 30t87 -30t34 -77t-33 -77t-88 -30q-52 0 -86 30.5t-34 76.5z" />
<glyph unicode="&#x1e0;" horiz-adv-x="1440" d="M10 0l522 1434h383l510 -1434h-352l-102 319h-510l-101 -319h-350zM428 1884v172h586v-172h-586zM530 567h367l-154 482q-17 54 -24 129h-8q-5 -63 -25 -125zM600 1705q0 47 34.5 77t86.5 30q53 0 87 -30t34 -77t-33 -77t-88 -30q-53 0 -87 31t-34 76z" />
<glyph unicode="&#x1e1;" d="M57 285q0 298 353 344l278 37q0 168 -182 168q-183 0 -348 -109v238q66 34 180.5 60t208.5 26q438 0 438 -437v-612h-299v147h-4q-103 -172 -305 -172q-149 0 -234.5 84.5t-85.5 225.5zM260 1509v172h586v-172h-586zM348 322q0 -54 37.5 -88.5t101.5 -34.5q89 0 145 61.5 t56 155.5v69l-186 -24q-154 -20 -154 -139zM432 1330q0 47 34.5 77t86.5 30q53 0 87 -30t34 -77t-33 -77t-88 -30q-53 0 -87 31t-34 76z" />
<glyph unicode="&#x1e2;" horiz-adv-x="1915" d="M-2 0l725 1434h1094v-263h-504v-319h469v-262h-469v-328h536v-262h-858v319h-471l-147 -319h-375zM631 567h360v604h-78zM966 1585v172h586v-172h-586z" />
<glyph unicode="&#x1e3;" horiz-adv-x="1696" d="M57 287q0 146 96.5 234t276.5 102l256 20q0 191 -184 191q-174 0 -344 -107v236q187 86 370 86q234 0 324 -134h4q132 134 326 134q214 0 336 -133t122 -365v-129h-667q20 -223 282 -223q160 0 297 80v-226q-156 -78 -378 -78q-269 0 -398 179h-4q-141 -179 -362 -179 q-166 0 -259.5 82.5t-93.5 229.5zM346 315q0 -50 39 -83t102 -33q86 0 142.5 59.5t56.5 155.5v45l-156 -13q-184 -15 -184 -131zM555 1210v172h586v-172h-586zM973 616h375q0 220 -177 220q-75 0 -131.5 -62t-66.5 -158z" />
<glyph unicode="&#x1e4;" horiz-adv-x="1456" d="M74 694q0 338 218 551t580 213q228 0 402 -63v-303q-166 96 -406 96q-201 0 -327.5 -130.5t-126.5 -348.5q0 -224 115 -348.5t305 -124.5q106 0 184 28v78h-287v190h287v98h-287v217h610v-315h136v-190h-136v-246q-210 -121 -522 -121q-346 0 -545.5 191.5t-199.5 527.5z " />
<glyph unicode="&#x1e5;" horiz-adv-x="1268" d="M72 535q0 235 125 374.5t340 139.5q187 0 280 -144h4v119h316v-1008h131v-190h-160q-105 -307 -588 -307q-233 0 -354 59v260q148 -86 362 -86q192 0 252 74h-141v190h182v197h-4q-91 -172 -299 -172q-196 0 -321 137t-125 357zM393 539q0 -119 58.5 -187.5t154.5 -68.5 q97 0 158 75.5t61 194.5v20q0 102 -57 168t-150 66q-107 0 -166 -70t-59 -198z" />
<glyph unicode="&#x1e6;" horiz-adv-x="1456" d="M74 694q0 338 218 551t580 213q228 0 402 -63v-303q-166 96 -406 96q-201 0 -327.5 -130.5t-126.5 -348.5q0 -221 113.5 -342t306.5 -121q116 0 184 33v280h-287v258h610v-721q-210 -121 -522 -121q-346 0 -545.5 191.5t-199.5 527.5zM436 1883h205l155 -188l156 188h205 l-238 -325h-248z" />
<glyph unicode="&#x1e7;" horiz-adv-x="1268" d="M72 483q0 260 128 413t337 153q187 0 280 -144h4v119h316v-907q0 -285 -165 -441.5t-478 -156.5q-207 0 -328 59v266q158 -92 319 -92q160 0 248 84.5t88 229.5v81h-4q-108 -172 -319 -172q-196 0 -311 138t-115 370zM246 1499h205l155 -188l156 188h205l-238 -325h-248z M393 494q0 -128 57 -202.5t156 -74.5q98 0 158.5 75.5t60.5 199.5v81q0 97 -57.5 165.5t-149.5 68.5q-105 0 -165 -82t-60 -231z" />
<glyph unicode="&#x1e8;" horiz-adv-x="1329" d="M164 0v1434h323v-678h5q12 28 40 80l396 598h385l-500 -684l543 -750h-408l-418 623q-12 18 -38 79h-5v-702h-323zM326 1883h205l155 -188l156 188h205l-238 -325h-248z" />
<glyph unicode="&#x1e9;" horiz-adv-x="1145" d="M133 0v1516h316v-965h4l305 473h375l-367 -481l393 -543h-379l-327 508h-4v-508h-316zM250 1883h205l155 -188l156 188h205l-238 -325h-248z" />
<glyph unicode="&#x1ea;" horiz-adv-x="1553" d="M74 698q0 340 197 550t522 210q307 0 496.5 -201t189.5 -530q0 -338 -196.5 -545t-512.5 -207q-308 0 -502 200.5t-194 522.5zM414 715q0 -213 100 -337t262 -124q167 0 265 120.5t98 334.5q0 223 -95 347t-260 124q-170 0 -270 -127.5t-100 -337.5zM642 -245 q0 31 11 64.5t32 66t52 61.5t71 53h155q-78 -57 -115.5 -111.5t-37.5 -96.5q0 -33 17 -49.5t46 -16.5q19 0 40 3t41 9l1 -138q-24 -8 -57.5 -13.5t-68.5 -5.5q-85 0 -136 44.5t-51 129.5z" />
<glyph unicode="&#x1eb;" horiz-adv-x="1252" d="M72 508q0 254 152 397.5t411 143.5q255 0 400 -143.5t145 -379.5q0 -255 -149.5 -403t-409.5 -148q-256 0 -402.5 143.5t-146.5 389.5zM393 512q0 -295 238 -295q227 0 227 303q0 287 -229 287q-112 0 -174 -77t-62 -218zM488 -245q0 31 11 64.5t32 66t52 61.5t71 53h155 q-78 -57 -115.5 -111.5t-37.5 -96.5q0 -33 17 -49.5t46 -16.5q19 0 40 3t41 9l1 -138q-24 -8 -57.5 -13.5t-68.5 -5.5q-85 0 -136 44.5t-51 129.5z" />
<glyph unicode="&#x1ec;" horiz-adv-x="1553" d="M74 698q0 340 197 550t522 210q307 0 496.5 -201t189.5 -530q0 -338 -196.5 -545t-512.5 -207q-308 0 -502 200.5t-194 522.5zM414 715q0 -213 100 -337t262 -124q167 0 265 120.5t98 334.5q0 223 -95 347t-260 124q-170 0 -270 -127.5t-100 -337.5zM483 1585v172h586 v-172h-586zM642 -245q0 31 11 64.5t32 66t52 61.5t71 53h155q-78 -57 -115.5 -111.5t-37.5 -96.5q0 -33 17 -49.5t46 -16.5q19 0 40 3t41 9l1 -138q-24 -8 -57.5 -13.5t-68.5 -5.5q-85 0 -136 44.5t-51 129.5z" />
<glyph unicode="&#x1ed;" horiz-adv-x="1252" d="M72 508q0 254 152 397.5t411 143.5q255 0 400 -143.5t145 -379.5q0 -255 -149.5 -403t-409.5 -148q-256 0 -402.5 143.5t-146.5 389.5zM334 1210v172h586v-172h-586zM393 512q0 -295 238 -295q227 0 227 303q0 287 -229 287q-112 0 -174 -77t-62 -218zM488 -245 q0 31 11 64.5t32 66t52 61.5t71 53h155q-78 -57 -115.5 -111.5t-37.5 -96.5q0 -33 17 -49.5t46 -16.5q19 0 40 3t41 9l1 -138q-24 -8 -57.5 -13.5t-68.5 -5.5q-85 0 -136 44.5t-51 129.5z" />
<glyph unicode="&#x1ee;" horiz-adv-x="1370" d="M41 -43q213 -160 487 -160q196 0 312 92t116 246q0 157 -129.5 244.5t-361.5 87.5h-143v186l460 518h-725v263h1155v-181l-477 -538q258 -38 409.5 -190.5t151.5 -383.5q0 -274 -216.5 -448t-551.5 -174q-260 0 -487 119v319zM244 1883h205l155 -188l156 188h205 l-238 -325h-248z" />
<glyph unicode="&#x1ef;" horiz-adv-x="1016" d="M-23 -115q157 -125 355 -125q164 0 255 65.5t91 182.5q0 115 -94 179.5t-262 64.5h-125v131l350 408h-537v233h914v-156l-363 -413q205 -32 319.5 -146t114.5 -293q0 -219 -183 -358t-462 -139q-208 0 -373 92v274zM92 1499h205l155 -188l156 188h205l-238 -325h-248z " />
<glyph unicode="&#x1f0;" horiz-adv-x="582" d="M-133 -203q66 -37 117 -37q149 0 149 234v1030h316v-1006q0 -227 -111 -363t-320 -136q-69 0 -151 30v248zM-70 1499h205l155 -188l156 188h205l-238 -325h-248z" />
<glyph unicode="&#x1f1;" horiz-adv-x="2654" d="M164 0v1434h508q764 0 764 -699q0 -335 -208.5 -535t-555.5 -200h-508zM487 262h160q210 0 329.5 126t119.5 343q0 205 -118.5 322.5t-332.5 117.5h-158v-909zM1452 0v186l735 985h-682v263h1100v-181l-719 -991h721v-262h-1155z" />
<glyph unicode="&#x1f2;" horiz-adv-x="2476" d="M164 0v1434h508q764 0 764 -699q0 -335 -208.5 -535t-555.5 -200h-508zM487 262h160q210 0 329.5 126t119.5 343q0 205 -118.5 322.5t-332.5 117.5h-158v-909zM1520 0v131l514 660h-463v233h864v-156l-487 -635h491v-233h-919z" />
<glyph unicode="&#x1f3;" horiz-adv-x="2224" d="M72 489q0 254 129 407t338 153q198 0 276 -142h4v609h316v-1516h-316v141h-4q-108 -166 -317 -166q-192 0 -309 135.5t-117 378.5zM393 498q0 -135 57 -208t158 -73q96 0 156.5 77t60.5 204v77q0 100 -58 166t-151 66q-105 0 -164 -82.5t-59 -226.5zM1268 0v131l514 660 h-463v233h864v-156l-487 -635h491v-233h-919z" />
<glyph unicode="&#x1f4;" horiz-adv-x="1456" d="M74 694q0 338 218 551t580 213q228 0 402 -63v-303q-166 96 -406 96q-201 0 -327.5 -130.5t-126.5 -348.5q0 -221 113.5 -342t306.5 -121q116 0 184 33v280h-287v258h610v-721q-210 -121 -522 -121q-346 0 -545.5 191.5t-199.5 527.5zM672 1564l260 323h281l-313 -323 h-228z" />
<glyph unicode="&#x1f5;" horiz-adv-x="1268" d="M72 483q0 260 128 413t337 153q187 0 280 -144h4v119h316v-907q0 -285 -165 -441.5t-478 -156.5q-207 0 -328 59v266q158 -92 319 -92q160 0 248 84.5t88 229.5v81h-4q-108 -172 -319 -172q-196 0 -311 138t-115 370zM393 494q0 -128 57 -202.5t156 -74.5 q98 0 158.5 75.5t60.5 199.5v81q0 97 -57.5 165.5t-149.5 68.5q-105 0 -165 -82t-60 -231zM461 1188l260 323h281l-313 -323h-228z" />
<glyph unicode="&#x1f6;" horiz-adv-x="2216" d="M164 0v1434h323v-572h553v572h324v-940q0 -240 203 -240q202 0 202 240v530h324v-528q0 -253 -138 -387t-394 -134q-247 0 -384 133t-137 381v95h-553v-584h-323z" />
<glyph unicode="&#x1f7;" horiz-adv-x="1526" d="M223 -471v1905h324v-146h4q163 170 428 170q210 0 341.5 -137t131.5 -348q0 -284 -245.5 -550.5t-659.5 -446.5v-447h-324zM547 300q250 123 408.5 299.5t158.5 348.5q0 95 -60.5 163.5t-152.5 68.5q-172 0 -354 -199v-681z" />
<glyph unicode="&#x1f8;" horiz-adv-x="1618" d="M164 0v1434h348l569 -873q39 -59 72 -117h4q-8 50 -8 197v793h305v-1434h-326l-591 901q-52 79 -72 119h-4q8 -76 8 -232v-788h-305zM383 1893h281l260 -323h-227z" />
<glyph unicode="&#x1f9;" horiz-adv-x="1239" d="M133 0v1024h316v-162h4q113 187 329 187q340 0 340 -422v-627h-315v569q0 238 -170 238q-82 0 -135 -63t-53 -160v-584h-316zM223 1511h281l260 -323h-227z" />
<glyph unicode="&#x1fa;" horiz-adv-x="1440" d="M10 0l512 1407q-53 54 -53 137q0 106 73.5 169t180.5 63q114 0 184 -63.5t70 -164.5q0 -80 -53 -137l501 -1411h-352l-102 319h-510l-101 -319h-350zM496 1858l260 323h281l-313 -323h-228zM535 584h358l-152 465q-13 40 -22 120h-8q-7 -68 -23 -116zM616 1546 q0 -98 103 -98q48 0 77 28.5t29 69.5q0 43 -29.5 71t-76.5 28t-75 -28.5t-28 -70.5z" />
<glyph unicode="&#x1fb;" d="M57 285q0 298 353 344l278 37q0 168 -182 168q-183 0 -348 -109v238q66 34 180.5 60t208.5 26q438 0 438 -437v-612h-299v147h-4q-103 -172 -305 -172q-149 0 -234.5 84.5t-85.5 225.5zM338 1350q0 101 69.5 161t170.5 60q107 0 173 -59.5t66 -155.5q0 -98 -71.5 -159.5 t-172.5 -61.5q-102 0 -168.5 59.5t-66.5 155.5zM348 322q0 -54 37.5 -88.5t101.5 -34.5q89 0 145 61.5t56 155.5v69l-186 -24q-154 -20 -154 -139zM350 1659l260 323h281l-313 -323h-228zM477 1354q0 -94 96 -94q45 0 74 27.5t29 66.5q0 41 -28.5 67.5t-74.5 26.5 q-96 0 -96 -94z" />
<glyph unicode="&#x1fc;" horiz-adv-x="1915" d="M-2 0l725 1434h1094v-263h-504v-319h469v-262h-469v-328h536v-262h-858v319h-471l-147 -319h-375zM631 567h360v604h-78zM985 1567l260 323h281l-313 -323h-228z" />
<glyph unicode="&#x1fd;" horiz-adv-x="1696" d="M57 287q0 146 96.5 234t276.5 102l256 20q0 191 -184 191q-174 0 -344 -107v236q187 86 370 86q234 0 324 -134h4q132 134 326 134q214 0 336 -133t122 -365v-129h-667q20 -223 282 -223q160 0 297 80v-226q-156 -78 -378 -78q-269 0 -398 179h-4q-141 -179 -362 -179 q-166 0 -259.5 82.5t-93.5 229.5zM346 315q0 -50 39 -83t102 -33q86 0 142.5 59.5t56.5 155.5v45l-156 -13q-184 -15 -184 -131zM639 1186l260 323h281l-313 -323h-228zM973 616h375q0 220 -177 220q-75 0 -131.5 -62t-66.5 -158z" />
<glyph unicode="&#x1fe;" horiz-adv-x="1553" d="M74 698q0 340 196.5 550t522.5 210q234 0 401 -119l129 150l125 -103l-135 -157q166 -196 166 -502q0 -338 -196.5 -545t-512.5 -207q-240 0 -422 134l-143 -170l-125 104l149 176q-155 192 -155 479zM391 709q0 -146 47 -252l578 673q-97 76 -232 76q-181 0 -287 -136.5 t-106 -360.5zM532 319q101 -92 244 -92q175 0 281 128.5t106 351.5q0 164 -53 288zM608 1567l260 323h281l-313 -323h-228z" />
<glyph unicode="&#x1ff;" horiz-adv-x="1252" d="M39 29l137 143q-104 141 -104 338q0 253 152.5 397t412.5 144q179 0 311 -82l139 147l119 -106l-139 -146q113 -143 113 -338q0 -259 -148 -404t-411 -145q-198 0 -328 86l-135 -141zM373 514q0 -73 18 -121l381 398q-56 40 -141 40q-258 0 -258 -317zM417 1186l260 323 h281l-313 -323h-228zM469 242q61 -45 160 -45q252 0 252 323q0 74 -19 131z" />
<glyph unicode="&#x200;" horiz-adv-x="1440" d="M10 0l522 1434h383l510 -1434h-352l-102 319h-510l-101 -319h-350zM181 1888h250l213 -319h-211zM530 567h367l-154 482q-17 54 -24 129h-8q-5 -63 -25 -125zM560 1888h247l211 -319h-211z" />
<glyph unicode="&#x201;" d="M44 1505h250l213 -319h-211zM57 285q0 298 353 344l278 37q0 168 -182 168q-183 0 -348 -109v238q66 34 180.5 60t208.5 26q438 0 438 -437v-612h-299v147h-4q-103 -172 -305 -172q-149 0 -234.5 84.5t-85.5 225.5zM348 322q0 -54 37.5 -88.5t101.5 -34.5q89 0 145 61.5 t56 155.5v69l-186 -24q-154 -20 -154 -139zM423 1505h247l211 -319h-211z" />
<glyph unicode="&#x202;" horiz-adv-x="1440" d="M10 0l522 1434h383l510 -1434h-352l-102 319h-510l-101 -319h-350zM383 1553q12 141 102.5 224t237.5 83q146 0 238 -85.5t96 -221.5h-180q-17 135 -158 135q-136 0 -156 -135h-180zM530 567h367l-154 482q-17 54 -24 129h-8q-5 -63 -25 -125z" />
<glyph unicode="&#x203;" d="M57 285q0 298 353 344l278 37q0 168 -182 168q-183 0 -348 -109v238q66 34 180.5 60t208.5 26q438 0 438 -437v-612h-299v147h-4q-103 -172 -305 -172q-149 0 -234.5 84.5t-85.5 225.5zM215 1176q12 141 102.5 224t237.5 83q146 0 238 -85.5t96 -221.5h-180 q-17 135 -158 135q-136 0 -156 -135h-180zM348 322q0 -54 37.5 -88.5t101.5 -34.5q89 0 145 61.5t56 155.5v69l-186 -24q-154 -20 -154 -139z" />
<glyph unicode="&#x204;" horiz-adv-x="1090" d="M44 1888h250l213 -319h-211zM164 0v1434h827v-263h-504v-319h469v-262h-469v-328h537v-262h-860zM423 1888h247l211 -319h-211z" />
<glyph unicode="&#x205;" horiz-adv-x="1108" d="M54 1505h250l213 -319h-211zM72 496q0 255 148 404t364 149q224 0 346.5 -133t122.5 -361v-133h-668q16 -223 281 -223q169 0 297 80v-228q-142 -76 -369 -76q-248 0 -385 137.5t-137 383.5zM383 616h377q0 220 -178 220q-76 0 -131.5 -63t-67.5 -157zM433 1505h247 l211 -319h-211z" />
<glyph unicode="&#x206;" horiz-adv-x="1090" d="M164 0v1434h827v-263h-504v-319h469v-262h-469v-328h537v-262h-860zM241 1553q12 141 102.5 224t237.5 83q146 0 238 -85.5t96 -221.5h-180q-17 135 -158 135q-136 0 -156 -135h-180z" />
<glyph unicode="&#x207;" horiz-adv-x="1108" d="M72 496q0 255 148 404t364 149q224 0 346.5 -133t122.5 -361v-133h-668q16 -223 281 -223q169 0 297 80v-228q-142 -76 -369 -76q-248 0 -385 137.5t-137 383.5zM217 1176q12 141 102.5 224t237.5 83q146 0 238 -85.5t96 -221.5h-180q-17 135 -158 135q-136 0 -156 -135 h-180zM383 616h377q0 220 -178 220q-76 0 -131.5 -63t-67.5 -157z" />
<glyph unicode="&#x208;" horiz-adv-x="649" d="M-197 1888h250l213 -319h-211zM164 0v1434h323v-1434h-323zM182 1888h247l211 -319h-211z" />
<glyph unicode="&#x209;" horiz-adv-x="582" d="M-223 1505h250l213 -319h-211zM133 0v1024h316v-1024h-316zM156 1505h247l211 -319h-211z" />
<glyph unicode="&#x20a;" horiz-adv-x="649" d="M-11 1553q12 141 102.5 224t237.5 83q146 0 238 -85.5t96 -221.5h-180q-17 135 -158 135q-136 0 -156 -135h-180zM164 0v1434h323v-1434h-323z" />
<glyph unicode="&#x20b;" horiz-adv-x="582" d="M-46 1176q12 141 102.5 224t237.5 83q146 0 238 -85.5t96 -221.5h-180q-17 135 -158 135q-136 0 -156 -135h-180zM133 0v1024h316v-1024h-316z" />
<glyph unicode="&#x20c;" horiz-adv-x="1553" d="M74 698q0 340 197 550t522 210q307 0 496.5 -201t189.5 -530q0 -338 -196.5 -545t-512.5 -207q-308 0 -502 200.5t-194 522.5zM263 1888h250l213 -319h-211zM414 715q0 -213 100 -337t262 -124q167 0 265 120.5t98 334.5q0 223 -95 347t-260 124q-170 0 -270 -127.5 t-100 -337.5zM642 1888h247l211 -319h-211z" />
<glyph unicode="&#x20d;" horiz-adv-x="1252" d="M72 508q0 254 152 397.5t411 143.5q255 0 400 -143.5t145 -379.5q0 -255 -149.5 -403t-409.5 -148q-256 0 -402.5 143.5t-146.5 389.5zM121 1505h250l213 -319h-211zM393 512q0 -295 238 -295q227 0 227 303q0 287 -229 287q-112 0 -174 -77t-62 -218zM500 1505h247 l211 -319h-211z" />
<glyph unicode="&#x20e;" horiz-adv-x="1553" d="M74 698q0 340 197 550t522 210q307 0 496.5 -201t189.5 -530q0 -338 -196.5 -545t-512.5 -207q-308 0 -502 200.5t-194 522.5zM414 715q0 -213 100 -337t262 -124q167 0 265 120.5t98 334.5q0 223 -95 347t-260 124q-170 0 -270 -127.5t-100 -337.5zM440 1553 q12 141 102.5 224t237.5 83q146 0 238 -85.5t96 -221.5h-180q-17 135 -158 135q-136 0 -156 -135h-180z" />
<glyph unicode="&#x20f;" horiz-adv-x="1252" d="M72 508q0 254 152 397.5t411 143.5q255 0 400 -143.5t145 -379.5q0 -255 -149.5 -403t-409.5 -148q-256 0 -402.5 143.5t-146.5 389.5zM289 1176q12 141 102.5 224t237.5 83q146 0 238 -85.5t96 -221.5h-180q-17 135 -158 135q-136 0 -156 -135h-180zM393 512 q0 -295 238 -295q227 0 227 303q0 287 -229 287q-112 0 -174 -77t-62 -218z" />
<glyph unicode="&#x210;" horiz-adv-x="1337" d="M109 1888h250l213 -319h-211zM164 0v1434h512q522 0 522 -390q0 -75 -23 -138.5t-65 -114.5t-101.5 -88t-132.5 -58v-4q32 -10 62 -32.5t58 -52.5t53.5 -64.5t46.5 -67.5l271 -424h-371l-223 369q-25 42 -48 75t-46.5 56.5t-49 36t-55.5 12.5h-87v-549h-323zM487 793h140 q104 0 167 60q64 61 64 151q0 188 -225 188h-146v-399zM488 1888h247l211 -319h-211z" />
<glyph unicode="&#x211;" horiz-adv-x="815" d="M-102 1505h250l213 -319h-211zM133 0v1024h316v-190h4q75 208 270 208q50 0 78 -12v-291q-57 31 -133 31q-103 0 -161 -75.5t-58 -205.5v-489h-316zM277 1505h247l211 -319h-211z" />
<glyph unicode="&#x212;" horiz-adv-x="1337" d="M164 0v1434h512q522 0 522 -390q0 -75 -23 -138.5t-65 -114.5t-101.5 -88t-132.5 -58v-4q32 -10 62 -32.5t58 -52.5t53.5 -64.5t46.5 -67.5l271 -424h-371l-223 369q-25 42 -48 75t-46.5 56.5t-49 36t-55.5 12.5h-87v-549h-323zM291 1553q12 141 102.5 224t237.5 83 q146 0 238 -85.5t96 -221.5h-180q-17 135 -158 135q-136 0 -156 -135h-180zM487 793h140q104 0 167 60q64 61 64 151q0 188 -225 188h-146v-399z" />
<glyph unicode="&#x213;" horiz-adv-x="815" d="M133 0v1024h316v-190h4q75 208 270 208q50 0 78 -12v-291q-57 31 -133 31q-103 0 -161 -75.5t-58 -205.5v-489h-316zM133 1176q12 141 102.5 224t237.5 83q146 0 238 -85.5t96 -221.5h-180q-17 135 -158 135q-136 0 -156 -135h-180z" />
<glyph unicode="&#x214;" horiz-adv-x="1481" d="M147 606v828h324v-832q0 -348 272 -348q267 0 267 336v844h323v-813q0 -646 -602 -646q-584 0 -584 631zM205 1888h250l213 -319h-211zM584 1888h247l211 -319h-211z" />
<glyph unicode="&#x215;" horiz-adv-x="1239" d="M91 1505h250l213 -319h-211zM117 406v618h315v-590q0 -217 172 -217q85 0 136 59.5t51 161.5v586h315v-1024h-315v156h-5q-117 -181 -313 -181q-356 0 -356 431zM470 1505h247l211 -319h-211z" />
<glyph unicode="&#x216;" horiz-adv-x="1481" d="M147 606v828h324v-832q0 -348 272 -348q267 0 267 336v844h323v-813q0 -646 -602 -646q-584 0 -584 631zM403 1553q12 141 102.5 224t237.5 83q146 0 238 -85.5t96 -221.5h-180q-17 135 -158 135q-136 0 -156 -135h-180z" />
<glyph unicode="&#x217;" horiz-adv-x="1239" d="M117 406v618h315v-590q0 -217 172 -217q85 0 136 59.5t51 161.5v586h315v-1024h-315v156h-5q-117 -181 -313 -181q-356 0 -356 431zM282 1176q12 141 102.5 224t237.5 83q146 0 238 -85.5t96 -221.5h-180q-17 135 -158 135q-136 0 -156 -135h-180z" />
<glyph unicode="&#x218;" horiz-adv-x="1148" d="M92 1032q0 112 45 192.5t122.5 132.5t179.5 76.5t216 24.5q112 0 198.5 -13.5t159.5 -41.5v-299q-36 25 -78.5 44t-87.5 31.5t-89.5 18.5t-84.5 6q-55 0 -100 -10.5t-76 -29.5t-48 -45.5t-17 -59.5q0 -36 19 -64.5t54 -54t85 -50t113 -50.5q86 -36 154.5 -76.5 t117.5 -91.5t75 -116.5t26 -152.5q0 -120 -45.5 -201.5t-123.5 -132t-181.5 -72.5t-218.5 -22q-118 0 -224.5 20t-184.5 60v320q87 -73 189 -109.5t206 -36.5q61 0 106.5 11t76 30.5t45.5 46t15 57.5q0 42 -24 75t-65.5 61t-98.5 54t-123 53q-168 70 -250.5 171t-82.5 244z M367 -469l90 352h272l-168 -352h-194z" />
<glyph unicode="&#x219;" horiz-adv-x="901" d="M66 27v256q78 -47 155.5 -70t146.5 -23q84 0 132.5 23t48.5 70q0 30 -22 50t-56.5 35t-75.5 27t-79 27q-61 23 -107.5 49.5t-78 61.5t-48 81t-16.5 109q0 86 37.5 148t100 101.5t143 58t167.5 18.5q68 0 138 -10.5t138 -30.5v-244q-60 35 -128.5 52.5t-134.5 17.5 q-31 0 -58.5 -5.5t-48.5 -16t-33 -27t-12 -37.5q0 -28 18 -48t47 -34.5t64.5 -26t70.5 -23.5q63 -22 114 -48t87.5 -61t56 -82t19.5 -112q0 -91 -39.5 -155.5t-105 -105t-151 -59t-177.5 -18.5q-169 0 -313 52zM246 -469l90 352h272l-168 -352h-194z" />
<glyph unicode="&#x21a;" horiz-adv-x="1200" d="M31 1171v263h1140v-263h-409v-1171h-324v1171h-407zM410 -469l90 352h272l-168 -352h-194z" />
<glyph unicode="&#x21b;" horiz-adv-x="797" d="M41 791v233h166v221l315 90v-311h230v-233h-230v-414q0 -160 127 -160q50 0 103 29v-234q-70 -37 -211 -37q-334 0 -334 347v469h-166zM280 -469l90 352h272l-168 -352h-194z" />
<glyph unicode="&#x21c;" horiz-adv-x="1176" d="M0 -176q97 -27 238 -27q232 0 378 97t146 253q0 121 -85 197t-226 76q-106 0 -226 -41v276l125 35q334 94 334 279q0 95 -80.5 153t-218.5 58q-188 0 -356 -95v293q169 80 393 80q276 0 436 -129t160 -338q0 -254 -260 -368v-5q161 -41 252.5 -157.5t91.5 -286.5 q0 -275 -240.5 -465t-617.5 -190q-159 0 -244 20v285z" />
<glyph unicode="&#x21d;" horiz-adv-x="1012" d="M10 -217q86 -23 211 -23q191 0 309.5 70t118.5 186q0 90 -68.5 144.5t-187.5 54.5q-77 0 -182 -35v240l100 24q273 66 273 203q0 160 -244 160q-160 0 -303 -76v254q146 64 340 64q239 0 378.5 -103t139.5 -270q0 -201 -215 -291v-2q134 -29 212.5 -120.5t78.5 -225.5 q0 -220 -208.5 -369t-535.5 -149q-139 0 -217 18v246z" />
<glyph unicode="&#x21e;" horiz-adv-x="1569" d="M164 0v1434h323v-572h594v572h324v-1434h-324v584h-594v-584h-323zM424 1883h205l155 -188l156 188h205l-238 -325h-248z" />
<glyph unicode="&#x21f;" horiz-adv-x="1233" d="M133 0v1516h316v-644h4q116 177 315 177q348 0 348 -420v-629h-315v582q0 225 -164 225q-84 0 -136 -63t-52 -160v-584h-316zM250 1883h205l155 -188l156 188h205l-238 -325h-248z" />
<glyph unicode="&#x220;" horiz-adv-x="1600" d="M164 0v1434h323v-238h5q162 262 456 262q234 0 361 -155t127 -443v-1331h-324v1259q0 392 -289 392q-145 0 -240.5 -108t-95.5 -275v-797h-323z" />
<glyph unicode="&#x221;" horiz-adv-x="1377" d="M72 489q0 254 129 407t338 153q198 0 276 -142h4v609h316v-1430q0 -25 2 -55q99 47 202 47q146 0 245 -78.5t99 -192.5q0 -120 -100.5 -199t-261.5 -79t-281 80q-19 -41 -32 -90h-267q41 161 131 293q-53 118 -53 268v61h-4q-108 -166 -317 -166q-192 0 -309 135.5 t-117 378.5zM393 498q0 -135 57 -208t158 -73q96 0 156.5 77t60.5 204v77q0 100 -58 166t-151 66q-105 0 -164 -82.5t-59 -226.5zM1204 -186q52 -66 131 -66q92 0 92 55q0 56 -86 56q-72 0 -137 -45z" />
<glyph unicode="&#x222;" horiz-adv-x="1438" d="M74 494q0 319 280 438q-217 88 -217 315q0 96 35 187h309q-22 -72 -22 -154q0 -105 68 -167t190 -62q262 0 262 229q0 78 -23 154h310q34 -88 34 -187q0 -227 -217 -315q281 -111 281 -418q0 -240 -180 -389.5t-473 -149.5q-294 0 -465.5 142t-171.5 377zM414 510 q0 -118 80 -187t221 -69q146 0 227.5 70t81.5 192q0 115 -83.5 185.5t-225.5 70.5q-143 0 -222 -69.5t-79 -192.5z" />
<glyph unicode="&#x223;" horiz-adv-x="1295" d="M72 506q0 302 247 436q-192 98 -192 352q0 124 23 222h294q-16 -109 -16 -189q0 -278 219 -278t219 278q0 80 -16 189h295q22 -93 22 -216q0 -255 -196 -358q252 -113 252 -430q0 -241 -159 -389t-423 -148q-265 0 -417 144t-152 387zM393 512q0 -132 69 -213.5 t185 -81.5q119 0 186.5 79t67.5 216q0 132 -69 213.5t-185 81.5q-119 0 -186.5 -79t-67.5 -216z" />
<glyph unicode="&#x224;" horiz-adv-x="1243" d="M41 0v186l735 985h-682v263h1100v-181l-719 -991h365q452 0 452 -358q0 -130 -55 -252h-291q58 108 58 186q0 162 -207 162h-756z" />
<glyph unicode="&#x225;" horiz-adv-x="981" d="M25 0v131l514 660h-463v233h864v-156l-487 -635h241q367 0 367 -315q0 -109 -49 -227h-262q47 89 47 172q0 137 -162 137h-610z" />
<glyph unicode="&#x226;" horiz-adv-x="1440" d="M10 0l522 1434h383l510 -1434h-352l-102 319h-510l-101 -319h-350zM530 567h367l-154 482q-17 54 -24 129h-8q-5 -63 -25 -125zM566 1704q0 60 44 97.5t110 37.5q67 0 109.5 -38t42.5 -97t-42.5 -98t-109.5 -39t-110.5 40t-43.5 97z" />
<glyph unicode="&#x227;" d="M57 285q0 298 353 344l278 37q0 168 -182 168q-183 0 -348 -109v238q66 34 180.5 60t208.5 26q438 0 438 -437v-612h-299v147h-4q-103 -172 -305 -172q-149 0 -234.5 84.5t-85.5 225.5zM348 322q0 -54 37.5 -88.5t101.5 -34.5q89 0 145 61.5t56 155.5v69l-186 -24 q-154 -20 -154 -139zM399 1329q0 60 44 97.5t110 37.5q67 0 109.5 -38t42.5 -97t-42.5 -98t-109.5 -39t-110.5 40t-43.5 97z" />
<glyph unicode="&#x228;" horiz-adv-x="1090" d="M164 0v1434h827v-263h-504v-319h469v-262h-469v-328h537v-262h-860zM440 -313q35 -6 72 -6q123 0 123 73q0 66 -111 66q-13 0 -37 -2v182h172v-82q187 -8 187 -166q0 -207 -318 -207q-46 0 -88 4v138z" />
<glyph unicode="&#x229;" horiz-adv-x="1108" d="M72 496q0 255 148 404t364 149q224 0 346.5 -133t122.5 -361v-133h-668q16 -223 281 -223q169 0 297 80v-228q-142 -76 -369 -76q-248 0 -385 137.5t-137 383.5zM383 616h377q0 220 -178 220q-76 0 -131.5 -63t-67.5 -157zM408 -313q35 -6 72 -6q123 0 123 73 q0 66 -111 66q-13 0 -37 -2v182h172v-82q187 -8 187 -166q0 -207 -318 -207q-46 0 -88 4v138z" />
<glyph unicode="&#x22a;" horiz-adv-x="1553" d="M74 698q0 340 197 550t522 210q307 0 496.5 -201t189.5 -530q0 -338 -196.5 -545t-512.5 -207q-308 0 -502 200.5t-194 522.5zM414 715q0 -213 100 -337t262 -124q167 0 265 120.5t98 334.5q0 223 -95 347t-260 124q-170 0 -270 -127.5t-100 -337.5zM456 1703 q0 47 34.5 77t86.5 30q53 0 87 -30t34 -77t-33 -77t-88 -30q-53 0 -87 31t-34 76zM483 1882v172h586v-172h-586zM855 1703q0 47 33.5 77t86.5 30t87 -30t34 -77t-33 -77t-88 -30q-52 0 -86 30.5t-34 76.5z" />
<glyph unicode="&#x22b;" horiz-adv-x="1252" d="M72 508q0 254 152 397.5t411 143.5q255 0 400 -143.5t145 -379.5q0 -255 -149.5 -403t-409.5 -148q-256 0 -402.5 143.5t-146.5 389.5zM310 1323q0 47 34.5 77t86.5 30q53 0 87 -30t34 -77t-33 -77t-88 -30q-53 0 -87 31t-34 76zM337 1502v172h586v-172h-586zM393 512 q0 -295 238 -295q227 0 227 303q0 287 -229 287q-112 0 -174 -77t-62 -218zM709 1323q0 47 33.5 77t86.5 30t87 -30t34 -77t-33 -77t-88 -30q-52 0 -86 30.5t-34 76.5z" />
<glyph unicode="&#x22c;" horiz-adv-x="1553" d="M74 698q0 340 197 550t522 210q307 0 496.5 -201t189.5 -530q0 -338 -196.5 -545t-512.5 -207q-308 0 -502 200.5t-194 522.5zM414 715q0 -213 100 -337t262 -124q167 0 265 120.5t98 334.5q0 223 -95 347t-260 124q-170 0 -270 -127.5t-100 -337.5zM434 1582 q0 110 55.5 171t157.5 61q71 0 151 -35q85 -37 123 -37q76 0 76 76h143q0 -229 -209 -229q-60 0 -149 34q-96 37 -129 37q-76 0 -76 -78h-143zM494 1893v172h586v-172h-586z" />
<glyph unicode="&#x22d;" horiz-adv-x="1252" d="M72 508q0 254 152 397.5t411 143.5q255 0 400 -143.5t145 -379.5q0 -255 -149.5 -403t-409.5 -148q-256 0 -402.5 143.5t-146.5 389.5zM271 1201q0 110 55.5 171t157.5 61q71 0 151 -35q85 -37 123 -37q76 0 76 76h143q0 -229 -209 -229q-60 0 -149 34q-96 37 -129 37 q-76 0 -76 -78h-143zM331 1512v172h586v-172h-586zM393 512q0 -295 238 -295q227 0 227 303q0 287 -229 287q-112 0 -174 -77t-62 -218z" />
<glyph unicode="&#x22e;" horiz-adv-x="1553" d="M74 698q0 340 197 550t522 210q307 0 496.5 -201t189.5 -530q0 -338 -196.5 -545t-512.5 -207q-308 0 -502 200.5t-194 522.5zM414 715q0 -213 100 -337t262 -124q167 0 265 120.5t98 334.5q0 223 -95 347t-260 124q-170 0 -270 -127.5t-100 -337.5zM622 1704 q0 60 44 97.5t110 37.5q67 0 109.5 -38t42.5 -97t-42.5 -98t-109.5 -39t-110.5 40t-43.5 97z" />
<glyph unicode="&#x22f;" horiz-adv-x="1252" d="M72 508q0 254 152 397.5t411 143.5q255 0 400 -143.5t145 -379.5q0 -255 -149.5 -403t-409.5 -148q-256 0 -402.5 143.5t-146.5 389.5zM393 512q0 -295 238 -295q227 0 227 303q0 287 -229 287q-112 0 -174 -77t-62 -218zM471 1329q0 60 44 97.5t110 37.5q67 0 109.5 -38 t42.5 -97t-42.5 -98t-109.5 -39t-110.5 40t-43.5 97z" />
<glyph unicode="&#x230;" horiz-adv-x="1553" d="M74 698q0 340 197 550t522 210q307 0 496.5 -201t189.5 -530q0 -338 -196.5 -545t-512.5 -207q-308 0 -502 200.5t-194 522.5zM414 715q0 -213 100 -337t262 -124q167 0 265 120.5t98 334.5q0 223 -95 347t-260 124q-170 0 -270 -127.5t-100 -337.5zM483 1884v172h586 v-172h-586zM655 1705q0 47 34.5 77t86.5 30q53 0 87 -30t34 -77t-33 -77t-88 -30q-53 0 -87 31t-34 76z" />
<glyph unicode="&#x259;" horiz-adv-x="1108" d="M55 469v133h668q-15 223 -281 223q-168 0 -297 -80v228q143 76 369 76q248 0 385 -137.5t137 -383.5q0 -255 -148 -404t-364 -149q-224 0 -346.5 133t-122.5 361zM348 408q0 -220 178 -220q76 0 131.5 63t67.5 157h-377z" />
<glyph unicode="&#x2c6;" horiz-adv-x="785" d="M31 1186l235 325h248l236 -325h-207l-158 188l-147 -188h-207z" />
<glyph unicode="&#x2da;" horiz-adv-x="555" d="M39 1401q0 101 69.5 161t170.5 60q107 0 173 -59.5t66 -155.5q0 -98 -71.5 -159.5t-172.5 -61.5q-102 0 -168.5 59.5t-66.5 155.5zM178 1405q0 -94 96 -94q45 0 74 27.5t29 66.5q0 41 -28.5 67.5t-74.5 26.5q-96 0 -96 -94z" />
<glyph unicode="&#x2dc;" horiz-adv-x="785" d="M35 1186q0 139 55 216t154 77q81 0 168 -49q79 -44 120 -44q78 0 78 111h144q0 -140 -55.5 -216.5t-151.5 -76.5q-86 0 -168 43q-89 47 -123 47q-80 0 -80 -108h-141z" />
<glyph unicode="&#x1e00;" horiz-adv-x="1440" d="M10 0l522 1434h383l510 -1434h-352l-102 319h-510l-101 -319h-350zM484 -283q0 101 69.5 161t170.5 60q107 0 173 -59.5t66 -155.5q0 -98 -71.5 -159.5t-172.5 -61.5q-102 0 -168.5 59.5t-66.5 155.5zM530 567h367l-154 482q-17 54 -24 129h-8q-5 -63 -25 -125zM623 -279 q0 -94 96 -94q45 0 74 27.5t29 66.5q0 41 -28.5 67.5t-74.5 26.5q-96 0 -96 -94z" />
<glyph unicode="&#x1e01;" d="M57 285q0 298 353 344l278 37q0 168 -182 168q-183 0 -348 -109v238q66 34 180.5 60t208.5 26q438 0 438 -437v-612h-299v147h-4q-103 -172 -305 -172q-149 0 -234.5 84.5t-85.5 225.5zM280 -282q0 101 69.5 161t170.5 60q107 0 173 -59.5t66 -155.5q0 -98 -71.5 -159.5 t-172.5 -61.5q-102 0 -168.5 59.5t-66.5 155.5zM348 322q0 -54 37.5 -88.5t101.5 -34.5q89 0 145 61.5t56 155.5v69l-186 -24q-154 -20 -154 -139zM419 -278q0 -94 96 -94q45 0 74 27.5t29 66.5q0 41 -28.5 67.5t-74.5 26.5q-96 0 -96 -94z" />
<glyph unicode="&#x1e02;" horiz-adv-x="1313" d="M164 0v1434h522q240 0 369 -88t129 -248q0 -116 -78.5 -203t-200.5 -121v-4q153 -19 244.5 -113t91.5 -229q0 -197 -141 -312.5t-385 -115.5h-551zM480 1672q0 60 44 97.5t110 37.5q67 0 109.5 -38t42.5 -97t-42.5 -98t-109.5 -39t-110.5 40t-43.5 97zM487 238h175 q112 0 175.5 52t63.5 142q0 86 -62.5 135t-174.5 49h-177v-378zM487 856h142q100 0 157.5 48.5t57.5 133.5q0 158 -236 158h-121v-340z" />
<glyph unicode="&#x1e03;" horiz-adv-x="1270" d="M133 0v1516h316v-646h4q117 179 333 179q198 0 305 -136t107 -372q0 -256 -125 -411t-334 -155q-189 0 -286 144h-4v-119h-316zM444 446q0 -99 57 -164t146 -65q108 0 167.5 83.5t59.5 236.5q0 127 -54.5 198.5t-155.5 71.5q-95 0 -157.5 -71t-62.5 -185v-105zM604 1323 q0 60 44 97.5t110 37.5q67 0 109.5 -38t42.5 -97t-42.5 -98t-109.5 -39t-110.5 40t-43.5 97z" />
<glyph unicode="&#x1e04;" horiz-adv-x="1313" d="M164 0v1434h522q240 0 369 -88t129 -248q0 -116 -78.5 -203t-200.5 -121v-4q153 -19 244.5 -113t91.5 -229q0 -197 -141 -312.5t-385 -115.5h-551zM487 238h175q112 0 175.5 52t63.5 142q0 86 -62.5 135t-174.5 49h-177v-378zM487 856h142q100 0 157.5 48.5t57.5 133.5 q0 158 -236 158h-121v-340zM493 -254q0 60 44 97.5t110 37.5q67 0 109.5 -38t42.5 -97t-42.5 -98t-109.5 -39t-110.5 40t-43.5 97z" />
<glyph unicode="&#x1e05;" horiz-adv-x="1270" d="M133 0v1516h316v-646h4q117 179 333 179q198 0 305 -136t107 -372q0 -256 -125 -411t-334 -155q-189 0 -286 144h-4v-119h-316zM444 446q0 -99 57 -164t146 -65q108 0 167.5 83.5t59.5 236.5q0 127 -54.5 198.5t-155.5 71.5q-95 0 -157.5 -71t-62.5 -185v-105zM560 -254 q0 60 44 97.5t110 37.5q67 0 109.5 -38t42.5 -97t-42.5 -98t-109.5 -39t-110.5 40t-43.5 97z" />
<glyph unicode="&#x1e06;" horiz-adv-x="1313" d="M164 0v1434h522q240 0 369 -88t129 -248q0 -116 -78.5 -203t-200.5 -121v-4q153 -19 244.5 -113t91.5 -229q0 -197 -141 -312.5t-385 -115.5h-551zM369 -107h586v-172h-586v172zM487 238h175q112 0 175.5 52t63.5 142q0 86 -62.5 135t-174.5 49h-177v-378zM487 856h142 q100 0 157.5 48.5t57.5 133.5q0 158 -236 158h-121v-340z" />
<glyph unicode="&#x1e07;" horiz-adv-x="1270" d="M133 0v1516h316v-646h4q117 179 333 179q198 0 305 -136t107 -372q0 -256 -125 -411t-334 -155q-189 0 -286 144h-4v-119h-316zM390 -107h586v-172h-586v172zM444 446q0 -99 57 -164t146 -65q108 0 167.5 83.5t59.5 236.5q0 127 -54.5 198.5t-155.5 71.5 q-95 0 -157.5 -71t-62.5 -185v-105z" />
<glyph unicode="&#x1e08;" horiz-adv-x="1278" d="M74 686q0 344 212.5 558t551.5 214q210 0 354 -53v-311q-144 86 -328 86q-202 0 -326 -127t-124 -344q0 -208 117 -331.5t315 -123.5q189 0 346 92v-295q-157 -76 -410 -76q-330 0 -519 194t-189 517zM576 1535l260 323h281l-313 -323h-228zM610 -313q35 -6 72 -6 q123 0 123 73q0 66 -111 66q-13 0 -37 -2v182h172v-82q187 -8 187 -166q0 -207 -318 -207q-46 0 -88 4v138z" />
<glyph unicode="&#x1e09;" horiz-adv-x="983" d="M72 487q0 261 156.5 411.5t418.5 150.5q181 0 262 -48v-268q-99 74 -221 74q-136 0 -215.5 -79.5t-79.5 -219.5q0 -136 76 -213.5t209 -77.5q118 0 231 74v-254q-107 -62 -309 -62q-236 0 -382 143t-146 369zM379 1186l260 323h281l-313 -323h-228zM426 -313q35 -6 72 -6 q123 0 123 73q0 66 -111 66q-13 0 -37 -2v182h172v-82q187 -8 187 -166q0 -207 -318 -207q-46 0 -88 4v138z" />
<glyph unicode="&#x1e0a;" horiz-adv-x="1509" d="M164 0v1434h508q764 0 764 -699q0 -335 -208.5 -535t-555.5 -200h-508zM487 262h160q210 0 329.5 126t119.5 343q0 205 -118.5 322.5t-332.5 117.5h-158v-909zM564 1672q0 60 44 97.5t110 37.5q67 0 109.5 -38t42.5 -97t-42.5 -98t-109.5 -39t-110.5 40t-43.5 97z" />
<glyph unicode="&#x1e0b;" horiz-adv-x="1268" d="M72 489q0 254 129 407t338 153q198 0 276 -142h4v609h316v-1516h-316v141h-4q-108 -166 -317 -166q-192 0 -309 135.5t-117 378.5zM360 1323q0 60 44 97.5t110 37.5q67 0 109.5 -38t42.5 -97t-42.5 -98t-109.5 -39t-110.5 40t-43.5 97zM393 498q0 -135 57 -208t158 -73 q96 0 156.5 77t60.5 204v77q0 100 -58 166t-151 66q-105 0 -164 -82.5t-59 -226.5z" />
<glyph unicode="&#x1e0c;" horiz-adv-x="1509" d="M164 0v1434h508q764 0 764 -699q0 -335 -208.5 -535t-555.5 -200h-508zM487 262h160q210 0 329.5 126t119.5 343q0 205 -118.5 322.5t-332.5 117.5h-158v-909zM557 -254q0 60 44 97.5t110 37.5q67 0 109.5 -38t42.5 -97t-42.5 -98t-109.5 -39t-110.5 40t-43.5 97z" />
<glyph unicode="&#x1e0d;" horiz-adv-x="1268" d="M72 489q0 254 129 407t338 153q198 0 276 -142h4v609h316v-1516h-316v141h-4q-108 -166 -317 -166q-192 0 -309 135.5t-117 378.5zM393 -254q0 60 44 97.5t110 37.5q67 0 109.5 -38t42.5 -97t-42.5 -98t-109.5 -39t-110.5 40t-43.5 97zM393 498q0 -135 57 -208t158 -73 q96 0 156.5 77t60.5 204v77q0 100 -58 166t-151 66q-105 0 -164 -82.5t-59 -226.5z" />
<glyph unicode="&#x1e0e;" horiz-adv-x="1510" d="M164 0v1434h508q764 0 764 -699q0 -335 -208.5 -535t-555.5 -200h-508zM439 -107h586v-172h-586v172zM487 262h160q210 0 329.5 126t119.5 343q0 205 -118.5 322.5t-332.5 117.5h-158v-909z" />
<glyph unicode="&#x1e0f;" horiz-adv-x="1268" d="M72 489q0 254 129 407t338 153q198 0 276 -142h4v609h316v-1516h-316v141h-4q-108 -166 -317 -166q-192 0 -309 135.5t-117 378.5zM335 -86h586v-172h-586v172zM393 498q0 -135 57 -208t158 -73q96 0 156.5 77t60.5 204v77q0 100 -58 166t-151 66q-105 0 -164 -82.5 t-59 -226.5z" />
<glyph unicode="&#x1e10;" horiz-adv-x="1509" d="M164 0v1434h508q764 0 764 -699q0 -335 -208.5 -535t-555.5 -200h-508zM487 262h160q210 0 329.5 126t119.5 343q0 205 -118.5 322.5t-332.5 117.5h-158v-909zM551 -463l91 352h272l-168 -352h-195z" />
<glyph unicode="&#x1e11;" horiz-adv-x="1268" d="M72 489q0 254 129 407t338 153q198 0 276 -142h4v609h316v-1516h-316v141h-4q-108 -166 -317 -166q-192 0 -309 135.5t-117 378.5zM393 -463l91 352h272l-168 -352h-195zM393 498q0 -135 57 -208t158 -73q96 0 156.5 77t60.5 204v77q0 100 -58 166t-151 66 q-105 0 -164 -82.5t-59 -226.5z" />
<glyph unicode="&#x1e12;" horiz-adv-x="1509" d="M164 0v1434h508q764 0 764 -699q0 -335 -208.5 -535t-555.5 -200h-508zM391 -465l235 325h248l236 -325h-207l-158 188l-147 -188h-207zM487 262h160q210 0 329.5 126t119.5 343q0 205 -118.5 322.5t-332.5 117.5h-158v-909z" />
<glyph unicode="&#x1e13;" horiz-adv-x="1268" d="M72 489q0 254 129 407t338 153q198 0 276 -142h4v609h316v-1516h-316v141h-4q-108 -166 -317 -166q-192 0 -309 135.5t-117 378.5zM264 -472l235 325h248l236 -325h-207l-158 188l-147 -188h-207zM393 498q0 -135 57 -208t158 -73q96 0 156.5 77t60.5 204v77 q0 100 -58 166t-151 66q-105 0 -164 -82.5t-59 -226.5z" />
<glyph unicode="&#x1e14;" horiz-adv-x="1090" d="M164 0v1434h827v-263h-504v-319h469v-262h-469v-328h537v-262h-860zM285 2019h281l180 -245h-197zM293 1567v151h586v-151h-586z" />
<glyph unicode="&#x1e15;" horiz-adv-x="1108" d="M72 496q0 255 148 404t364 149q224 0 346.5 -133t122.5 -361v-133h-668q16 -223 281 -223q169 0 297 80v-228q-142 -76 -369 -76q-248 0 -385 137.5t-137 383.5zM271 1671h281l180 -246h-197zM279 1219v151h586v-151h-586zM383 616h377q0 220 -178 220q-76 0 -131.5 -63 t-67.5 -157z" />
<glyph unicode="&#x1e16;" horiz-adv-x="1090" d="M164 0v1434h827v-263h-504v-319h469v-262h-469v-328h537v-262h-860zM304 1567v151h586v-151h-586zM437 1774l181 245h280l-264 -245h-197z" />
<glyph unicode="&#x1e17;" horiz-adv-x="1108" d="M72 496q0 255 148 404t364 149q224 0 346.5 -133t122.5 -361v-133h-668q16 -223 281 -223q169 0 297 80v-228q-142 -76 -369 -76q-248 0 -385 137.5t-137 383.5zM279 1219v151h586v-151h-586zM383 616h377q0 220 -178 220q-76 0 -131.5 -63t-67.5 -157zM412 1425l181 246 h280l-264 -246h-197z" />
<glyph unicode="&#x1e18;" horiz-adv-x="1090" d="M164 0v1434h827v-263h-504v-319h469v-262h-469v-328h537v-262h-860zM248 -473l235 325h248l236 -325h-207l-158 188l-147 -188h-207z" />
<glyph unicode="&#x1e19;" horiz-adv-x="1108" d="M72 496q0 255 148 404t364 149q224 0 346.5 -133t122.5 -361v-133h-668q16 -223 281 -223q169 0 297 80v-228q-142 -76 -369 -76q-248 0 -385 137.5t-137 383.5zM228 -473l235 325h248l236 -325h-207l-158 188l-147 -188h-207zM383 616h377q0 220 -178 220 q-76 0 -131.5 -63t-67.5 -157z" />
<glyph unicode="&#x1e1a;" horiz-adv-x="1090" d="M164 0v1434h827v-263h-504v-319h469v-262h-469v-328h537v-262h-860zM232 -397q0 139 55 216t154 77q81 0 168 -49q79 -44 120 -44q78 0 78 111h144q0 -140 -55.5 -216.5t-151.5 -76.5q-86 0 -168 43q-89 47 -123 47q-80 0 -80 -108h-141z" />
<glyph unicode="&#x1e1b;" horiz-adv-x="1108" d="M72 496q0 255 148 404t364 149q224 0 346.5 -133t122.5 -361v-133h-668q16 -223 281 -223q169 0 297 80v-228q-142 -76 -369 -76q-248 0 -385 137.5t-137 383.5zM220 -397q0 139 55 216t154 77q81 0 168 -49q79 -44 120 -44q78 0 78 111h144q0 -140 -55.5 -216.5 t-151.5 -76.5q-86 0 -168 43q-89 47 -123 47q-80 0 -80 -108h-141zM383 616h377q0 220 -178 220q-76 0 -131.5 -63t-67.5 -157z" />
<glyph unicode="&#x1e1c;" horiz-adv-x="1090" d="M164 0v1434h827v-263h-504v-319h469v-262h-469v-328h537v-262h-860zM254 1843h179q17 -135 159 -135q137 0 156 135h180q-12 -141 -102.5 -224t-237.5 -83q-146 0 -238 85.5t-96 221.5zM440 -313q35 -6 72 -6q123 0 123 73q0 66 -111 66q-13 0 -37 -2v182h172v-82 q187 -8 187 -166q0 -207 -318 -207q-46 0 -88 4v138z" />
<glyph unicode="&#x1e1d;" horiz-adv-x="1108" d="M72 496q0 255 148 404t364 149q224 0 346.5 -133t122.5 -361v-133h-668q16 -223 281 -223q169 0 297 80v-228q-142 -76 -369 -76q-248 0 -385 137.5t-137 383.5zM247 1493h179q17 -135 159 -135q137 0 156 135h180q-12 -141 -102.5 -224t-237.5 -83q-146 0 -238 85.5 t-96 221.5zM383 616h377q0 220 -178 220q-76 0 -131.5 -63t-67.5 -157zM440 -313q35 -6 72 -6q123 0 123 73q0 66 -111 66q-13 0 -37 -2v182h172v-82q187 -8 187 -166q0 -207 -318 -207q-46 0 -88 4v138z" />
<glyph unicode="&#x1e1e;" horiz-adv-x="1065" d="M164 0v1434h829v-263h-506v-352h465v-262h-465v-557h-323zM436 1672q0 60 44 97.5t110 37.5q67 0 109.5 -38t42.5 -97t-42.5 -98t-109.5 -39t-110.5 40t-43.5 97z" />
<glyph unicode="&#x1e1f;" horiz-adv-x="784" d="M45 791v233h172v127q0 175 114 282t310 107q96 0 160 -20v-246q-61 24 -117 24q-152 0 -152 -165v-109h234v-233h-234v-791h-315v791h-172zM76 1672q0 60 44 97.5t110 37.5q67 0 109.5 -38t42.5 -97t-42.5 -98t-109.5 -39t-110.5 40t-43.5 97z" />
<glyph unicode="&#x1e20;" horiz-adv-x="1456" d="M74 694q0 338 218 551t580 213q228 0 402 -63v-303q-166 96 -406 96q-201 0 -327.5 -130.5t-126.5 -348.5q0 -221 113.5 -342t306.5 -121q116 0 184 33v280h-287v258h610v-721q-210 -121 -522 -121q-346 0 -545.5 191.5t-199.5 527.5zM503 1535v172h586v-172h-586z" />
<glyph unicode="&#x1e21;" horiz-adv-x="1268" d="M72 483q0 260 128 413t337 153q187 0 280 -144h4v119h316v-907q0 -285 -165 -441.5t-478 -156.5q-207 0 -328 59v266q158 -92 319 -92q160 0 248 84.5t88 229.5v81h-4q-108 -172 -319 -172q-196 0 -311 138t-115 370zM309 1186v172h586v-172h-586zM393 494 q0 -128 57 -202.5t156 -74.5q98 0 158.5 75.5t60.5 199.5v81q0 97 -57.5 165.5t-149.5 68.5q-105 0 -165 -82t-60 -231z" />
<glyph unicode="&#x1e22;" horiz-adv-x="1569" d="M164 0v1434h323v-572h594v572h324v-1434h-324v584h-594v-584h-323zM629 1672q0 60 44 97.5t110 37.5q67 0 109.5 -38t42.5 -97t-42.5 -98t-109.5 -39t-110.5 40t-43.5 97z" />
<glyph unicode="&#x1e23;" horiz-adv-x="1233" d="M133 0v1516h316v-644h4q116 177 315 177q348 0 348 -420v-629h-315v582q0 225 -164 225q-84 0 -136 -63t-52 -160v-584h-316zM588 1323q0 60 44 97.5t110 37.5q67 0 109.5 -38t42.5 -97t-42.5 -98t-109.5 -39t-110.5 40t-43.5 97z" />
<glyph unicode="&#x1e24;" horiz-adv-x="1569" d="M164 0v1434h323v-572h594v572h324v-1434h-324v584h-594v-584h-323zM638 -254q0 60 44 97.5t110 37.5q67 0 109.5 -38t42.5 -97t-42.5 -98t-109.5 -39t-110.5 40t-43.5 97z" />
<glyph unicode="&#x1e25;" horiz-adv-x="1233" d="M133 0v1516h316v-644h4q116 177 315 177q348 0 348 -420v-629h-315v582q0 225 -164 225q-84 0 -136 -63t-52 -160v-584h-316zM474 -254q0 60 44 97.5t110 37.5q67 0 109.5 -38t42.5 -97t-42.5 -98t-109.5 -39t-110.5 40t-43.5 97z" />
<glyph unicode="&#x1e26;" horiz-adv-x="1569" d="M164 0v1434h323v-572h594v572h324v-1434h-324v584h-594v-584h-323zM396 1672q0 60 44 98.5t110 38.5q68 0 110.5 -38.5t42.5 -98.5q0 -61 -42.5 -99t-110.5 -38t-111 39.5t-43 97.5zM855 1672q0 61 43 99t110 38t110.5 -38.5t43.5 -98.5t-43 -98.5t-111 -38.5 q-67 0 -110 39t-43 98z" />
<glyph unicode="&#x1e27;" horiz-adv-x="1233" d="M133 0v1516h316v-644h4q116 177 315 177q348 0 348 -420v-629h-315v582q0 225 -164 225q-84 0 -136 -63t-52 -160v-584h-316zM354 1672q0 60 44 98.5t110 38.5q68 0 110.5 -38.5t42.5 -98.5q0 -61 -42.5 -99t-110.5 -38t-111 39.5t-43 97.5zM813 1672q0 61 43 99t110 38 t110.5 -38.5t43.5 -98.5t-43 -98.5t-111 -38.5q-67 0 -110 39t-43 98z" />
<glyph unicode="&#x1e28;" horiz-adv-x="1569" d="M154 -313q35 -6 72 -6q123 0 123 73q0 66 -111 66q-13 0 -37 -2v182h172v-82q187 -8 187 -166q0 -207 -318 -207q-46 0 -88 4v138zM164 0v1434h323v-572h594v572h324v-1434h-324v584h-594v-584h-323z" />
<glyph unicode="&#x1e29;" horiz-adv-x="1233" d="M127 -313q35 -6 72 -6q123 0 123 73q0 66 -111 66q-13 0 -37 -2v182h172v-82q187 -8 187 -166q0 -207 -318 -207q-46 0 -88 4v138zM133 0v1516h316v-644h4q116 177 315 177q348 0 348 -420v-629h-315v582q0 225 -164 225q-84 0 -136 -63t-52 -160v-584h-316z" />
<glyph unicode="&#x1e2a;" horiz-adv-x="1569" d="M164 0v1434h323v-572h594v572h324v-1434h-324v584h-594v-584h-323zM444 -97h179q17 -135 159 -135q137 0 156 135h180q-12 -141 -102.5 -224t-237.5 -83q-146 0 -238 85.5t-96 221.5z" />
<glyph unicode="&#x1e2b;" horiz-adv-x="1233" d="M133 0v1516h316v-644h4q116 177 315 177q348 0 348 -420v-629h-315v582q0 225 -164 225q-84 0 -136 -63t-52 -160v-584h-316zM283 -97h179q17 -135 159 -135q137 0 156 135h180q-12 -141 -102.5 -224t-237.5 -83q-146 0 -238 85.5t-96 221.5z" />
<glyph unicode="&#x1e2c;" horiz-adv-x="649" d="M-33 -372q0 139 55 216t154 77q81 0 168 -49q79 -44 120 -44q78 0 78 111h144q0 -140 -55.5 -216.5t-151.5 -76.5q-86 0 -168 43q-89 47 -123 47q-80 0 -80 -108h-141zM164 0v1434h323v-1434h-323z" />
<glyph unicode="&#x1e2d;" horiz-adv-x="582" d="M-64 -372q0 139 55 216t154 77q81 0 168 -49q79 -44 120 -44q78 0 78 111h144q0 -140 -55.5 -216.5t-151.5 -76.5q-86 0 -168 43q-89 47 -123 47q-80 0 -80 -108h-141zM111 1350q0 71 51 116t131 45q81 0 131.5 -45t50.5 -116q0 -72 -50.5 -118t-131.5 -46 q-80 0 -131 47.5t-51 116.5zM133 0v1024h316v-1024h-316z" />
<glyph unicode="&#x1e2e;" horiz-adv-x="649" d="M-86 1687q0 53 38 86t96 33q59 0 97 -33.5t38 -85.5t-37 -86t-98 -34q-58 0 -96 34.5t-38 85.5zM164 0v1434h323v-1434h-323zM211 1755l180 246h281l-264 -246h-197zM480 1687q0 53 37.5 86t95.5 33q59 0 97 -33.5t38 -85.5t-37 -86t-98 -34q-58 0 -95.5 34.5t-37.5 85.5 z" />
<glyph unicode="&#x1e2f;" horiz-adv-x="582" d="M-121 1338q0 53 38 86t96 33q59 0 97 -33.5t38 -85.5t-37 -85.5t-98 -33.5q-58 0 -96 34t-38 85zM133 0v1024h316v-1024h-316zM176 1407l180 246h281l-264 -246h-197zM445 1338q0 53 37.5 86t95.5 33q59 0 97 -33.5t38 -85.5t-37 -85.5t-98 -33.5q-58 0 -95.5 34 t-37.5 85z" />
<glyph unicode="&#x1e30;" horiz-adv-x="1329" d="M164 0v1434h323v-678h5q12 28 40 80l396 598h385l-500 -684l543 -750h-408l-418 623q-12 18 -38 79h-5v-702h-323zM471 1533l260 323h281l-313 -323h-228z" />
<glyph unicode="&#x1e31;" horiz-adv-x="1145" d="M133 0v1516h316v-965h4l305 473h375l-367 -481l393 -543h-379l-327 508h-4v-508h-316zM383 1535l260 323h281l-313 -323h-228z" />
<glyph unicode="&#x1e32;" horiz-adv-x="1329" d="M164 0v1434h323v-678h5q12 28 40 80l396 598h385l-500 -684l543 -750h-408l-418 623q-12 18 -38 79h-5v-702h-323zM550 -254q0 60 44 97.5t110 37.5q67 0 109.5 -38t42.5 -97t-42.5 -98t-109.5 -39t-110.5 40t-43.5 97z" />
<glyph unicode="&#x1e33;" horiz-adv-x="1145" d="M133 0v1516h316v-965h4l305 473h375l-367 -481l393 -543h-379l-327 508h-4v-508h-316zM464 -254q0 60 44 97.5t110 37.5q67 0 109.5 -38t42.5 -97t-42.5 -98t-109.5 -39t-110.5 40t-43.5 97z" />
<glyph unicode="&#x1e34;" horiz-adv-x="1329" d="M164 0v1434h323v-678h5q12 28 40 80l396 598h385l-500 -684l543 -750h-408l-418 623q-12 18 -38 79h-5v-702h-323zM427 -107h586v-172h-586v172z" />
<glyph unicode="&#x1e35;" horiz-adv-x="1145" d="M133 0v1516h316v-965h4l305 473h375l-367 -481l393 -543h-379l-327 508h-4v-508h-316zM313 -107h586v-172h-586v172z" />
<glyph unicode="&#x1e36;" horiz-adv-x="1047" d="M164 0v1434h323v-1172h531v-262h-854zM422 -254q0 60 44 97.5t110 37.5q67 0 109.5 -38t42.5 -97t-42.5 -98t-109.5 -39t-110.5 40t-43.5 97z" />
<glyph unicode="&#x1e37;" horiz-adv-x="582" d="M133 0v1516h316v-1516h-316zM140 -254q0 60 44 97.5t110 37.5q67 0 109.5 -38t42.5 -97t-42.5 -98t-109.5 -39t-110.5 40t-43.5 97z" />
<glyph unicode="&#x1e38;" horiz-adv-x="1047" d="M164 0v1434h323v-1172h531v-262h-854zM284 1535v172h586v-172h-586zM426 -254q0 60 44 97.5t110 37.5q67 0 109.5 -38t42.5 -97t-42.5 -98t-109.5 -39t-110.5 40t-43.5 97z" />
<glyph unicode="&#x1e39;" horiz-adv-x="582" d="M-3 1535v172h586v-172h-586zM133 0v1516h316v-1516h-316zM141 -254q0 60 44 97.5t110 37.5q67 0 109.5 -38t42.5 -97t-42.5 -98t-109.5 -39t-110.5 40t-43.5 97z" />
<glyph unicode="&#x1e3a;" horiz-adv-x="1047" d="M164 0v1434h323v-1172h531v-262h-854zM297 -107h586v-172h-586v172z" />
<glyph unicode="&#x1e3b;" horiz-adv-x="582" d="M-1 -88h586v-172h-586v172zM133 0v1516h316v-1516h-316z" />
<glyph unicode="&#x1e3c;" horiz-adv-x="1047" d="M164 0v1434h323v-1172h531v-262h-854zM235 -473l235 325h248l236 -325h-207l-158 188l-147 -188h-207z" />
<glyph unicode="&#x1e3d;" horiz-adv-x="582" d="M-67 -472l235 325h248l236 -325h-207l-158 188l-147 -188h-207zM133 0v1516h316v-1516h-316z" />
<glyph unicode="&#x1e3e;" horiz-adv-x="1960" d="M164 0v1434h473l293 -850q35 -102 51 -205h6q27 119 57 207l293 848h461v-1434h-319v858q0 139 12 307h-8q-25 -132 -45 -190l-336 -975h-264l-342 965q-14 39 -45 200h-9q13 -212 13 -372v-793h-291zM704 1535l260 323h281l-313 -323h-228z" />
<glyph unicode="&#x1e3f;" horiz-adv-x="1876" d="M133 0v1024h316v-160h4q49 82 137.5 133.5t193.5 51.5q217 0 297 -191q117 191 344 191q334 0 334 -412v-637h-315v584q0 223 -164 223q-78 0 -127 -67t-49 -167v-573h-316v590q0 217 -161 217q-81 0 -129.5 -64t-48.5 -174v-569h-316zM744 1186l260 323h281l-313 -323 h-228z" />
<glyph unicode="&#x1e40;" horiz-adv-x="1960" d="M164 0v1434h473l293 -850q35 -102 51 -205h6q27 119 57 207l293 848h461v-1434h-319v858q0 139 12 307h-8q-25 -132 -45 -190l-336 -975h-264l-342 965q-14 39 -45 200h-9q13 -212 13 -372v-793h-291zM753 1672q0 60 44 97.5t110 37.5q67 0 109.5 -38t42.5 -97t-42.5 -98 t-109.5 -39t-110.5 40t-43.5 97z" />
<glyph unicode="&#x1e41;" horiz-adv-x="1876" d="M133 0v1024h316v-160h4q49 82 137.5 133.5t193.5 51.5q217 0 297 -191q117 191 344 191q334 0 334 -412v-637h-315v584q0 223 -164 223q-78 0 -127 -67t-49 -167v-573h-316v590q0 217 -161 217q-81 0 -129.5 -64t-48.5 -174v-569h-316zM798 1323q0 60 44 97.5t110 37.5 q67 0 109.5 -38t42.5 -97t-42.5 -98t-109.5 -39t-110.5 40t-43.5 97z" />
<glyph unicode="&#x1e42;" horiz-adv-x="1960" d="M164 0v1434h473l293 -850q35 -102 51 -205h6q27 119 57 207l293 848h461v-1434h-319v858q0 139 12 307h-8q-25 -132 -45 -190l-336 -975h-264l-342 965q-14 39 -45 200h-9q13 -212 13 -372v-793h-291zM739 -254q0 60 44 97.5t110 37.5q67 0 109.5 -38t42.5 -97t-42.5 -98 t-109.5 -39t-110.5 40t-43.5 97z" />
<glyph unicode="&#x1e43;" horiz-adv-x="1876" d="M133 0v1024h316v-160h4q49 82 137.5 133.5t193.5 51.5q217 0 297 -191q117 191 344 191q334 0 334 -412v-637h-315v584q0 223 -164 223q-78 0 -127 -67t-49 -167v-573h-316v590q0 217 -161 217q-81 0 -129.5 -64t-48.5 -174v-569h-316zM794 -254q0 60 44 97.5t110 37.5 q67 0 109.5 -38t42.5 -97t-42.5 -98t-109.5 -39t-110.5 40t-43.5 97z" />
<glyph unicode="&#x1e44;" horiz-adv-x="1618" d="M164 0v1434h348l569 -873q39 -59 72 -117h4q-8 50 -8 197v793h305v-1434h-326l-591 901q-52 79 -72 119h-4q8 -76 8 -232v-788h-305zM657 1673q0 60 44 97.5t110 37.5q67 0 109.5 -38t42.5 -97t-42.5 -98t-109.5 -39t-110.5 40t-43.5 97z" />
<glyph unicode="&#x1e45;" horiz-adv-x="1239" d="M133 0v1024h316v-162h4q113 187 329 187q340 0 340 -422v-627h-315v569q0 238 -170 238q-82 0 -135 -63t-53 -160v-584h-316zM483 1323q0 60 44 97.5t110 37.5q67 0 109.5 -38t42.5 -97t-42.5 -98t-109.5 -39t-110.5 40t-43.5 97z" />
<glyph unicode="&#x1e46;" horiz-adv-x="1618" d="M164 0v1434h348l569 -873q39 -59 72 -117h4q-8 50 -8 197v793h305v-1434h-326l-591 901q-52 79 -72 119h-4q8 -76 8 -232v-788h-305zM658 -254q0 60 44 97.5t110 37.5q67 0 109.5 -38t42.5 -97t-42.5 -98t-109.5 -39t-110.5 40t-43.5 97z" />
<glyph unicode="&#x1e47;" horiz-adv-x="1239" d="M133 0v1024h316v-162h4q113 187 329 187q340 0 340 -422v-627h-315v569q0 238 -170 238q-82 0 -135 -63t-53 -160v-584h-316zM479 -254q0 60 44 97.5t110 37.5q67 0 109.5 -38t42.5 -97t-42.5 -98t-109.5 -39t-110.5 40t-43.5 97z" />
<glyph unicode="&#x1e48;" horiz-adv-x="1618" d="M164 0v1434h348l569 -873q39 -59 72 -117h4q-8 50 -8 197v793h305v-1434h-326l-591 901q-52 79 -72 119h-4q8 -76 8 -232v-788h-305zM539 -107h586v-172h-586v172z" />
<glyph unicode="&#x1e49;" horiz-adv-x="1239" d="M133 0v1024h316v-162h4q113 187 329 187q340 0 340 -422v-627h-315v569q0 238 -170 238q-82 0 -135 -63t-53 -160v-584h-316zM338 -107h586v-172h-586v172z" />
<glyph unicode="&#x1e4a;" horiz-adv-x="1618" d="M164 0v1434h348l569 -873q39 -59 72 -117h4q-8 50 -8 197v793h305v-1434h-326l-591 901q-52 79 -72 119h-4q8 -76 8 -232v-788h-305zM473 -474l235 325h248l236 -325h-207l-158 188l-147 -188h-207z" />
<glyph unicode="&#x1e4b;" horiz-adv-x="1239" d="M133 0v1024h316v-162h4q113 187 329 187q340 0 340 -422v-627h-315v569q0 238 -170 238q-82 0 -135 -63t-53 -160v-584h-316zM278 -474l235 325h248l236 -325h-207l-158 188l-147 -188h-207z" />
<glyph unicode="&#x1e4c;" horiz-adv-x="1553" d="M74 698q0 340 197 550t522 210q307 0 496.5 -201t189.5 -530q0 -338 -196.5 -545t-512.5 -207q-308 0 -502 200.5t-194 522.5zM414 715q0 -213 100 -337t262 -124q167 0 265 120.5t98 334.5q0 223 -95 347t-260 124q-170 0 -270 -127.5t-100 -337.5zM431 1548 q0 110 55.5 171t157.5 61q72 0 152 -35q85 -37 123 -37q75 0 75 76h144q0 -230 -209 -230q-59 0 -150 35q-96 37 -129 37q-75 0 -75 -78h-144zM599 1831l180 246h281l-264 -246h-197z" />
<glyph unicode="&#x1e4d;" horiz-adv-x="1252" d="M72 508q0 254 152 397.5t411 143.5q255 0 400 -143.5t145 -379.5q0 -255 -149.5 -403t-409.5 -148q-256 0 -402.5 143.5t-146.5 389.5zM270 1202q0 110 55.5 171t157.5 61q72 0 152 -35q85 -37 123 -37q75 0 75 76h144q0 -230 -209 -230q-59 0 -150 35q-96 37 -129 37 q-75 0 -75 -78h-144zM393 512q0 -295 238 -295q227 0 227 303q0 287 -229 287q-112 0 -174 -77t-62 -218zM438 1485l180 246h281l-264 -246h-197z" />
<glyph unicode="&#x1e4e;" horiz-adv-x="1553" d="M74 698q0 340 197 550t522 210q307 0 496.5 -201t189.5 -530q0 -338 -196.5 -545t-512.5 -207q-308 0 -502 200.5t-194 522.5zM414 715q0 -213 100 -337t262 -124q167 0 265 120.5t98 334.5q0 223 -95 347t-260 124q-170 0 -270 -127.5t-100 -337.5zM434 1548 q0 110 55.5 171t157.5 61q72 0 152 -35q85 -37 123 -37q75 0 75 76h144q0 -230 -209 -230q-59 0 -150 35q-96 37 -129 37q-75 0 -75 -78h-144zM478 1947q0 47 34.5 77t86.5 30q53 0 87 -30t34 -77t-33 -77.5t-88 -30.5q-52 0 -86.5 31t-34.5 77zM877 1947q0 47 33.5 77 t86.5 30t87 -30t34 -77t-33 -77.5t-88 -30.5q-52 0 -86 31t-34 77z" />
<glyph unicode="&#x1e4f;" horiz-adv-x="1252" d="M72 508q0 254 152 397.5t411 143.5q255 0 400 -143.5t145 -379.5q0 -255 -149.5 -403t-409.5 -148q-256 0 -402.5 143.5t-146.5 389.5zM260 1202q0 110 55.5 171t157.5 61q72 0 152 -35q85 -37 123 -37q75 0 75 76h144q0 -230 -209 -230q-59 0 -150 35q-96 37 -129 37 q-75 0 -75 -78h-144zM304 1601q0 47 34.5 77t86.5 30q53 0 87 -30t34 -77t-33 -77.5t-88 -30.5q-52 0 -86.5 31t-34.5 77zM393 512q0 -295 238 -295q227 0 227 303q0 287 -229 287q-112 0 -174 -77t-62 -218zM703 1601q0 47 33.5 77t86.5 30t87 -30t34 -77t-33 -77.5 t-88 -30.5q-52 0 -86 31t-34 77z" />
<glyph unicode="&#x1e50;" horiz-adv-x="1553" d="M74 698q0 340 197 550t522 210q307 0 496.5 -201t189.5 -530q0 -338 -196.5 -545t-512.5 -207q-308 0 -502 200.5t-194 522.5zM414 715q0 -213 100 -337t262 -124q167 0 265 120.5t98 334.5q0 223 -95 347t-260 124q-170 0 -270 -127.5t-100 -337.5zM487 2019h281 l180 -245h-197zM495 1567v151h586v-151h-586z" />
<glyph unicode="&#x1e51;" horiz-adv-x="1252" d="M72 508q0 254 152 397.5t411 143.5q255 0 400 -143.5t145 -379.5q0 -255 -149.5 -403t-409.5 -148q-256 0 -402.5 143.5t-146.5 389.5zM331 1671h281l180 -246h-197zM339 1219v151h586v-151h-586zM393 512q0 -295 238 -295q227 0 227 303q0 287 -229 287q-112 0 -174 -77 t-62 -218z" />
<glyph unicode="&#x1e52;" horiz-adv-x="1553" d="M74 698q0 340 197 550t522 210q307 0 496.5 -201t189.5 -530q0 -338 -196.5 -545t-512.5 -207q-308 0 -502 200.5t-194 522.5zM414 715q0 -213 100 -337t262 -124q167 0 265 120.5t98 334.5q0 223 -95 347t-260 124q-170 0 -270 -127.5t-100 -337.5zM499 1567v151h586 v-151h-586zM632 1774l181 245h280l-264 -245h-197z" />
<glyph unicode="&#x1e53;" horiz-adv-x="1252" d="M72 508q0 254 152 397.5t411 143.5q255 0 400 -143.5t145 -379.5q0 -255 -149.5 -403t-409.5 -148q-256 0 -402.5 143.5t-146.5 389.5zM334 1219v151h586v-151h-586zM393 512q0 -295 238 -295q227 0 227 303q0 287 -229 287q-112 0 -174 -77t-62 -218zM467 1425l181 246 h280l-264 -246h-197z" />
<glyph unicode="&#x1e54;" horiz-adv-x="1258" d="M164 0v1434h506q542 0 542 -457q0 -216 -155.5 -349.5t-415.5 -133.5h-154v-494h-323zM424 1535l260 323h281l-313 -323h-228zM487 739h127q258 0 258 226q0 221 -258 221h-127v-447z" />
<glyph unicode="&#x1e55;" horiz-adv-x="1270" d="M133 -471v1495h316v-154h4q117 179 329 179q199 0 307.5 -136.5t108.5 -371.5q0 -256 -126.5 -411t-336.5 -155q-185 0 -282 144h-4v-590h-316zM424 1186l260 323h281l-313 -323h-228zM444 457q0 -106 56 -173t147 -67q108 0 167.5 83.5t59.5 236.5q0 270 -210 270 q-97 0 -158.5 -73.5t-61.5 -194.5v-82z" />
<glyph unicode="&#x1e56;" horiz-adv-x="1258" d="M164 0v1434h506q542 0 542 -457q0 -216 -155.5 -349.5t-415.5 -133.5h-154v-494h-323zM487 739h127q258 0 258 226q0 221 -258 221h-127v-447zM501 1672q0 60 44 97.5t110 37.5q67 0 109.5 -38t42.5 -97t-42.5 -98t-109.5 -39t-110.5 40t-43.5 97z" />
<glyph unicode="&#x1e57;" horiz-adv-x="1270" d="M133 -471v1495h316v-154h4q117 179 329 179q199 0 307.5 -136.5t108.5 -371.5q0 -256 -126.5 -411t-336.5 -155q-185 0 -282 144h-4v-590h-316zM444 457q0 -106 56 -173t147 -67q108 0 167.5 83.5t59.5 236.5q0 270 -210 270q-97 0 -158.5 -73.5t-61.5 -194.5v-82z M525 1323q0 60 44 97.5t110 37.5q67 0 109.5 -38t42.5 -97t-42.5 -98t-109.5 -39t-110.5 40t-43.5 97z" />
<glyph unicode="&#x1e58;" horiz-adv-x="1337" d="M164 0v1434h512q522 0 522 -390q0 -75 -23 -138.5t-65 -114.5t-101.5 -88t-132.5 -58v-4q32 -10 62 -32.5t58 -52.5t53.5 -64.5t46.5 -67.5l271 -424h-371l-223 369q-25 42 -48 75t-46.5 56.5t-49 36t-55.5 12.5h-87v-549h-323zM487 793h140q104 0 167 60q64 61 64 151 q0 188 -225 188h-146v-399zM507 1672q0 60 44 97.5t110 37.5q67 0 109.5 -38t42.5 -97t-42.5 -98t-109.5 -39t-110.5 40t-43.5 97z" />
<glyph unicode="&#x1e59;" horiz-adv-x="815" d="M133 0v1024h316v-190h4q75 208 270 208q50 0 78 -12v-291q-57 31 -133 31q-103 0 -161 -75.5t-58 -205.5v-489h-316zM298 1323q0 60 44 97.5t110 37.5q67 0 109.5 -38t42.5 -97t-42.5 -98t-109.5 -39t-110.5 40t-43.5 97z" />
<glyph unicode="&#x1e5a;" horiz-adv-x="1337" d="M164 0v1434h512q522 0 522 -390q0 -75 -23 -138.5t-65 -114.5t-101.5 -88t-132.5 -58v-4q32 -10 62 -32.5t58 -52.5t53.5 -64.5t46.5 -67.5l271 -424h-371l-223 369q-25 42 -48 75t-46.5 56.5t-49 36t-55.5 12.5h-87v-549h-323zM487 793h140q104 0 167 60q64 61 64 151 q0 188 -225 188h-146v-399zM532 -254q0 60 44 97.5t110 37.5q67 0 109.5 -38t42.5 -97t-42.5 -98t-109.5 -39t-110.5 40t-43.5 97z" />
<glyph unicode="&#x1e5b;" horiz-adv-x="815" d="M133 0v1024h316v-190h4q75 208 270 208q50 0 78 -12v-291q-57 31 -133 31q-103 0 -161 -75.5t-58 -205.5v-489h-316zM282 -254q0 60 44 97.5t110 37.5q67 0 109.5 -38t42.5 -97t-42.5 -98t-109.5 -39t-110.5 40t-43.5 97z" />
<glyph unicode="&#x1e5c;" horiz-adv-x="1337" d="M164 0v1434h512q522 0 522 -390q0 -75 -23 -138.5t-65 -114.5t-101.5 -88t-132.5 -58v-4q32 -10 62 -32.5t58 -52.5t53.5 -64.5t46.5 -67.5l271 -424h-371l-223 369q-25 42 -48 75t-46.5 56.5t-49 36t-55.5 12.5h-87v-549h-323zM372 1535v172h586v-172h-586zM487 793h140 q104 0 167 60q64 61 64 151q0 188 -225 188h-146v-399zM525 -254q0 60 44 97.5t110 37.5q67 0 109.5 -38t42.5 -97t-42.5 -98t-109.5 -39t-110.5 40t-43.5 97z" />
<glyph unicode="&#x1e5d;" horiz-adv-x="815" d="M133 0v1024h316v-190h4q75 208 270 208q50 0 78 -12v-291q-57 31 -133 31q-103 0 -161 -75.5t-58 -205.5v-489h-316zM159 1186v172h586v-172h-586zM276 -254q0 60 44 97.5t110 37.5q67 0 109.5 -38t42.5 -97t-42.5 -98t-109.5 -39t-110.5 40t-43.5 97z" />
<glyph unicode="&#x1e5e;" horiz-adv-x="1337" d="M164 0v1434h512q522 0 522 -390q0 -75 -23 -138.5t-65 -114.5t-101.5 -88t-132.5 -58v-4q32 -10 62 -32.5t58 -52.5t53.5 -64.5t46.5 -67.5l271 -424h-371l-223 369q-25 42 -48 75t-46.5 56.5t-49 36t-55.5 12.5h-87v-549h-323zM390 -107h586v-172h-586v172zM487 793h140 q104 0 167 60q64 61 64 151q0 188 -225 188h-146v-399z" />
<glyph unicode="&#x1e5f;" horiz-adv-x="815" d="M133 0v1024h316v-190h4q75 208 270 208q50 0 78 -12v-291q-57 31 -133 31q-103 0 -161 -75.5t-58 -205.5v-489h-316zM171 -107h586v-172h-586v172z" />
<glyph unicode="&#x1e60;" horiz-adv-x="1148" d="M92 1032q0 112 45 192.5t122.5 132.5t179.5 76.5t216 24.5q112 0 198.5 -13.5t159.5 -41.5v-299q-36 25 -78.5 44t-87.5 31.5t-89.5 18.5t-84.5 6q-55 0 -100 -10.5t-76 -29.5t-48 -45.5t-17 -59.5q0 -36 19 -64.5t54 -54t85 -50t113 -50.5q86 -36 154.5 -76.5 t117.5 -91.5t75 -116.5t26 -152.5q0 -120 -45.5 -201.5t-123.5 -132t-181.5 -72.5t-218.5 -22q-118 0 -224.5 20t-184.5 60v320q87 -73 189 -109.5t206 -36.5q61 0 106.5 11t76 30.5t45.5 46t15 57.5q0 42 -24 75t-65.5 61t-98.5 54t-123 53q-168 70 -250.5 171t-82.5 244z M429 1672q0 60 44 97.5t110 37.5q67 0 109.5 -38t42.5 -97t-42.5 -98t-109.5 -39t-110.5 40t-43.5 97z" />
<glyph unicode="&#x1e61;" horiz-adv-x="901" d="M66 27v256q78 -47 155.5 -70t146.5 -23q84 0 132.5 23t48.5 70q0 30 -22 50t-56.5 35t-75.5 27t-79 27q-61 23 -107.5 49.5t-78 61.5t-48 81t-16.5 109q0 86 37.5 148t100 101.5t143 58t167.5 18.5q68 0 138 -10.5t138 -30.5v-244q-60 35 -128.5 52.5t-134.5 17.5 q-31 0 -58.5 -5.5t-48.5 -16t-33 -27t-12 -37.5q0 -28 18 -48t47 -34.5t64.5 -26t70.5 -23.5q63 -22 114 -48t87.5 -61t56 -82t19.5 -112q0 -91 -39.5 -155.5t-105 -105t-151 -59t-177.5 -18.5q-169 0 -313 52zM298 1323q0 60 44 97.5t110 37.5q67 0 109.5 -38t42.5 -97 t-42.5 -98t-109.5 -39t-110.5 40t-43.5 97z" />
<glyph unicode="&#x1e62;" horiz-adv-x="1148" d="M92 1032q0 112 45 192.5t122.5 132.5t179.5 76.5t216 24.5q112 0 198.5 -13.5t159.5 -41.5v-299q-36 25 -78.5 44t-87.5 31.5t-89.5 18.5t-84.5 6q-55 0 -100 -10.5t-76 -29.5t-48 -45.5t-17 -59.5q0 -36 19 -64.5t54 -54t85 -50t113 -50.5q86 -36 154.5 -76.5 t117.5 -91.5t75 -116.5t26 -152.5q0 -120 -45.5 -201.5t-123.5 -132t-181.5 -72.5t-218.5 -22q-118 0 -224.5 20t-184.5 60v320q87 -73 189 -109.5t206 -36.5q61 0 106.5 11t76 30.5t45.5 46t15 57.5q0 42 -24 75t-65.5 61t-98.5 54t-123 53q-168 70 -250.5 171t-82.5 244z M375 -254q0 60 44 97.5t110 37.5q67 0 109.5 -38t42.5 -97t-42.5 -98t-109.5 -39t-110.5 40t-43.5 97z" />
<glyph unicode="&#x1e63;" horiz-adv-x="901" d="M66 27v256q78 -47 155.5 -70t146.5 -23q84 0 132.5 23t48.5 70q0 30 -22 50t-56.5 35t-75.5 27t-79 27q-61 23 -107.5 49.5t-78 61.5t-48 81t-16.5 109q0 86 37.5 148t100 101.5t143 58t167.5 18.5q68 0 138 -10.5t138 -30.5v-244q-60 35 -128.5 52.5t-134.5 17.5 q-31 0 -58.5 -5.5t-48.5 -16t-33 -27t-12 -37.5q0 -28 18 -48t47 -34.5t64.5 -26t70.5 -23.5q63 -22 114 -48t87.5 -61t56 -82t19.5 -112q0 -91 -39.5 -155.5t-105 -105t-151 -59t-177.5 -18.5q-169 0 -313 52zM315 -254q0 60 44 97.5t110 37.5q67 0 109.5 -38t42.5 -97 t-42.5 -98t-109.5 -39t-110.5 40t-43.5 97z" />
<glyph unicode="&#x1e64;" horiz-adv-x="1148" d="M92 1032q0 112 45 192.5t122.5 132.5t179.5 76.5t216 24.5q112 0 198.5 -13.5t159.5 -41.5v-299q-36 25 -78.5 44t-87.5 31.5t-89.5 18.5t-84.5 6q-55 0 -100 -10.5t-76 -29.5t-48 -45.5t-17 -59.5q0 -36 19 -64.5t54 -54t85 -50t113 -50.5q86 -36 154.5 -76.5 t117.5 -91.5t75 -116.5t26 -152.5q0 -120 -45.5 -201.5t-123.5 -132t-181.5 -72.5t-218.5 -22q-118 0 -224.5 20t-184.5 60v320q87 -73 189 -109.5t206 -36.5q61 0 106.5 11t76 30.5t45.5 46t15 57.5q0 42 -24 75t-65.5 61t-98.5 54t-123 53q-168 70 -250.5 171t-82.5 244z M302 1801q0 50 36.5 81t92.5 31q57 0 92.5 -31.5t35.5 -80.5t-36 -81.5t-92 -32.5q-55 0 -92 33t-37 81zM534 1567l180 245h281l-265 -245h-196z" />
<glyph unicode="&#x1e65;" horiz-adv-x="901" d="M66 27v256q78 -47 155.5 -70t146.5 -23q84 0 132.5 23t48.5 70q0 30 -22 50t-56.5 35t-75.5 27t-79 27q-61 23 -107.5 49.5t-78 61.5t-48 81t-16.5 109q0 86 37.5 148t100 101.5t143 58t167.5 18.5q68 0 138 -10.5t138 -30.5v-244q-60 35 -128.5 52.5t-134.5 17.5 q-31 0 -58.5 -5.5t-48.5 -16t-33 -27t-12 -37.5q0 -28 18 -48t47 -34.5t64.5 -26t70.5 -23.5q63 -22 114 -48t87.5 -61t56 -82t19.5 -112q0 -91 -39.5 -155.5t-105 -105t-151 -59t-177.5 -18.5q-169 0 -313 52zM172 1453q0 50 36.5 81t92.5 31q57 0 92.5 -31.5t35.5 -80.5 t-36 -81.5t-92 -32.5q-55 0 -92 33t-37 81zM404 1219l180 245h281l-265 -245h-196z" />
<glyph unicode="&#x1e66;" horiz-adv-x="1148" d="M92 1032q0 112 45 192.5t122.5 132.5t179.5 76.5t216 24.5q112 0 198.5 -13.5t159.5 -41.5v-299q-36 25 -78.5 44t-87.5 31.5t-89.5 18.5t-84.5 6q-55 0 -100 -10.5t-76 -29.5t-48 -45.5t-17 -59.5q0 -36 19 -64.5t54 -54t85 -50t113 -50.5q86 -36 154.5 -76.5 t117.5 -91.5t75 -116.5t26 -152.5q0 -120 -45.5 -201.5t-123.5 -132t-181.5 -72.5t-218.5 -22q-118 0 -224.5 20t-184.5 60v320q87 -73 189 -109.5t206 -36.5q61 0 106.5 11t76 30.5t45.5 46t15 57.5q0 42 -24 75t-65.5 61t-98.5 54t-123 53q-168 70 -250.5 171t-82.5 244z M238 1817h201l152 -138l141 138h201l-228 -250h-239zM470 1924q0 45 33.5 73t83.5 28q51 0 83 -28.5t32 -72.5t-32.5 -73.5t-82.5 -29.5q-51 0 -84 30t-33 73z" />
<glyph unicode="&#x1e67;" horiz-adv-x="901" d="M66 27v256q78 -47 155.5 -70t146.5 -23q84 0 132.5 23t48.5 70q0 30 -22 50t-56.5 35t-75.5 27t-79 27q-61 23 -107.5 49.5t-78 61.5t-48 81t-16.5 109q0 86 37.5 148t100 101.5t143 58t167.5 18.5q68 0 138 -10.5t138 -30.5v-244q-60 35 -128.5 52.5t-134.5 17.5 q-31 0 -58.5 -5.5t-48.5 -16t-33 -27t-12 -37.5q0 -28 18 -48t47 -34.5t64.5 -26t70.5 -23.5q63 -22 114 -48t87.5 -61t56 -82t19.5 -112q0 -91 -39.5 -155.5t-105 -105t-151 -59t-177.5 -18.5q-169 0 -313 52zM93 1468h201l152 -137l141 137h201l-228 -249h-239zM325 1575 q0 45 33.5 73t83.5 28q51 0 83 -28.5t32 -72.5t-32 -73t-83 -29t-84 29.5t-33 72.5z" />
<glyph unicode="&#x1e68;" horiz-adv-x="1148" d="M92 1032q0 112 45 192.5t122.5 132.5t179.5 76.5t216 24.5q112 0 198.5 -13.5t159.5 -41.5v-299q-36 25 -78.5 44t-87.5 31.5t-89.5 18.5t-84.5 6q-55 0 -100 -10.5t-76 -29.5t-48 -45.5t-17 -59.5q0 -36 19 -64.5t54 -54t85 -50t113 -50.5q86 -36 154.5 -76.5 t117.5 -91.5t75 -116.5t26 -152.5q0 -120 -45.5 -201.5t-123.5 -132t-181.5 -72.5t-218.5 -22q-118 0 -224.5 20t-184.5 60v320q87 -73 189 -109.5t206 -36.5q61 0 106.5 11t76 30.5t45.5 46t15 57.5q0 42 -24 75t-65.5 61t-98.5 54t-123 53q-168 70 -250.5 171t-82.5 244z M387 -254q0 60 44 97.5t110 37.5q67 0 109.5 -38t42.5 -97t-42.5 -98t-109.5 -39t-110.5 40t-43.5 97zM411 1672q0 60 44 97.5t110 37.5q67 0 109.5 -38t42.5 -97t-42.5 -98t-109.5 -39t-110.5 40t-43.5 97z" />
<glyph unicode="&#x1e69;" horiz-adv-x="901" d="M66 27v256q78 -47 155.5 -70t146.5 -23q84 0 132.5 23t48.5 70q0 30 -22 50t-56.5 35t-75.5 27t-79 27q-61 23 -107.5 49.5t-78 61.5t-48 81t-16.5 109q0 86 37.5 148t100 101.5t143 58t167.5 18.5q68 0 138 -10.5t138 -30.5v-244q-60 35 -128.5 52.5t-134.5 17.5 q-31 0 -58.5 -5.5t-48.5 -16t-33 -27t-12 -37.5q0 -28 18 -48t47 -34.5t64.5 -26t70.5 -23.5q63 -22 114 -48t87.5 -61t56 -82t19.5 -112q0 -91 -39.5 -155.5t-105 -105t-151 -59t-177.5 -18.5q-169 0 -313 52zM311 -254q0 60 44 97.5t110 37.5q67 0 109.5 -38t42.5 -97 t-42.5 -98t-109.5 -39t-110.5 40t-43.5 97zM312 1323q0 60 44 97.5t110 37.5q67 0 109.5 -38t42.5 -97t-42.5 -98t-109.5 -39t-110.5 40t-43.5 97z" />
<glyph unicode="&#x1e6a;" horiz-adv-x="1200" d="M31 1171v263h1140v-263h-409v-1171h-324v1171h-407zM445 1672q0 60 44 97.5t110 37.5q67 0 109.5 -38t42.5 -97t-42.5 -98t-109.5 -39t-110.5 40t-43.5 97z" />
<glyph unicode="&#x1e6b;" horiz-adv-x="797" d="M41 791v233h166v221l315 90v-311h230v-233h-230v-414q0 -160 127 -160q50 0 103 29v-234q-70 -37 -211 -37q-334 0 -334 347v469h-166zM217 1531q0 60 44 97.5t110 37.5q67 0 109.5 -38t42.5 -97t-42.5 -98t-109.5 -39t-110.5 40t-43.5 97z" />
<glyph unicode="&#x1e6c;" horiz-adv-x="1200" d="M31 1171v263h1140v-263h-409v-1171h-324v1171h-407zM446 -254q0 60 44 97.5t110 37.5q67 0 109.5 -38t42.5 -97t-42.5 -98t-109.5 -39t-110.5 40t-43.5 97z" />
<glyph unicode="&#x1e6d;" horiz-adv-x="797" d="M41 791v233h166v221l315 90v-311h230v-233h-230v-414q0 -160 127 -160q50 0 103 29v-234q-70 -37 -211 -37q-334 0 -334 347v469h-166zM260 -254q0 60 44 97.5t110 37.5q67 0 109.5 -38t42.5 -97t-42.5 -98t-109.5 -39t-110.5 40t-43.5 97z" />
<glyph unicode="&#x1e6e;" horiz-adv-x="1200" d="M31 1171v263h1140v-263h-409v-1171h-324v1171h-407zM310 -107h586v-172h-586v172z" />
<glyph unicode="&#x1e6f;" horiz-adv-x="797" d="M41 791v233h166v221l315 90v-311h230v-233h-230v-414q0 -160 127 -160q50 0 103 29v-234q-70 -37 -211 -37q-334 0 -334 347v469h-166zM166 -107h586v-172h-586v172z" />
<glyph unicode="&#x1e70;" horiz-adv-x="1200" d="M31 1171v263h1140v-263h-409v-1171h-324v1171h-407zM239 -483l235 325h248l236 -325h-207l-158 188l-147 -188h-207z" />
<glyph unicode="&#x1e71;" horiz-adv-x="797" d="M41 791v233h166v221l315 90v-311h230v-233h-230v-414q0 -160 127 -160q50 0 103 29v-234q-70 -37 -211 -37q-334 0 -334 347v469h-166zM68 -482l235 325h248l236 -325h-207l-158 188l-147 -188h-207z" />
<glyph unicode="&#x1e72;" horiz-adv-x="1481" d="M147 606v828h324v-832q0 -348 272 -348q267 0 267 336v844h323v-813q0 -646 -602 -646q-584 0 -584 631zM355 -212q0 60 44 98.5t110 38.5q68 0 110.5 -38.5t42.5 -98.5q0 -61 -42.5 -99t-110.5 -38t-111 39.5t-43 97.5zM814 -212q0 61 43 99t110 38t110.5 -38.5 t43.5 -98.5t-43 -98.5t-111 -38.5q-67 0 -110 39t-43 98z" />
<glyph unicode="&#x1e73;" horiz-adv-x="1239" d="M117 406v618h315v-590q0 -217 172 -217q85 0 136 59.5t51 161.5v586h315v-1024h-315v156h-5q-117 -181 -313 -181q-356 0 -356 431zM242 -211q0 60 44 98.5t110 38.5q68 0 110.5 -38.5t42.5 -98.5q0 -61 -42.5 -99t-110.5 -38t-111 39.5t-43 97.5zM701 -211q0 61 43 99 t110 38t110.5 -38.5t43.5 -98.5t-43 -98.5t-111 -38.5q-67 0 -110 39t-43 98z" />
<glyph unicode="&#x1e74;" horiz-adv-x="1481" d="M147 606v828h324v-832q0 -348 272 -348q267 0 267 336v844h323v-813q0 -646 -602 -646q-584 0 -584 631zM367 -370q0 139 55 216t154 77q81 0 168 -49q79 -44 120 -44q78 0 78 111h144q0 -140 -55.5 -216.5t-151.5 -76.5q-86 0 -168 43q-89 47 -123 47q-80 0 -80 -108 h-141z" />
<glyph unicode="&#x1e75;" horiz-adv-x="1239" d="M117 406v618h315v-590q0 -217 172 -217q85 0 136 59.5t51 161.5v586h315v-1024h-315v156h-5q-117 -181 -313 -181q-356 0 -356 431zM261 -370q0 139 55 216t154 77q81 0 168 -49q79 -44 120 -44q78 0 78 111h144q0 -140 -55.5 -216.5t-151.5 -76.5q-86 0 -168 43 q-89 47 -123 47q-80 0 -80 -108h-141z" />
<glyph unicode="&#x1e76;" horiz-adv-x="1481" d="M147 606v828h324v-832q0 -348 272 -348q267 0 267 336v844h323v-813q0 -646 -602 -646q-584 0 -584 631zM374 -473l235 325h248l236 -325h-207l-158 188l-147 -188h-207z" />
<glyph unicode="&#x1e77;" horiz-adv-x="1239" d="M117 406v618h315v-590q0 -217 172 -217q85 0 136 59.5t51 161.5v586h315v-1024h-315v156h-5q-117 -181 -313 -181q-356 0 -356 431zM259 -473l235 325h248l236 -325h-207l-158 188l-147 -188h-207z" />
<glyph unicode="&#x1e78;" horiz-adv-x="1481" d="M147 606v828h324v-832q0 -348 272 -348q267 0 267 336v844h323v-813q0 -646 -602 -646q-584 0 -584 631zM394 1548q0 110 55.5 171t157.5 61q72 0 152 -35q85 -37 123 -37q75 0 75 76h144q0 -230 -209 -230q-59 0 -150 35q-96 37 -129 37q-75 0 -75 -78h-144zM562 1831 l180 246h281l-264 -246h-197z" />
<glyph unicode="&#x1e79;" horiz-adv-x="1239" d="M117 406v618h315v-590q0 -217 172 -217q85 0 136 59.5t51 161.5v586h315v-1024h-315v156h-5q-117 -181 -313 -181q-356 0 -356 431zM265 1202q0 110 55.5 171t157.5 61q72 0 152 -35q85 -37 123 -37q75 0 75 76h144q0 -230 -209 -230q-59 0 -150 35q-96 37 -129 37 q-75 0 -75 -78h-144zM433 1485l180 246h281l-264 -246h-197z" />
<glyph unicode="&#x1e7a;" horiz-adv-x="1481" d="M147 606v828h324v-832q0 -348 272 -348q267 0 267 336v844h323v-813q0 -646 -602 -646q-584 0 -584 631zM415 1885q0 47 34.5 77t86.5 30q53 0 87 -30t34 -77t-33 -77.5t-88 -30.5q-52 0 -86.5 31t-34.5 77zM442 1567v151h586v-151h-586zM814 1885q0 47 33.5 77t86.5 30 t87 -30t34 -77t-33 -77.5t-88 -30.5q-52 0 -86 31t-34 77z" />
<glyph unicode="&#x1e7b;" horiz-adv-x="1239" d="M117 406v618h315v-590q0 -217 172 -217q85 0 136 59.5t51 161.5v586h315v-1024h-315v156h-5q-117 -181 -313 -181q-356 0 -356 431zM290 1537q0 47 34.5 77t86.5 30q53 0 87 -30t34 -77t-33 -77.5t-88 -30.5q-52 0 -86.5 31t-34.5 77zM317 1219v151h586v-151h-586z M689 1537q0 47 33.5 77t86.5 30t87 -30t34 -77t-33 -77.5t-88 -30.5q-52 0 -86 31t-34 77z" />
<glyph unicode="&#x1e7c;" horiz-adv-x="1366" d="M10 1434h348l299 -998q24 -81 29 -143h6q7 67 31 147l297 994h338l-494 -1434h-366zM333 1535q0 139 55 216t154 77q81 0 168 -49q79 -44 120 -44q78 0 78 111h144q0 -140 -55.5 -216.5t-151.5 -76.5q-86 0 -168 43q-89 47 -123 47q-80 0 -80 -108h-141z" />
<glyph unicode="&#x1e7d;" horiz-adv-x="1110" d="M4 1024h338l178 -631q30 -107 35 -182h4q7 71 37 176l182 637h330l-381 -1024h-360zM196 1186q0 139 55 216t154 77q81 0 168 -49q79 -44 120 -44q78 0 78 111h144q0 -140 -55.5 -216.5t-151.5 -76.5q-86 0 -168 43q-89 47 -123 47q-80 0 -80 -108h-141z" />
<glyph unicode="&#x1e7e;" horiz-adv-x="1366" d="M10 1434h348l299 -998q24 -81 29 -143h6q7 67 31 147l297 994h338l-494 -1434h-366zM528 -254q0 60 44 97.5t110 37.5q67 0 109.5 -38t42.5 -97t-42.5 -98t-109.5 -39t-110.5 40t-43.5 97z" />
<glyph unicode="&#x1e7f;" horiz-adv-x="1110" d="M4 1024h338l178 -631q30 -107 35 -182h4q7 71 37 176l182 637h330l-381 -1024h-360zM397 -254q0 60 44 97.5t110 37.5q67 0 109.5 -38t42.5 -97t-42.5 -98t-109.5 -39t-110.5 40t-43.5 97z" />
<glyph unicode="&#x1e80;" horiz-adv-x="2058" d="M18 1434h353l202 -955q13 -61 19 -164h6q4 77 29 168l260 951h346l235 -963q13 -53 23 -154h4q4 79 21 160l198 957h326l-379 -1434h-358l-238 920q-19 72 -23 161h-4q-9 -98 -26 -161l-244 -920h-373zM702 1890h281l260 -323h-227z" />
<glyph unicode="&#x1e81;" horiz-adv-x="1633" d="M16 1024h322l141 -668q10 -47 15 -114h6q5 70 18 118l176 664h301l158 -668q6 -25 14 -116h7q5 58 16 116l133 668h293l-295 -1024h-332l-151 600q-15 60 -17 131h-6q-7 -78 -20 -127l-162 -604h-328zM530 1509h281l260 -323h-227z" />
<glyph unicode="&#x1e82;" horiz-adv-x="2058" d="M18 1434h353l202 -955q13 -61 19 -164h6q4 77 29 168l260 951h346l235 -963q13 -53 23 -154h4q4 79 21 160l198 957h326l-379 -1434h-358l-238 920q-19 72 -23 161h-4q-9 -98 -26 -161l-244 -920h-373zM831 1567l260 323h281l-313 -323h-228z" />
<glyph unicode="&#x1e83;" horiz-adv-x="1633" d="M16 1024h322l141 -668q10 -47 15 -114h6q5 70 18 118l176 664h301l158 -668q6 -25 14 -116h7q5 58 16 116l133 668h293l-295 -1024h-332l-151 600q-15 60 -17 131h-6q-7 -78 -20 -127l-162 -604h-328zM606 1186l260 323h281l-313 -323h-228z" />
<glyph unicode="&#x1e84;" horiz-adv-x="2058" d="M18 1434h353l202 -955q13 -61 19 -164h6q4 77 29 168l260 951h346l235 -963q13 -53 23 -154h4q4 79 21 160l198 957h326l-379 -1434h-358l-238 920q-19 72 -23 161h-4q-9 -98 -26 -161l-244 -920h-373zM667 1704q0 60 44 98.5t110 38.5q68 0 110.5 -38.5t42.5 -98.5 q0 -61 -42.5 -99t-110.5 -38t-111 39.5t-43 97.5zM1126 1704q0 61 43 99t110 38t110.5 -38.5t43.5 -98.5t-43 -98.5t-111 -38.5q-67 0 -110 39t-43 98z" />
<glyph unicode="&#x1e85;" horiz-adv-x="1633" d="M16 1024h322l141 -668q10 -47 15 -114h6q5 70 18 118l176 664h301l158 -668q6 -25 14 -116h7q5 58 16 116l133 668h293l-295 -1024h-332l-151 600q-15 60 -17 131h-6q-7 -78 -20 -127l-162 -604h-328zM466 1323q0 60 44 98.5t110 38.5q68 0 110.5 -38.5t42.5 -98.5 q0 -61 -42.5 -99t-110.5 -38t-111 39.5t-43 97.5zM925 1323q0 61 43 99t110 38t110.5 -38.5t43.5 -98.5t-43 -98.5t-111 -38.5q-67 0 -110 39t-43 98z" />
<glyph unicode="&#x1e86;" horiz-adv-x="2058" d="M18 1434h353l202 -955q13 -61 19 -164h6q4 77 29 168l260 951h346l235 -963q13 -53 23 -154h4q4 79 21 160l198 957h326l-379 -1434h-358l-238 920q-19 72 -23 161h-4q-9 -98 -26 -161l-244 -920h-373zM904 1672q0 60 44 97.5t110 37.5q67 0 109.5 -38t42.5 -97 t-42.5 -98t-109.5 -39t-110.5 40t-43.5 97z" />
<glyph unicode="&#x1e87;" horiz-adv-x="1633" d="M16 1024h322l141 -668q10 -47 15 -114h6q5 70 18 118l176 664h301l158 -668q6 -25 14 -116h7q5 58 16 116l133 668h293l-295 -1024h-332l-151 600q-15 60 -17 131h-6q-7 -78 -20 -127l-162 -604h-328zM691 1323q0 60 44 97.5t110 37.5q67 0 109.5 -38t42.5 -97t-42.5 -98 t-109.5 -39t-110.5 40t-43.5 97z" />
<glyph unicode="&#x1e88;" horiz-adv-x="2058" d="M18 1434h353l202 -955q13 -61 19 -164h6q4 77 29 168l260 951h346l235 -963q13 -53 23 -154h4q4 79 21 160l198 957h326l-379 -1434h-358l-238 920q-19 72 -23 161h-4q-9 -98 -26 -161l-244 -920h-373zM881 -254q0 60 44 97.5t110 37.5q67 0 109.5 -38t42.5 -97 t-42.5 -98t-109.5 -39t-110.5 40t-43.5 97z" />
<glyph unicode="&#x1e89;" horiz-adv-x="1633" d="M16 1024h322l141 -668q10 -47 15 -114h6q5 70 18 118l176 664h301l158 -668q6 -25 14 -116h7q5 58 16 116l133 668h293l-295 -1024h-332l-151 600q-15 60 -17 131h-6q-7 -78 -20 -127l-162 -604h-328zM659 -254q0 60 44 97.5t110 37.5q67 0 109.5 -38t42.5 -97t-42.5 -98 t-109.5 -39t-110.5 40t-43.5 97z" />
<glyph unicode="&#x1e8a;" horiz-adv-x="1342" d="M6 0l457 717l-418 717h393l205 -430q24 -51 43 -121h4q12 42 45 125l228 426h360l-430 -711l442 -723h-383l-247 467q-14 26 -29 96h-4q-7 -33 -33 -100l-248 -463h-385zM550 1672q0 60 44 97.5t110 37.5q67 0 109.5 -38t42.5 -97t-42.5 -98t-109.5 -39t-110.5 40 t-43.5 97z" />
<glyph unicode="&#x1e8b;" horiz-adv-x="1131" d="M8 0l346 510l-325 514h366l146 -287q29 -57 41 -96h4q16 47 43 98l149 285h344l-338 -496l336 -528h-364l-148 276q-18 33 -43 93h-4q-15 -42 -41 -90l-149 -279h-363zM442 1323q0 60 44 97.5t110 37.5q67 0 109.5 -38t42.5 -97t-42.5 -98t-109.5 -39t-110.5 40t-43.5 97 z" />
<glyph unicode="&#x1e8c;" horiz-adv-x="1342" d="M6 0l457 717l-418 717h393l205 -430q24 -51 43 -121h4q12 42 45 125l228 426h360l-430 -711l442 -723h-383l-247 467q-14 26 -29 96h-4q-7 -33 -33 -100l-248 -463h-385zM315 1672q0 60 44 98.5t110 38.5q68 0 110.5 -38.5t42.5 -98.5q0 -61 -42.5 -99t-110.5 -38 t-111 39.5t-43 97.5zM774 1672q0 61 43 99t110 38t110.5 -38.5t43.5 -98.5t-43 -98.5t-111 -38.5q-67 0 -110 39t-43 98z" />
<glyph unicode="&#x1e8d;" horiz-adv-x="1131" d="M8 0l346 510l-325 514h366l146 -287q29 -57 41 -96h4q16 47 43 98l149 285h344l-338 -496l336 -528h-364l-148 276q-18 33 -43 93h-4q-15 -42 -41 -90l-149 -279h-363zM188 1323q0 60 44 98.5t110 38.5q68 0 110.5 -38.5t42.5 -98.5q0 -61 -42.5 -99t-110.5 -38 t-111 39.5t-43 97.5zM647 1323q0 61 43 99t110 38t110.5 -38.5t43.5 -98.5t-43 -98.5t-111 -38.5q-67 0 -110 39t-43 98z" />
<glyph unicode="&#x1e8e;" horiz-adv-x="1243" d="M0 1434h369l231 -535q6 -15 33 -117h4q13 72 31 113l235 539h342l-467 -924v-510h-323v504zM484 1672q0 60 44 97.5t110 37.5q67 0 109.5 -38t42.5 -97t-42.5 -98t-109.5 -39t-110.5 40t-43.5 97z" />
<glyph unicode="&#x1e8f;" d="M-4 1024h350l191 -623q18 -58 28 -137h4q9 58 33 135l193 625h313l-416 -1106q-150 -399 -452 -399q-115 0 -189 26v252q63 -37 137 -37q122 0 170 115l54 127zM413 1323q0 60 44 97.5t110 37.5q67 0 109.5 -38t42.5 -97t-42.5 -98t-109.5 -39t-110.5 40t-43.5 97z" />
<glyph unicode="&#x1e90;" horiz-adv-x="1243" d="M41 0v186l735 985h-682v263h1100v-181l-719 -991h721v-262h-1155zM285 1535l235 325h248l236 -325h-207l-158 188l-147 -188h-207z" />
<glyph unicode="&#x1e91;" horiz-adv-x="981" d="M25 0v131l514 660h-463v233h864v-156l-487 -635h491v-233h-919zM154 1186l235 325h248l236 -325h-207l-158 188l-147 -188h-207z" />
<glyph unicode="&#x1e92;" horiz-adv-x="1243" d="M41 0v186l735 985h-682v263h1100v-181l-719 -991h721v-262h-1155zM501 -254q0 60 44 97.5t110 37.5q67 0 109.5 -38t42.5 -97t-42.5 -98t-109.5 -39t-110.5 40t-43.5 97z" />
<glyph unicode="&#x1e93;" horiz-adv-x="981" d="M25 0v131l514 660h-463v233h864v-156l-487 -635h491v-233h-919zM342 -254q0 60 44 97.5t110 37.5q67 0 109.5 -38t42.5 -97t-42.5 -98t-109.5 -39t-110.5 40t-43.5 97z" />
<glyph unicode="&#x1e94;" horiz-adv-x="1243" d="M41 0v186l735 985h-682v263h1100v-181l-719 -991h721v-262h-1155zM334 -107h586v-172h-586v172z" />
<glyph unicode="&#x1e95;" horiz-adv-x="981" d="M25 0v131l514 660h-463v233h864v-156l-487 -635h491v-233h-919zM199 -107h586v-172h-586v172z" />
<glyph unicode="&#x1e96;" horiz-adv-x="1233" d="M133 0v1516h316v-644h4q116 177 315 177q348 0 348 -420v-629h-315v582q0 225 -164 225q-84 0 -136 -63t-52 -160v-584h-316zM332 -88h586v-172h-586v172z" />
<glyph unicode="&#x1e97;" horiz-adv-x="797" d="M14 1531q0 60 44 98.5t110 38.5q68 0 110.5 -38.5t42.5 -98.5q0 -61 -42.5 -99t-110.5 -38t-111 39.5t-43 97.5zM41 791v233h166v221l315 90v-311h230v-233h-230v-414q0 -160 127 -160q50 0 103 29v-234q-70 -37 -211 -37q-334 0 -334 347v469h-166zM473 1531q0 61 43 99 t110 38t110.5 -38.5t43.5 -98.5t-43 -98.5t-111 -38.5q-67 0 -110 39t-43 98z" />
<glyph unicode="&#x1e98;" horiz-adv-x="1633" d="M16 1024h322l141 -668q10 -47 15 -114h6q5 70 18 118l176 664h301l158 -668q6 -25 14 -116h7q5 58 16 116l133 668h293l-295 -1024h-332l-151 600q-15 60 -17 131h-6q-7 -78 -20 -127l-162 -604h-328zM600 1401q0 101 69.5 161t170.5 60q107 0 173 -59.5t66 -155.5 q0 -98 -71.5 -159.5t-172.5 -61.5q-102 0 -168.5 59.5t-66.5 155.5zM739 1405q0 -94 96 -94q45 0 74 27.5t29 66.5q0 41 -28.5 67.5t-74.5 26.5q-96 0 -96 -94z" />
<glyph unicode="&#x1e99;" d="M-4 1024h350l191 -623q18 -58 28 -137h4q9 58 33 135l193 625h313l-416 -1106q-150 -399 -452 -399q-115 0 -189 26v252q63 -37 137 -37q122 0 170 115l54 127zM344 1401q0 101 69.5 161t170.5 60q107 0 173 -59.5t66 -155.5q0 -98 -71.5 -159.5t-172.5 -61.5 q-102 0 -168.5 59.5t-66.5 155.5zM483 1405q0 -94 96 -94q45 0 74 27.5t29 66.5q0 41 -28.5 67.5t-74.5 26.5q-96 0 -96 -94z" />
<glyph unicode="&#x1e9a;" d="M57 285q0 298 353 344l278 37q0 168 -182 168q-183 0 -348 -109v238q66 34 180.5 60t208.5 26q438 0 438 -437v-612h-299v147h-4q-103 -172 -305 -172q-149 0 -234.5 84.5t-85.5 225.5zM348 322q0 -54 37.5 -88.5t101.5 -34.5q89 0 145 61.5t56 155.5v69l-186 -24 q-154 -20 -154 -139zM476 1182v133q95 0 95 69q0 68 -95 68v135q99 0 160.5 -57.5t61.5 -145.5q0 -87 -61.5 -144.5t-160.5 -57.5z" />
<glyph unicode="&#x1e9b;" horiz-adv-x="613" d="M-6 1672q0 60 44 97.5t110 37.5q67 0 109.5 -38t42.5 -97t-42.5 -98t-109.5 -39t-110.5 40t-43.5 97zM133 0v1151q0 175 114 282t310 107q96 0 160 -20v-246q-61 24 -117 24q-151 0 -151 -165v-1133h-316z" />
<glyph unicode="&#x1e9c;" horiz-adv-x="785" d="M45 791v233h172v127q0 87 29.5 159t84.5 123t133.5 79t176.5 28q94 0 160 -20v-246q-62 24 -117 24q-152 0 -152 -165v-283l198 118v-232l-198 -118v-618h-315v432l-162 -96v232l162 96v127h-172z" />
<glyph unicode="&#x1e9d;" horiz-adv-x="785" d="M45 661v233h172v95h-172v205h174q7 78 39.5 142t87 109.5t129 70t166.5 24.5q94 0 160 -20v-246q-62 24 -117 24q-120 0 -146 -104h246v-205h-252v-989h-315v661h-172z" />
<glyph unicode="&#x1e9e;" horiz-adv-x="1379" d="M150 0v953q0 129 39.5 223.5t111 156t172 91.5t222.5 30q106 0 198 -24t160.5 -71t107.5 -116t39 -159q0 -63 -18 -114.5t-51 -92t-80 -69t-104 -45.5v-4q183 -32 271.5 -126t88.5 -251q0 -92 -34.5 -167t-98 -128.5t-153 -82.5t-199.5 -29q-66 0 -120.5 8t-108.5 25v262 q42 -26 93.5 -39.5t98.5 -13.5q84 0 133 48t49 134q0 107 -88.5 164t-251.5 62v219q112 8 173 60t61 143q0 78 -47.5 118t-122.5 40q-51 0 -91.5 -13.5t-68.5 -43.5t-43 -77.5t-15 -115.5v-955h-323z" />
<glyph unicode="&#x1e9f;" horiz-adv-x="1252" d="M72 459q0 341 353 473q-204 124 -204 308q0 68 32 123t89.5 93.5t137.5 59t177 20.5q168 0 375 -77v-298q-196 133 -351 133q-138 0 -138 -86q0 -21 8.5 -39t36 -40.5t80.5 -54t143 -79.5q369 -198 369 -501q0 -117 -38 -212.5t-110.5 -163.5t-177 -105.5t-237.5 -37.5 q-124 0 -224.5 37t-172 102.5t-110 154t-38.5 190.5zM393 483q0 -60 16.5 -109t47 -84t74 -54t97.5 -19t96.5 19.5t72 54.5t45.5 83.5t16 107.5q0 183 -235 309q-50 -17 -92.5 -47t-73 -70t-47.5 -88.5t-17 -102.5z" />
<glyph unicode="&#x1ea0;" horiz-adv-x="1440" d="M10 0l522 1434h383l510 -1434h-352l-102 319h-510l-101 -319h-350zM530 567h367l-154 482q-17 54 -24 129h-8q-5 -63 -25 -125zM571 -254q0 60 44 97.5t110 37.5q67 0 109.5 -38t42.5 -97t-42.5 -98t-109.5 -39t-110.5 40t-43.5 97z" />
<glyph unicode="&#x1ea1;" d="M57 285q0 298 353 344l278 37q0 168 -182 168q-183 0 -348 -109v238q66 34 180.5 60t208.5 26q438 0 438 -437v-612h-299v147h-4q-103 -172 -305 -172q-149 0 -234.5 84.5t-85.5 225.5zM348 322q0 -54 37.5 -88.5t101.5 -34.5q89 0 145 61.5t56 155.5v69l-186 -24 q-154 -20 -154 -139zM388 -254q0 60 44 97.5t110 37.5q67 0 109.5 -38t42.5 -97t-42.5 -98t-109.5 -39t-110.5 40t-43.5 97z" />
<glyph unicode="&#x1ea2;" horiz-adv-x="1440" d="M10 0l522 1434h383l510 -1434h-352l-102 319h-510l-101 -319h-350zM530 567h367l-154 482q-17 54 -24 129h-8q-5 -63 -25 -125zM584 1802v117q90 6 115 6q209 0 209 -158q0 -124 -143 -149v-49h-140v124q119 7 119 64q0 55 -82 55q-38 0 -78 -10z" />
<glyph unicode="&#x1ea3;" d="M57 285q0 298 353 344l278 37q0 168 -182 168q-183 0 -348 -109v238q66 34 180.5 60t208.5 26q438 0 438 -437v-612h-299v147h-4q-103 -172 -305 -172q-149 0 -234.5 84.5t-85.5 225.5zM348 322q0 -54 37.5 -88.5t101.5 -34.5q89 0 145 61.5t56 155.5v69l-186 -24 q-154 -20 -154 -139zM428 1452v117q90 6 115 6q209 0 209 -158q0 -124 -143 -149v-49h-140v124q119 7 119 64q0 55 -82 55q-38 0 -78 -10z" />
<glyph unicode="&#x1ea4;" horiz-adv-x="1440" d="M10 0l522 1434h383l510 -1434h-352l-102 319h-510l-101 -319h-350zM362 1568l227 249h240l227 -249h-201l-151 137l-142 -137h-200zM530 567h367l-154 482q-17 54 -24 129h-8q-5 -63 -25 -125zM964 1719l180 246h281l-265 -246h-196z" />
<glyph unicode="&#x1ea5;" d="M57 285q0 298 353 344l278 37q0 168 -182 168q-183 0 -348 -109v238q66 34 180.5 60t208.5 26q438 0 438 -437v-612h-299v147h-4q-103 -172 -305 -172q-149 0 -234.5 84.5t-85.5 225.5zM203 1219l227 249h240l227 -249h-201l-151 137l-142 -137h-200zM348 322 q0 -54 37.5 -88.5t101.5 -34.5q89 0 145 61.5t56 155.5v69l-186 -24q-154 -20 -154 -139zM805 1370l180 246h281l-265 -246h-196z" />
<glyph unicode="&#x1ea6;" horiz-adv-x="1440" d="M-1 1965h280l181 -246h-197zM10 0l522 1434h383l510 -1434h-352l-102 319h-510l-101 -319h-350zM367 1568l228 249h239l228 -249h-201l-141 137l-152 -137h-201zM530 567h367l-154 482q-17 54 -24 129h-8q-5 -63 -25 -125z" />
<glyph unicode="&#x1ea7;" d="M-159 1616h280l181 -246h-197zM57 285q0 298 353 344l278 37q0 168 -182 168q-183 0 -348 -109v238q66 34 180.5 60t208.5 26q438 0 438 -437v-612h-299v147h-4q-103 -172 -305 -172q-149 0 -234.5 84.5t-85.5 225.5zM209 1219l228 249h239l228 -249h-201l-141 137 l-152 -137h-201zM348 322q0 -54 37.5 -88.5t101.5 -34.5q89 0 145 61.5t56 155.5v69l-186 -24q-154 -20 -154 -139z" />
<glyph unicode="&#x1ea8;" horiz-adv-x="1440" d="M10 0l522 1434h383l510 -1434h-352l-102 319h-510l-101 -319h-350zM368 1569l227 249h240l227 -249h-201l-151 137l-142 -137h-200zM530 567h367l-154 482q-17 54 -24 129h-8q-5 -63 -25 -125zM962 1954v116q90 6 114 6q209 0 209 -157q0 -125 -143 -150v-49h-139v125 q118 7 118 64q0 55 -82 55q-37 0 -77 -10z" />
<glyph unicode="&#x1ea9;" d="M57 285q0 298 353 344l278 37q0 168 -182 168q-183 0 -348 -109v238q66 34 180.5 60t208.5 26q438 0 438 -437v-612h-299v147h-4q-103 -172 -305 -172q-149 0 -234.5 84.5t-85.5 225.5zM213 1219l227 249h240l227 -249h-201l-151 137l-142 -137h-200zM348 322 q0 -54 37.5 -88.5t101.5 -34.5q89 0 145 61.5t56 155.5v69l-186 -24q-154 -20 -154 -139zM807 1604v116q90 6 114 6q209 0 209 -157q0 -125 -143 -150v-49h-139v125q118 7 118 64q0 55 -82 55q-37 0 -77 -10z" />
<glyph unicode="&#x1eaa;" horiz-adv-x="1440" d="M10 0l522 1434h383l510 -1434h-352l-102 319h-510l-101 -319h-350zM353 1875q0 231 213 231q72 0 152 -35q83 -36 123 -36q75 0 75 75h144q0 -229 -209 -229q-59 0 -150 35q-96 37 -129 37q-75 0 -75 -78h-144zM361 1566l228 249h239l228 -249h-201l-152 137l-141 -137 h-201zM530 567h367l-154 482q-17 54 -24 129h-8q-5 -63 -25 -125z" />
<glyph unicode="&#x1eab;" d="M57 285q0 298 353 344l278 37q0 168 -182 168q-183 0 -348 -109v238q66 34 180.5 60t208.5 26q438 0 438 -437v-612h-299v147h-4q-103 -172 -305 -172q-149 0 -234.5 84.5t-85.5 225.5zM214 1528q0 231 213 231q72 0 152 -35q83 -36 123 -36q75 0 75 75h144 q0 -229 -209 -229q-59 0 -150 35q-96 37 -129 37q-75 0 -75 -78h-144zM222 1219l228 249h239l228 -249h-201l-152 137l-141 -137h-201zM348 322q0 -54 37.5 -88.5t101.5 -34.5q89 0 145 61.5t56 155.5v69l-186 -24q-154 -20 -154 -139z" />
<glyph unicode="&#x1eac;" horiz-adv-x="1440" d="M10 0l522 1434h383l510 -1434h-352l-102 319h-510l-101 -319h-350zM365 1535l235 325h248l236 -325h-207l-158 188l-147 -188h-207zM528 -254q0 60 44 97.5t110 37.5q67 0 109.5 -38t42.5 -97t-42.5 -98t-109.5 -39t-110.5 40t-43.5 97zM530 567h367l-154 482 q-17 54 -24 129h-8q-5 -63 -25 -125z" />
<glyph unicode="&#x1ead;" d="M57 285q0 298 353 344l278 37q0 168 -182 168q-183 0 -348 -109v238q66 34 180.5 60t208.5 26q438 0 438 -437v-612h-299v147h-4q-103 -172 -305 -172q-149 0 -234.5 84.5t-85.5 225.5zM206 1186l235 325h248l236 -325h-207l-158 188l-147 -188h-207zM348 322 q0 -54 37.5 -88.5t101.5 -34.5q89 0 145 61.5t56 155.5v69l-186 -24q-154 -20 -154 -139zM380 -254q0 60 44 97.5t110 37.5q67 0 109.5 -38t42.5 -97t-42.5 -98t-109.5 -39t-110.5 40t-43.5 97z" />
<glyph unicode="&#x1eae;" horiz-adv-x="1440" d="M10 0l522 1434h383l510 -1434h-352l-102 319h-510l-101 -319h-350zM410 1817h162q15 -100 158 -100q135 0 151 100h162q-11 -116 -95.5 -183.5t-222.5 -67.5t-224.5 70t-90.5 181zM530 567h367l-154 482q-17 54 -24 129h-8q-5 -63 -25 -125zM613 1797l180 246h281 l-265 -246h-196z" />
<glyph unicode="&#x1eaf;" d="M57 285q0 298 353 344l278 37q0 168 -182 168q-183 0 -348 -109v238q66 34 180.5 60t208.5 26q438 0 438 -437v-612h-299v147h-4q-103 -172 -305 -172q-149 0 -234.5 84.5t-85.5 225.5zM274 1470h162q15 -100 158 -100q135 0 151 100h162q-11 -116 -95.5 -183.5 t-222.5 -67.5t-224.5 70t-90.5 181zM348 322q0 -54 37.5 -88.5t101.5 -34.5q89 0 145 61.5t56 155.5v69l-186 -24q-154 -20 -154 -139zM477 1450l180 246h281l-265 -246h-196z" />
<glyph unicode="&#x1eb0;" horiz-adv-x="1440" d="M10 0l522 1434h383l510 -1434h-352l-102 319h-510l-101 -319h-350zM363 2044h281l180 -246h-197zM396 1818h162q15 -100 158 -100q135 0 151 100h162q-11 -116 -95.5 -183.5t-222.5 -67.5t-224.5 70t-90.5 181zM530 567h367l-154 482q-17 54 -24 129h-8q-5 -63 -25 -125z " />
<glyph unicode="&#x1eb1;" d="M57 285q0 298 353 344l278 37q0 168 -182 168q-183 0 -348 -109v238q66 34 180.5 60t208.5 26q438 0 438 -437v-612h-299v147h-4q-103 -172 -305 -172q-149 0 -234.5 84.5t-85.5 225.5zM233 1696h281l180 -246h-197zM266 1470h162q15 -100 158 -100q135 0 151 100h162 q-11 -116 -95.5 -183.5t-222.5 -67.5t-224.5 70t-90.5 181zM348 322q0 -54 37.5 -88.5t101.5 -34.5q89 0 145 61.5t56 155.5v69l-186 -24q-154 -20 -154 -139z" />
<glyph unicode="&#x1eb2;" horiz-adv-x="1440" d="M10 0l522 1434h383l510 -1434h-352l-102 319h-510l-101 -319h-350zM401 1817h162q15 -100 158 -100q135 0 151 100h162q-11 -116 -95.5 -183.5t-222.5 -67.5t-224.5 70t-90.5 181zM530 567h367l-154 482q-17 54 -24 129h-8q-5 -63 -25 -125zM600 2026v117q90 6 114 6 q209 0 209 -157q0 -125 -143 -150v-49h-139v125q118 7 118 63t-81 56q-34 0 -78 -11z" />
<glyph unicode="&#x1eb3;" d="M57 285q0 298 353 344l278 37q0 168 -182 168q-183 0 -348 -109v238q66 34 180.5 60t208.5 26q438 0 438 -437v-612h-299v147h-4q-103 -172 -305 -172q-149 0 -234.5 84.5t-85.5 225.5zM274 1470h162q15 -100 158 -100q135 0 151 100h162q-11 -116 -95.5 -183.5 t-222.5 -67.5t-224.5 70t-90.5 181zM348 322q0 -54 37.5 -88.5t101.5 -34.5q89 0 145 61.5t56 155.5v69l-186 -24q-154 -20 -154 -139zM473 1679v117q90 6 114 6q209 0 209 -157q0 -125 -143 -150v-49h-139v125q118 7 118 63t-81 56q-34 0 -78 -11z" />
<glyph unicode="&#x1eb4;" horiz-adv-x="1440" d="M10 0l522 1434h383l510 -1434h-352l-102 319h-510l-101 -319h-350zM371 1875q0 231 213 231q72 0 152 -35q83 -36 123 -36q75 0 75 75h144q0 -229 -209 -229q-59 0 -150 35q-96 37 -129 37q-75 0 -75 -78h-144zM410 1817h162q15 -100 158 -100q135 0 151 100h162 q-11 -116 -95.5 -183.5t-221.5 -67.5q-138 0 -225 70t-91 181zM530 567h367l-154 482q-17 54 -24 129h-8q-5 -63 -25 -125z" />
<glyph unicode="&#x1eb5;" d="M57 285q0 298 353 344l278 37q0 168 -182 168q-183 0 -348 -109v238q66 34 180.5 60t208.5 26q438 0 438 -437v-612h-299v147h-4q-103 -172 -305 -172q-149 0 -234.5 84.5t-85.5 225.5zM219 1528q0 231 213 231q72 0 152 -35q83 -36 123 -36q75 0 75 75h144 q0 -229 -209 -229q-59 0 -150 35q-96 37 -129 37q-75 0 -75 -78h-144zM258 1470h162q15 -100 158 -100q135 0 151 100h162q-11 -116 -95.5 -183.5t-221.5 -67.5q-138 0 -225 70t-91 181zM348 322q0 -54 37.5 -88.5t101.5 -34.5q89 0 145 61.5t56 155.5v69l-186 -24 q-154 -20 -154 -139z" />
<glyph unicode="&#x1eb6;" horiz-adv-x="1440" d="M10 0l522 1434h383l510 -1434h-352l-102 319h-510l-101 -319h-350zM381 1841h179q17 -135 159 -135q137 0 156 135h180q-12 -141 -102.5 -224t-237.5 -83q-146 0 -238 85.5t-96 221.5zM528 -254q0 60 44 97.5t110 37.5q67 0 109.5 -38t42.5 -97t-42.5 -98t-109.5 -39 t-110.5 40t-43.5 97zM530 567h367l-154 482q-17 54 -24 129h-8q-5 -63 -25 -125z" />
<glyph unicode="&#x1eb7;" d="M57 285q0 298 353 344l278 37q0 168 -182 168q-183 0 -348 -109v238q66 34 180.5 60t208.5 26q438 0 438 -437v-612h-299v147h-4q-103 -172 -305 -172q-149 0 -234.5 84.5t-85.5 225.5zM242 1493h179q17 -135 159 -135q137 0 156 135h180q-12 -141 -102.5 -224 t-237.5 -83q-146 0 -238 85.5t-96 221.5zM348 322q0 -54 37.5 -88.5t101.5 -34.5q89 0 145 61.5t56 155.5v69l-186 -24q-154 -20 -154 -139zM380 -254q0 60 44 97.5t110 37.5q67 0 109.5 -38t42.5 -97t-42.5 -98t-109.5 -39t-110.5 40t-43.5 97z" />
<glyph unicode="&#x1eb8;" horiz-adv-x="1090" d="M164 0v1434h827v-263h-504v-319h469v-262h-469v-328h537v-262h-860zM455 -254q0 60 44 97.5t110 37.5q67 0 109.5 -38t42.5 -97t-42.5 -98t-109.5 -39t-110.5 40t-43.5 97z" />
<glyph unicode="&#x1eb9;" horiz-adv-x="1108" d="M72 496q0 255 148 404t364 149q224 0 346.5 -133t122.5 -361v-133h-668q16 -223 281 -223q169 0 297 80v-228q-142 -76 -369 -76q-248 0 -385 137.5t-137 383.5zM383 616h377q0 220 -178 220q-76 0 -131.5 -63t-67.5 -157zM428 -254q0 60 44 97.5t110 37.5 q67 0 109.5 -38t42.5 -97t-42.5 -98t-109.5 -39t-110.5 40t-43.5 97z" />
<glyph unicode="&#x1eba;" horiz-adv-x="1090" d="M164 0v1434h827v-263h-504v-319h469v-262h-469v-328h537v-262h-860zM457 1800v117q90 6 115 6q209 0 209 -158q0 -124 -143 -149v-49h-140v124q119 7 119 64q0 55 -82 55q-38 0 -78 -10z" />
<glyph unicode="&#x1ebb;" horiz-adv-x="1108" d="M72 496q0 255 148 404t364 149q224 0 346.5 -133t122.5 -361v-133h-668q16 -223 281 -223q169 0 297 80v-228q-142 -76 -369 -76q-248 0 -385 137.5t-137 383.5zM383 616h377q0 220 -178 220q-76 0 -131.5 -63t-67.5 -157zM449 1452v117q90 6 115 6q209 0 209 -158 q0 -124 -143 -149v-49h-140v124q119 7 119 64q0 55 -82 55q-38 0 -78 -10z" />
<glyph unicode="&#x1ebc;" horiz-adv-x="1090" d="M164 0v1434h827v-263h-504v-319h469v-262h-469v-328h537v-262h-860zM224 1534q0 139 55 216t154 77q81 0 168 -49q79 -44 120 -44q78 0 78 111h144q0 -140 -55.5 -216.5t-151.5 -76.5q-86 0 -168 43q-89 47 -123 47q-80 0 -80 -108h-141z" />
<glyph unicode="&#x1ebd;" horiz-adv-x="1108" d="M72 496q0 255 148 404t364 149q224 0 346.5 -133t122.5 -361v-133h-668q16 -223 281 -223q169 0 297 80v-228q-142 -76 -369 -76q-248 0 -385 137.5t-137 383.5zM219 1186q0 139 55 216t154 77q81 0 168 -49q79 -44 120 -44q78 0 78 111h144q0 -140 -55.5 -216.5 t-151.5 -76.5q-86 0 -168 43q-89 47 -123 47q-80 0 -80 -108h-141zM383 616h377q0 220 -178 220q-76 0 -131.5 -63t-67.5 -157z" />
<glyph unicode="&#x1ebe;" horiz-adv-x="1090" d="M164 0v1434h827v-263h-504v-319h469v-262h-469v-328h537v-262h-860zM231 1566l227 249h240l227 -249h-201l-151 137l-142 -137h-200zM833 1717l180 246h281l-265 -246h-196z" />
<glyph unicode="&#x1ebf;" horiz-adv-x="1108" d="M72 496q0 255 148 404t364 149q224 0 346.5 -133t122.5 -361v-133h-668q16 -223 281 -223q169 0 297 80v-228q-142 -76 -369 -76q-248 0 -385 137.5t-137 383.5zM225 1219l227 249h240l227 -249h-201l-151 137l-142 -137h-200zM383 616h377q0 220 -178 220 q-76 0 -131.5 -63t-67.5 -157zM827 1370l180 246h281l-265 -246h-196z" />
<glyph unicode="&#x1ec0;" horiz-adv-x="1090" d="M-121 1965h280l181 -246h-197zM164 0v1434h827v-263h-504v-319h469v-262h-469v-328h537v-262h-860zM247 1568l228 249h239l228 -249h-201l-141 137l-152 -137h-201z" />
<glyph unicode="&#x1ec1;" horiz-adv-x="1108" d="M-115 1616h280l181 -246h-197zM72 496q0 255 148 404t364 149q224 0 346.5 -133t122.5 -361v-133h-668q16 -223 281 -223q169 0 297 80v-228q-142 -76 -369 -76q-248 0 -385 137.5t-137 383.5zM253 1219l228 249h239l228 -249h-201l-141 137l-152 -137h-201zM383 616h377 q0 220 -178 220q-76 0 -131.5 -63t-67.5 -157z" />
<glyph unicode="&#x1ec2;" horiz-adv-x="1090" d="M164 0v1434h827v-263h-504v-319h469v-262h-469v-328h537v-262h-860zM244 1567l227 249h240l227 -249h-201l-151 137l-142 -137h-200zM838 1952v116q90 6 114 6q209 0 209 -157q0 -125 -143 -150v-49h-139v125q118 7 118 64q0 55 -82 55q-37 0 -77 -10z" />
<glyph unicode="&#x1ec3;" horiz-adv-x="1108" d="M72 496q0 255 148 404t364 149q224 0 346.5 -133t122.5 -361v-133h-668q16 -223 281 -223q169 0 297 80v-228q-142 -76 -369 -76q-248 0 -385 137.5t-137 383.5zM246 1219l227 249h240l227 -249h-201l-151 137l-142 -137h-200zM383 616h377q0 220 -178 220 q-76 0 -131.5 -63t-67.5 -157zM840 1604v116q90 6 114 6q209 0 209 -157q0 -125 -143 -150v-49h-139v125q118 7 118 64q0 55 -82 55q-37 0 -77 -10z" />
<glyph unicode="&#x1ec4;" horiz-adv-x="1090" d="M164 0v1434h827v-263h-504v-319h469v-262h-469v-328h537v-262h-860zM228 1876q0 231 213 231q72 0 152 -35q83 -36 123 -36q75 0 75 75h144q0 -229 -209 -229q-59 0 -150 35q-96 37 -129 37q-75 0 -75 -78h-144zM236 1567l228 249h239l228 -249h-201l-152 137l-141 -137 h-201z" />
<glyph unicode="&#x1ec5;" horiz-adv-x="1108" d="M72 496q0 255 148 404t364 149q224 0 346.5 -133t122.5 -361v-133h-668q16 -223 281 -223q169 0 297 80v-228q-142 -76 -369 -76q-248 0 -385 137.5t-137 383.5zM227 1528q0 231 213 231q72 0 152 -35q83 -36 123 -36q75 0 75 75h144q0 -229 -209 -229q-59 0 -150 35 q-96 37 -129 37q-75 0 -75 -78h-144zM235 1219l228 249h239l228 -249h-201l-152 137l-141 -137h-201zM383 616h377q0 220 -178 220q-76 0 -131.5 -63t-67.5 -157z" />
<glyph unicode="&#x1ec6;" horiz-adv-x="1090" d="M164 0v1434h827v-263h-504v-319h469v-262h-469v-328h537v-262h-860zM224 1535l235 325h248l236 -325h-207l-158 188l-147 -188h-207zM455 -254q0 60 44 97.5t110 37.5q67 0 109.5 -38t42.5 -97t-42.5 -98t-109.5 -39t-110.5 40t-43.5 97z" />
<glyph unicode="&#x1ec7;" horiz-adv-x="1108" d="M72 496q0 255 148 404t364 149q224 0 346.5 -133t122.5 -361v-133h-668q16 -223 281 -223q169 0 297 80v-228q-142 -76 -369 -76q-248 0 -385 137.5t-137 383.5zM227 1186l235 325h248l236 -325h-207l-158 188l-147 -188h-207zM383 616h377q0 220 -178 220 q-76 0 -131.5 -63t-67.5 -157zM450 -254q0 60 44 97.5t110 37.5q67 0 109.5 -38t42.5 -97t-42.5 -98t-109.5 -39t-110.5 40t-43.5 97z" />
<glyph unicode="&#x1ec8;" horiz-adv-x="649" d="M164 0v1434h323v-1434h-323zM171 1800v117q90 6 115 6q209 0 209 -158q0 -124 -143 -149v-49h-140v124q119 7 119 64q0 55 -82 55q-38 0 -78 -10z" />
<glyph unicode="&#x1ec9;" horiz-adv-x="582" d="M133 0v1024h316v-1024h-316zM150 1452v117q90 6 115 6q209 0 209 -158q0 -124 -143 -149v-49h-140v124q119 7 119 64q0 55 -82 55q-38 0 -78 -10z" />
<glyph unicode="&#x1eca;" horiz-adv-x="649" d="M164 0v1434h323v-1434h-323zM173 -254q0 60 44 97.5t110 37.5q67 0 109.5 -38t42.5 -97t-42.5 -98t-109.5 -39t-110.5 40t-43.5 97z" />
<glyph unicode="&#x1ecb;" horiz-adv-x="582" d="M111 1350q0 71 51 116t131 45q81 0 131.5 -45t50.5 -116q0 -72 -50.5 -118t-131.5 -46q-80 0 -131 47.5t-51 116.5zM133 0v1024h316v-1024h-316zM139 -254q0 60 44 97.5t110 37.5q67 0 109.5 -38t42.5 -97t-42.5 -98t-109.5 -39t-110.5 40t-43.5 97z" />
<glyph unicode="&#x1ecc;" horiz-adv-x="1553" d="M74 698q0 340 197 550t522 210q307 0 496.5 -201t189.5 -530q0 -338 -196.5 -545t-512.5 -207q-308 0 -502 200.5t-194 522.5zM414 715q0 -213 100 -337t262 -124q167 0 265 120.5t98 334.5q0 223 -95 347t-260 124q-170 0 -270 -127.5t-100 -337.5zM623 -254 q0 60 44 97.5t110 37.5q67 0 109.5 -38t42.5 -97t-42.5 -98t-109.5 -39t-110.5 40t-43.5 97z" />
<glyph unicode="&#x1ecd;" horiz-adv-x="1252" d="M72 508q0 254 152 397.5t411 143.5q255 0 400 -143.5t145 -379.5q0 -255 -149.5 -403t-409.5 -148q-256 0 -402.5 143.5t-146.5 389.5zM393 512q0 -295 238 -295q227 0 227 303q0 287 -229 287q-112 0 -174 -77t-62 -218zM470 -254q0 60 44 97.5t110 37.5q67 0 109.5 -38 t42.5 -97t-42.5 -98t-109.5 -39t-110.5 40t-43.5 97z" />
<glyph unicode="&#x1ece;" horiz-adv-x="1553" d="M74 698q0 340 197 550t522 210q307 0 496.5 -201t189.5 -530q0 -338 -196.5 -545t-512.5 -207q-308 0 -502 200.5t-194 522.5zM414 715q0 -213 100 -337t262 -124q167 0 265 120.5t98 334.5q0 223 -95 347t-260 124q-170 0 -270 -127.5t-100 -337.5zM653 1800v117 q90 6 115 6q209 0 209 -158q0 -124 -143 -149v-49h-140v124q119 7 119 64q0 55 -82 55q-38 0 -78 -10z" />
<glyph unicode="&#x1ecf;" horiz-adv-x="1252" d="M72 508q0 254 152 397.5t411 143.5q255 0 400 -143.5t145 -379.5q0 -255 -149.5 -403t-409.5 -148q-256 0 -402.5 143.5t-146.5 389.5zM393 512q0 -295 238 -295q227 0 227 303q0 287 -229 287q-112 0 -174 -77t-62 -218zM491 1452v117q90 6 115 6q209 0 209 -158 q0 -124 -143 -149v-49h-140v124q119 7 119 64q0 55 -82 55q-38 0 -78 -10z" />
<glyph unicode="&#x1ed0;" horiz-adv-x="1553" d="M74 698q0 340 197 550t522 210q307 0 496.5 -201t189.5 -530q0 -338 -196.5 -545t-512.5 -207q-308 0 -502 200.5t-194 522.5zM414 715q0 -213 100 -337t262 -124q167 0 265 120.5t98 334.5q0 223 -95 347t-260 124q-170 0 -270 -127.5t-100 -337.5zM443 1568l227 249 h240l227 -249h-201l-151 137l-142 -137h-200zM1045 1719l180 246h281l-265 -246h-196z" />
<glyph unicode="&#x1ed1;" horiz-adv-x="1252" d="M72 508q0 254 152 397.5t411 143.5q255 0 400 -143.5t145 -379.5q0 -255 -149.5 -403t-409.5 -148q-256 0 -402.5 143.5t-146.5 389.5zM299 1219l227 249h240l227 -249h-201l-151 137l-142 -137h-200zM393 512q0 -295 238 -295q227 0 227 303q0 287 -229 287 q-112 0 -174 -77t-62 -218zM901 1370l180 246h281l-265 -246h-196z" />
<glyph unicode="&#x1ed2;" horiz-adv-x="1553" d="M72 1965h280l181 -246h-197zM74 698q0 340 197 550t522 210q307 0 496.5 -201t189.5 -530q0 -338 -196.5 -545t-512.5 -207q-308 0 -502 200.5t-194 522.5zM414 715q0 -213 100 -337t262 -124q167 0 265 120.5t98 334.5q0 223 -95 347t-260 124q-170 0 -270 -127.5 t-100 -337.5zM440 1568l228 249h239l228 -249h-201l-141 137l-152 -137h-201z" />
<glyph unicode="&#x1ed3;" horiz-adv-x="1252" d="M-87 1616h280l181 -246h-197zM72 508q0 254 152 397.5t411 143.5q255 0 400 -143.5t145 -379.5q0 -255 -149.5 -403t-409.5 -148q-256 0 -402.5 143.5t-146.5 389.5zM281 1219l228 249h239l228 -249h-201l-141 137l-152 -137h-201zM393 512q0 -295 238 -295 q227 0 227 303q0 287 -229 287q-112 0 -174 -77t-62 -218z" />
<glyph unicode="&#x1ed4;" horiz-adv-x="1553" d="M74 698q0 340 197 550t522 210q307 0 496.5 -201t189.5 -530q0 -338 -196.5 -545t-512.5 -207q-308 0 -502 200.5t-194 522.5zM414 715q0 -213 100 -337t262 -124q167 0 265 120.5t98 334.5q0 223 -95 347t-260 124q-170 0 -270 -127.5t-100 -337.5zM446 1567l227 249 h240l227 -249h-201l-151 137l-142 -137h-200zM1040 1952v116q90 6 114 6q209 0 209 -157q0 -125 -143 -150v-49h-139v125q118 7 118 64q0 55 -82 55q-37 0 -77 -10z" />
<glyph unicode="&#x1ed5;" horiz-adv-x="1252" d="M72 508q0 254 152 397.5t411 143.5q255 0 400 -143.5t145 -379.5q0 -255 -149.5 -403t-409.5 -148q-256 0 -402.5 143.5t-146.5 389.5zM283 1219l227 249h240l227 -249h-201l-151 137l-142 -137h-200zM393 512q0 -295 238 -295q227 0 227 303q0 287 -229 287 q-112 0 -174 -77t-62 -218zM877 1604v116q90 6 114 6q209 0 209 -157q0 -125 -143 -150v-49h-139v125q118 7 118 64q0 55 -82 55q-37 0 -77 -10z" />
<glyph unicode="&#x1ed6;" horiz-adv-x="1553" d="M74 698q0 340 197 550t522 210q307 0 496.5 -201t189.5 -530q0 -338 -196.5 -545t-512.5 -207q-308 0 -502 200.5t-194 522.5zM414 715q0 -213 100 -337t262 -124q167 0 265 120.5t98 334.5q0 223 -95 347t-260 124q-170 0 -270 -127.5t-100 -337.5zM436 1876 q0 231 213 231q72 0 152 -35q83 -36 123 -36q75 0 75 75h144q0 -229 -209 -229q-59 0 -150 35q-96 37 -129 37q-75 0 -75 -78h-144zM444 1567l228 249h239l228 -249h-201l-152 137l-141 -137h-201z" />
<glyph unicode="&#x1ed7;" horiz-adv-x="1252" d="M72 508q0 254 152 397.5t411 143.5q255 0 400 -143.5t145 -379.5q0 -255 -149.5 -403t-409.5 -148q-256 0 -402.5 143.5t-146.5 389.5zM286 1528q0 231 213 231q72 0 152 -35q83 -36 123 -36q75 0 75 75h144q0 -229 -209 -229q-59 0 -150 35q-96 37 -129 37 q-75 0 -75 -78h-144zM294 1219l228 249h239l228 -249h-201l-152 137l-141 -137h-201zM393 512q0 -295 238 -295q227 0 227 303q0 287 -229 287q-112 0 -174 -77t-62 -218z" />
<glyph unicode="&#x1ed8;" horiz-adv-x="1553" d="M74 698q0 340 197 550t522 210q307 0 496.5 -201t189.5 -530q0 -338 -196.5 -545t-512.5 -207q-308 0 -502 200.5t-194 522.5zM414 715q0 -213 100 -337t262 -124q167 0 265 120.5t98 334.5q0 223 -95 347t-260 124q-170 0 -270 -127.5t-100 -337.5zM433 1535l235 325 h248l236 -325h-207l-158 188l-147 -188h-207zM614 -254q0 60 44 97.5t110 37.5q67 0 109.5 -38t42.5 -97t-42.5 -98t-109.5 -39t-110.5 40t-43.5 97z" />
<glyph unicode="&#x1ed9;" horiz-adv-x="1252" d="M72 508q0 254 152 397.5t411 143.5q255 0 400 -143.5t145 -379.5q0 -255 -149.5 -403t-409.5 -148q-256 0 -402.5 143.5t-146.5 389.5zM278 1186l235 325h248l236 -325h-207l-158 188l-147 -188h-207zM393 512q0 -295 238 -295q227 0 227 303q0 287 -229 287 q-112 0 -174 -77t-62 -218zM468 -254q0 60 44 97.5t110 37.5q67 0 109.5 -38t42.5 -97t-42.5 -98t-109.5 -39t-110.5 40t-43.5 97z" />
<glyph unicode="&#x1eda;" horiz-adv-x="1592" d="M74 698q0 340 197 550t522 210q198 0 351 -87q58 -14 91 -14q191 0 191 131q0 50 -18 111h192q23 -69 23 -135q0 -120 -67.5 -187t-192.5 -67q-6 0 -18 1l-18 1q152 -195 152 -485q0 -338 -196.5 -545t-512.5 -207q-308 0 -502 200.5t-194 522.5zM414 715 q0 -213 100 -337t262 -124q167 0 265 120.5t98 334.5q0 223 -95 347t-260 124q-170 0 -270 -127.5t-100 -337.5zM601 1535l260 323h281l-313 -323h-228z" />
<glyph unicode="&#x1edb;" horiz-adv-x="1290" d="M72 508q0 254 152 397.5t411 143.5q68 0 153 -15q57 -10 110 -10q177 0 177 141q0 50 -18 111h192q23 -69 23 -131q0 -226 -229 -248q137 -142 137 -371q0 -255 -149.5 -403t-409.5 -148q-256 0 -402.5 143.5t-146.5 389.5zM393 512q0 -295 238 -295q227 0 227 303 q0 287 -229 287q-112 0 -174 -77t-62 -218zM422 1186l260 323h281l-313 -323h-228z" />
<glyph unicode="&#x1edc;" horiz-adv-x="1592" d="M74 698q0 340 197 550t522 210q198 0 351 -87q58 -14 91 -14q191 0 191 131q0 50 -18 111h192q23 -69 23 -135q0 -120 -67.5 -187t-192.5 -67q-6 0 -18 1l-18 1q152 -195 152 -485q0 -338 -196.5 -545t-512.5 -207q-308 0 -502 200.5t-194 522.5zM414 715 q0 -213 100 -337t262 -124q167 0 265 120.5t98 334.5q0 223 -95 347t-260 124q-170 0 -270 -127.5t-100 -337.5zM511 1858h281l260 -323h-227z" />
<glyph unicode="&#x1edd;" horiz-adv-x="1290" d="M72 508q0 254 152 397.5t411 143.5q68 0 153 -15q57 -10 110 -10q177 0 177 141q0 50 -18 111h192q23 -69 23 -131q0 -226 -229 -248q137 -142 137 -371q0 -255 -149.5 -403t-409.5 -148q-256 0 -402.5 143.5t-146.5 389.5zM333 1509h281l260 -323h-227zM393 512 q0 -295 238 -295q227 0 227 303q0 287 -229 287q-112 0 -174 -77t-62 -218z" />
<glyph unicode="&#x1ede;" horiz-adv-x="1592" d="M74 698q0 340 197 550t522 210q198 0 351 -87q58 -14 91 -14q191 0 191 131q0 50 -18 111h192q23 -69 23 -135q0 -120 -67.5 -187t-192.5 -67q-6 0 -18 1l-18 1q152 -195 152 -485q0 -338 -196.5 -545t-512.5 -207q-308 0 -502 200.5t-194 522.5zM414 715 q0 -213 100 -337t262 -124q167 0 265 120.5t98 334.5q0 223 -95 347t-260 124q-170 0 -270 -127.5t-100 -337.5zM683 1800v117q90 6 115 6q209 0 209 -158q0 -124 -143 -149v-49h-140v124q119 7 119 64q0 55 -82 55q-38 0 -78 -10z" />
<glyph unicode="&#x1edf;" horiz-adv-x="1290" d="M72 508q0 254 152 397.5t411 143.5q68 0 153 -15q57 -10 110 -10q177 0 177 141q0 50 -18 111h192q23 -69 23 -131q0 -226 -229 -248q137 -142 137 -371q0 -255 -149.5 -403t-409.5 -148q-256 0 -402.5 143.5t-146.5 389.5zM393 512q0 -295 238 -295q227 0 227 303 q0 287 -229 287q-112 0 -174 -77t-62 -218zM493 1452v117q90 6 115 6q209 0 209 -158q0 -124 -143 -149v-49h-140v124q119 7 119 64q0 55 -82 55q-38 0 -78 -10z" />
<glyph unicode="&#x1ee0;" horiz-adv-x="1592" d="M74 698q0 340 197 550t522 210q198 0 351 -87q58 -14 91 -14q191 0 191 131q0 50 -18 111h192q23 -69 23 -135q0 -120 -67.5 -187t-192.5 -67q-6 0 -18 1l-18 1q152 -195 152 -485q0 -338 -196.5 -545t-512.5 -207q-308 0 -502 200.5t-194 522.5zM414 715 q0 -213 100 -337t262 -124q167 0 265 120.5t98 334.5q0 223 -95 347t-260 124q-170 0 -270 -127.5t-100 -337.5zM438 1534q0 139 55 216t154 77q81 0 168 -49q79 -44 120 -44q78 0 78 111h144q0 -140 -55.5 -216.5t-151.5 -76.5q-86 0 -168 43q-89 47 -123 47 q-80 0 -80 -108h-141z" />
<glyph unicode="&#x1ee1;" horiz-adv-x="1290" d="M72 508q0 254 152 397.5t411 143.5q68 0 153 -15q57 -10 110 -10q177 0 177 141q0 50 -18 111h192q23 -69 23 -131q0 -226 -229 -248q137 -142 137 -371q0 -255 -149.5 -403t-409.5 -148q-256 0 -402.5 143.5t-146.5 389.5zM273 1186q0 139 55 216t154 77q81 0 168 -49 q79 -44 120 -44q78 0 78 111h144q0 -140 -55.5 -216.5t-151.5 -76.5q-86 0 -168 43q-89 47 -123 47q-80 0 -80 -108h-141zM393 512q0 -295 238 -295q227 0 227 303q0 287 -229 287q-112 0 -174 -77t-62 -218z" />
<glyph unicode="&#x1ee2;" horiz-adv-x="1592" d="M74 698q0 340 197 550t522 210q198 0 351 -87q58 -14 91 -14q191 0 191 131q0 50 -18 111h192q23 -69 23 -135q0 -120 -67.5 -187t-192.5 -67q-6 0 -18 1l-18 1q152 -195 152 -485q0 -338 -196.5 -545t-512.5 -207q-308 0 -502 200.5t-194 522.5zM414 715 q0 -213 100 -337t262 -124q167 0 265 120.5t98 334.5q0 223 -95 347t-260 124q-170 0 -270 -127.5t-100 -337.5zM614 -254q0 60 44 97.5t110 37.5q67 0 109.5 -38t42.5 -97t-42.5 -98t-109.5 -39t-110.5 40t-43.5 97z" />
<glyph unicode="&#x1ee3;" horiz-adv-x="1290" d="M72 508q0 254 152 397.5t411 143.5q68 0 153 -15q57 -10 110 -10q177 0 177 141q0 50 -18 111h192q23 -69 23 -131q0 -226 -229 -248q137 -142 137 -371q0 -255 -149.5 -403t-409.5 -148q-256 0 -402.5 143.5t-146.5 389.5zM393 512q0 -295 238 -295q227 0 227 303 q0 287 -229 287q-112 0 -174 -77t-62 -218zM466 -254q0 60 44 97.5t110 37.5q67 0 109.5 -38t42.5 -97t-42.5 -98t-109.5 -39t-110.5 40t-43.5 97z" />
<glyph unicode="&#x1ee4;" horiz-adv-x="1481" d="M147 606v828h324v-832q0 -348 272 -348q267 0 267 336v844h323v-813q0 -646 -602 -646q-584 0 -584 631zM577 -254q0 60 44 97.5t110 37.5q67 0 109.5 -38t42.5 -97t-42.5 -98t-109.5 -39t-110.5 40t-43.5 97z" />
<glyph unicode="&#x1ee5;" horiz-adv-x="1239" d="M117 406v618h315v-590q0 -217 172 -217q85 0 136 59.5t51 161.5v586h315v-1024h-315v156h-5q-117 -181 -313 -181q-356 0 -356 431zM444 -254q0 60 44 97.5t110 37.5q67 0 109.5 -38t42.5 -97t-42.5 -98t-109.5 -39t-110.5 40t-43.5 97z" />
<glyph unicode="&#x1ee6;" horiz-adv-x="1481" d="M147 606v828h324v-832q0 -348 272 -348q267 0 267 336v844h323v-813q0 -646 -602 -646q-584 0 -584 631zM595 1800v117q90 6 115 6q209 0 209 -158q0 -124 -143 -149v-49h-140v124q119 7 119 64q0 55 -82 55q-38 0 -78 -10z" />
<glyph unicode="&#x1ee7;" horiz-adv-x="1239" d="M117 406v618h315v-590q0 -217 172 -217q85 0 136 59.5t51 161.5v586h315v-1024h-315v156h-5q-117 -181 -313 -181q-356 0 -356 431zM464 1452v117q90 6 115 6q209 0 209 -158q0 -124 -143 -149v-49h-140v124q119 7 119 64q0 55 -82 55q-38 0 -78 -10z" />
<glyph unicode="&#x1ee8;" horiz-adv-x="1604" d="M147 606v828h324v-832q0 -348 272 -348q267 0 267 336v844h301q64 0 103.5 42t39.5 105q0 44 -18 105h190q19 -57 19 -119q0 -120 -82.5 -196t-229.5 -82v-668q0 -646 -602 -646q-584 0 -584 631zM536 1535l260 323h281l-313 -323h-228z" />
<glyph unicode="&#x1ee9;" horiz-adv-x="1368" d="M117 406v618h315v-590q0 -217 172 -217q85 0 136 59.5t51 161.5v586h288q125 0 125 148q0 43 -18 104h184q16 -48 16 -117q0 -117 -73.5 -189.5t-206.5 -79.5v-890h-315v156h-5q-117 -181 -313 -181q-356 0 -356 431zM428 1186l260 323h281l-313 -323h-228z" />
<glyph unicode="&#x1eea;" horiz-adv-x="1604" d="M147 606v828h324v-832q0 -348 272 -348q267 0 267 336v844h301q64 0 103.5 42t39.5 105q0 44 -18 105h190q19 -57 19 -119q0 -120 -82.5 -196t-229.5 -82v-668q0 -646 -602 -646q-584 0 -584 631zM424 1858h281l260 -323h-227z" />
<glyph unicode="&#x1eeb;" horiz-adv-x="1368" d="M117 406v618h315v-590q0 -217 172 -217q85 0 136 59.5t51 161.5v586h288q125 0 125 148q0 43 -18 104h184q16 -48 16 -117q0 -117 -73.5 -189.5t-206.5 -79.5v-890h-315v156h-5q-117 -181 -313 -181q-356 0 -356 431zM253 1509h281l260 -323h-227z" />
<glyph unicode="&#x1eec;" horiz-adv-x="1604" d="M147 606v828h324v-832q0 -348 272 -348q267 0 267 336v844h301q64 0 103.5 42t39.5 105q0 44 -18 105h190q19 -57 19 -119q0 -120 -82.5 -196t-229.5 -82v-668q0 -646 -602 -646q-584 0 -584 631zM607 1800v117q90 6 115 6q209 0 209 -158q0 -124 -143 -149v-49h-140v124 q119 7 119 64q0 55 -82 55q-38 0 -78 -10z" />
<glyph unicode="&#x1eed;" horiz-adv-x="1368" d="M117 406v618h315v-590q0 -217 172 -217q85 0 136 59.5t51 161.5v586h288q125 0 125 148q0 43 -18 104h184q16 -48 16 -117q0 -117 -73.5 -189.5t-206.5 -79.5v-890h-315v156h-5q-117 -181 -313 -181q-356 0 -356 431zM462 1452v117q90 6 115 6q209 0 209 -158 q0 -124 -143 -149v-49h-140v124q119 7 119 64q0 55 -82 55q-38 0 -78 -10z" />
<glyph unicode="&#x1eee;" horiz-adv-x="1604" d="M147 606v828h324v-832q0 -348 272 -348q267 0 267 336v844h301q64 0 103.5 42t39.5 105q0 44 -18 105h190q19 -57 19 -119q0 -120 -82.5 -196t-229.5 -82v-668q0 -646 -602 -646q-584 0 -584 631zM389 1534q0 139 55 216t154 77q81 0 168 -49q79 -44 120 -44q78 0 78 111 h144q0 -140 -55.5 -216.5t-151.5 -76.5q-86 0 -168 43q-89 47 -123 47q-80 0 -80 -108h-141z" />
<glyph unicode="&#x1eef;" horiz-adv-x="1368" d="M117 406v618h315v-590q0 -217 172 -217q85 0 136 59.5t51 161.5v586h288q125 0 125 148q0 43 -18 104h184q16 -48 16 -117q0 -117 -73.5 -189.5t-206.5 -79.5v-890h-315v156h-5q-117 -181 -313 -181q-356 0 -356 431zM258 1186q0 139 55 216t154 77q81 0 168 -49 q79 -44 120 -44q78 0 78 111h144q0 -140 -55.5 -216.5t-151.5 -76.5q-86 0 -168 43q-89 47 -123 47q-80 0 -80 -108h-141z" />
<glyph unicode="&#x1ef0;" horiz-adv-x="1604" d="M147 606v828h324v-832q0 -348 272 -348q267 0 267 336v844h301q64 0 103.5 42t39.5 105q0 44 -18 105h190q19 -57 19 -119q0 -120 -82.5 -196t-229.5 -82v-668q0 -646 -602 -646q-584 0 -584 631zM575 -254q0 60 44 97.5t110 37.5q67 0 109.5 -38t42.5 -97t-42.5 -98 t-109.5 -39t-110.5 40t-43.5 97z" />
<glyph unicode="&#x1ef1;" horiz-adv-x="1368" d="M117 406v618h315v-590q0 -217 172 -217q85 0 136 59.5t51 161.5v586h288q125 0 125 148q0 43 -18 104h184q16 -48 16 -117q0 -117 -73.5 -189.5t-206.5 -79.5v-890h-315v156h-5q-117 -181 -313 -181q-356 0 -356 431zM435 -254q0 60 44 97.5t110 37.5q67 0 109.5 -38 t42.5 -97t-42.5 -98t-109.5 -39t-110.5 40t-43.5 97z" />
<glyph unicode="&#x1ef2;" horiz-adv-x="1243" d="M0 1434h369l231 -535q6 -15 33 -117h4q13 72 31 113l235 539h342l-467 -924v-510h-323v504zM326 1890h281l260 -323h-227z" />
<glyph unicode="&#x1ef3;" d="M-4 1024h350l191 -623q18 -58 28 -137h4q9 58 33 135l193 625h313l-416 -1106q-150 -399 -452 -399q-115 0 -189 26v252q63 -37 137 -37q122 0 170 115l54 127zM276 1509h281l260 -323h-227z" />
<glyph unicode="&#x1ef4;" horiz-adv-x="1243" d="M0 1434h369l231 -535q6 -15 33 -117h4q13 72 31 113l235 539h342l-467 -924v-510h-323v504zM467 -254q0 60 44 97.5t110 37.5q67 0 109.5 -38t42.5 -97t-42.5 -98t-109.5 -39t-110.5 40t-43.5 97z" />
<glyph unicode="&#x1ef5;" d="M-4 1024h350l191 -623q18 -58 28 -137h4q9 58 33 135l193 625h313l-416 -1106q-150 -399 -452 -399q-115 0 -189 26v252q63 -37 137 -37q122 0 170 115l54 127zM738 -254q0 60 44 97.5t110 37.5q67 0 109.5 -38t42.5 -97t-42.5 -98t-109.5 -39t-110.5 40t-43.5 97z" />
<glyph unicode="&#x1ef6;" horiz-adv-x="1243" d="M0 1434h369l231 -535q6 -15 33 -117h4q13 72 31 113l235 539h342l-467 -924v-510h-323v504zM490 1800v117q90 6 115 6q209 0 209 -158q0 -124 -143 -149v-49h-140v124q119 7 119 64q0 55 -82 55q-38 0 -78 -10z" />
<glyph unicode="&#x1ef7;" d="M-4 1024h350l191 -623q18 -58 28 -137h4q9 58 33 135l193 625h313l-416 -1106q-150 -399 -452 -399q-115 0 -189 26v252q63 -37 137 -37q122 0 170 115l54 127zM419 1452v117q90 6 115 6q209 0 209 -158q0 -124 -143 -149v-49h-140v124q119 7 119 64q0 55 -82 55 q-38 0 -78 -10z" />
<glyph unicode="&#x1ef8;" horiz-adv-x="1243" d="M0 1434h369l231 -535q6 -15 33 -117h4q13 72 31 113l235 539h342l-467 -924v-510h-323v504zM257 1534q0 139 55 216t154 77q81 0 168 -49q79 -44 120 -44q78 0 78 111h144q0 -140 -55.5 -216.5t-151.5 -76.5q-86 0 -168 43q-89 47 -123 47q-80 0 -80 -108h-141z" />
<glyph unicode="&#x1ef9;" d="M-4 1024h350l191 -623q18 -58 28 -137h4q9 58 33 135l193 625h313l-416 -1106q-150 -399 -452 -399q-115 0 -189 26v252q63 -37 137 -37q122 0 170 115l54 127zM195 1186q0 139 55 216t154 77q81 0 168 -49q79 -44 120 -44q78 0 78 111h144q0 -140 -55.5 -216.5 t-151.5 -76.5q-86 0 -168 43q-89 47 -123 47q-80 0 -80 -108h-141z" />
<glyph unicode="&#x1efa;" horiz-adv-x="1597" d="M164 0v1434h323v-1434h-323zM714 0v1434h323v-1172h531v-262h-854z" />
<glyph unicode="&#x1efb;" horiz-adv-x="1122" d="M-10 1179v159h143v178h316v-178h224v178h316v-178h143v-159h-143v-1179h-316v1179h-224v-1179h-316v1179h-143z" />
</font>
</defs>
</svg>
