<?xml version="1.0" standalone="no"?>
<!DOCTYPE svg PUBLIC "-//W3C//DTD SVG 1.1//EN" "http://www.w3.org/Graphics/SVG/1.1/DTD/svg11.dtd" >
<svg xmlns="http://www.w3.org/2000/svg">
<metadata></metadata>
<defs>
<font id="segoe_uilight" horiz-adv-x="1096" >
<font-face units-per-em="2048" ascent="1638" descent="-410" />
<missing-glyph horiz-adv-x="561" />
<glyph horiz-adv-x="2048" />
<glyph horiz-adv-x="2048" />
<glyph unicode="&#xd;" horiz-adv-x="199" />
<glyph unicode=" "  horiz-adv-x="561" />
<glyph unicode="&#x09;" horiz-adv-x="561" />
<glyph unicode="&#xa0;" horiz-adv-x="561" />
<glyph unicode="!" horiz-adv-x="582" d="M211 63q0 35 23 57.5t57 22.5t58 -22.5t24 -57.5q0 -34 -24 -57.5t-58 -23.5t-57 23.5t-23 57.5zM236 1434h106l-10 -1031h-86z" />
<glyph unicode="&#x22;" horiz-adv-x="686" d="M177 985v449h86v-449h-86zM425 985v449h86v-449h-86z" />
<glyph unicode="#" horiz-adv-x="1237" d="M53 522l19 78h280l76 346h-293l19 78h290l88 410h80l-88 -410h269l88 410h80l-89 -410h275l-19 -78h-272l-76 -346h285l-18 -78h-283l-86 -399h-80l86 399h-268l-86 -399h-80l86 399h-283zM432 600h268l76 346h-268z" />
<glyph unicode="$" horiz-adv-x="1055" d="M162 80v102q152 -98 327 -98v598q-197 113 -262 194.5t-65 194.5q0 136 88 237t239 124v182h78v-180q152 0 260 -43v-103q-103 60 -260 60v-607q184 -101 255 -185.5t71 -199.5q0 -140 -85.5 -235t-240.5 -117v-213h-78v209q-188 0 -327 80zM258 1083q0 -88 46 -152.5 t185 -144.5v560q-107 -17 -169 -88t-62 -175zM567 86q114 20 172 87.5t58 164.5q0 92 -48.5 156t-181.5 141v-549z" />
<glyph unicode="%" horiz-adv-x="1606" d="M82 1092q0 175 94.5 272.5t247.5 97.5q150 0 238 -97t88 -271q0 -156 -91.5 -260.5t-244.5 -104.5q-154 0 -243 101t-89 262zM174 1090q0 -129 64.5 -205t177.5 -76q114 0 178.5 78t64.5 209q0 141 -64 212.5t-173 71.5q-115 0 -181.5 -76.5t-66.5 -213.5zM317 -33 l863 1465h96l-860 -1465h-99zM866 338q0 177 96 274t246 97t238 -98t88 -271q0 -156 -91.5 -260.5t-244.5 -104.5t-242.5 101t-89.5 262zM958 336q0 -129 64.5 -205t177.5 -76q115 0 179.5 77.5t64.5 209.5q0 141 -64 213t-174 72q-114 0 -181 -78t-67 -213z" />
<glyph unicode="&#x26;" horiz-adv-x="1427" d="M141 360q0 276 332 424q-162 187 -162 342q0 139 98.5 235.5t254.5 96.5q143 0 225 -81.5t82 -207.5q0 -137 -83 -233.5t-261 -177.5q150 -159 440 -434q125 186 133 434h96q-7 -267 -166 -498q171 -168 273 -262l-143 2l-193 188q-201 -213 -479 -213q-211 0 -329 108.5 t-118 276.5zM238 367q0 -135 95.5 -221.5t262.5 -86.5q229 0 410 191q-332 321 -469 469q-299 -130 -299 -352zM408 1124q0 -128 155 -301q174 77 242.5 154t68.5 180q0 99 -63 158t-156 59q-113 0 -180 -72.5t-67 -177.5z" />
<glyph unicode="'" horiz-adv-x="438" d="M177 985v449h86v-449h-86z" />
<glyph unicode="(" horiz-adv-x="578" d="M150 545q0 540 307 889h98q-313 -360 -313 -887q0 -497 309 -873h-98q-303 354 -303 871z" />
<glyph unicode=")" horiz-adv-x="578" d="M23 1434h98q307 -351 307 -889q0 -519 -303 -871h-98q309 376 309 873q0 527 -313 887z" />
<glyph unicode="*" horiz-adv-x="831" d="M70 1126l26 86l289 -102l-16 324h94l-14 -324l286 102l27 -86l-293 -75l199 -267l-76 -51l-174 277l-178 -277l-74 51l199 267z" />
<glyph unicode="+" horiz-adv-x="1331" d="M213 555v84h412v412h84v-412h411v-84h-411v-412h-84v412h-412z" />
<glyph unicode="," horiz-adv-x="455" d="M47 -248l150 475h102l-174 -475h-78z" />
<glyph unicode="-" horiz-adv-x="815" d="M145 555v90h547v-90h-547z" />
<glyph unicode="." horiz-adv-x="455" d="M147 63q0 35 23 57.5t57 22.5t58 -22.5t24 -57.5q0 -34 -24 -57.5t-58 -23.5t-57 23.5t-23 57.5z" />
<glyph unicode="/" horiz-adv-x="750" d="M-29 -238l693 1672h96l-697 -1672h-92z" />
<glyph unicode="0" horiz-adv-x="1055" d="M94 686q0 383 117.5 577.5t335.5 194.5q414 0 414 -735q0 -366 -117 -557t-328 -191q-198 0 -310 182t-112 529zM190 698q0 -308 88 -473.5t250 -165.5q159 0 247.5 168.5t88.5 481.5q0 665 -325 665q-165 0 -257 -169t-92 -507z" />
<glyph unicode="1" horiz-adv-x="730" d="M83 1122v84q63 21 117 47.5t103.5 58.5t96 70.5t94.5 83.5h32v-1466h-92v1321q-69 -66 -157.5 -114t-193.5 -85z" />
<glyph unicode="2" horiz-adv-x="1055" d="M96 0v67q0 67 11 120.5t33.5 98.5t56 84.5t78 79t101 81t123.5 90.5q65 47 121.5 93t98.5 99t66.5 116.5t24.5 145.5q0 142 -78.5 220.5t-220.5 78.5q-96 0 -185 -42t-174 -117v108q82 63 177 99t198 36q86 0 156 -26t119.5 -74t76.5 -116t27 -152q0 -99 -28.5 -175.5 t-77.5 -139t-114.5 -115t-138.5 -104.5q-97 -69 -164 -122.5t-109 -104.5t-60.5 -105t-18.5 -125v-15h713v-84h-812z" />
<glyph unicode="3" horiz-adv-x="1055" d="M115 51v105q164 -97 309 -97q173 0 271 88.5t98 231.5q0 159 -112.5 241t-320.5 82h-110v84h98q192 0 292.5 81.5t100.5 230.5q0 129 -73 202.5t-213 73.5q-135 0 -283 -94v98q162 80 297 80q170 0 269.5 -92t99.5 -244q0 -291 -279 -370v-4q150 -15 240 -111.5 t90 -243.5q0 -188 -130 -303t-337 -115q-160 0 -307 76z" />
<glyph unicode="4" horiz-adv-x="1087" d="M50 375v90q96 109 195 234.5t189.5 253.5t166.5 252t127 229h98v-976h224v-83h-224v-375h-92v375h-684zM156 458h578v812q-73 -126 -151.5 -244t-155 -222.5t-146.5 -192.5t-125 -153z" />
<glyph unicode="5" horiz-adv-x="1055" d="M160 29v106q138 -76 274 -76q176 0 275 97t99 258q0 350 -399 350q-90 0 -206 -12l43 682h597v-84h-515l-33 -510q103 8 148 8q227 0 344 -111.5t117 -310.5q0 -201 -124 -326t-354 -125q-151 0 -266 54z" />
<glyph unicode="6" horiz-adv-x="1055" d="M123 629q0 188 37 341t108.5 261.5t175 167.5t236.5 59q118 0 209 -35v-98q-102 49 -211 49q-107 0 -192 -52.5t-145 -147.5t-92 -226.5t-32 -290.5h4q105 240 359 240q88 0 160 -34t123.5 -94t79.5 -140.5t28 -173.5q0 -104 -31.5 -192t-88.5 -152t-135.5 -100 t-172.5 -36q-99 0 -177 42.5t-132 125t-82.5 205t-28.5 281.5zM229 469q0 -82 23 -156.5t65 -130.5t101.5 -89.5t132.5 -33.5q69 0 128.5 28.5t102.5 79t67.5 119.5t24.5 150q0 84 -21.5 153.5t-62.5 119t-99.5 77t-131.5 27.5q-71 0 -131.5 -29.5t-104.5 -78t-69 -110.5 t-25 -126z" />
<glyph unicode="7" horiz-adv-x="1022" d="M70 1350v84h882v-34q-101 -185 -189 -356.5t-159.5 -340.5t-124.5 -341.5t-83 -361.5h-103q31 185 84 357t123 337.5t153 328t175 327.5h-758z" />
<glyph unicode="8" horiz-adv-x="1055" d="M107 400q0 57 16.5 112.5t50 104.5t83.5 88t118 63q-50 24 -91 58t-70 75.5t-44.5 90t-15.5 100.5q0 79 28.5 146t78.5 116t119 76.5t149 27.5q81 0 150 -28t119 -77t78 -116t28 -145q0 -53 -15.5 -101t-43.5 -90t-68 -75.5t-89 -57.5q66 -24 115 -63t82 -88t49 -104.5 t16 -112.5q0 -100 -31 -178.5t-86.5 -133t-133 -83t-171.5 -28.5q-92 0 -169 28.5t-133 82.5t-87.5 132.5t-31.5 179.5zM202 390q0 -75 24 -136t66.5 -104.5t102 -67t131.5 -23.5q71 0 131 23.5t103.5 67t67.5 104.5t24 136q0 67 -23 127t-65.5 105t-103 71.5t-134.5 26.5 q-69 0 -128.5 -24.5t-103 -68t-68 -104.5t-24.5 -133zM252 1089q0 -60 21.5 -111.5t59 -89.5t88 -60t107.5 -22t108 22t88.5 60.5t59.5 90t22 110.5q0 61 -21.5 113t-59 90.5t-88 60t-109.5 21.5q-62 0 -112.5 -22.5t-87 -61t-56.5 -90.5t-20 -111z" />
<glyph unicode="9" horiz-adv-x="1055" d="M102 985q0 106 32.5 193t90.5 149t137.5 96.5t172.5 34.5q95 0 172 -40.5t131 -122t83 -203t29 -283.5q0 -200 -36.5 -355t-107.5 -261.5t-176 -162t-243 -55.5q-107 0 -209 37v101q115 -54 211 -54q227 0 346 181.5t119 535.5h-4q-99 -231 -352 -231q-89 0 -161.5 33 t-125 91.5t-81 139t-28.5 176.5zM199 1004q0 -87 23.5 -156.5t65.5 -118t101 -74.5t131 -26q66 0 125 26.5t102.5 71t69 104t25.5 125.5q0 91 -23.5 168t-66 132.5t-101.5 86.5t-129 31t-129.5 -28t-102.5 -77.5t-67 -117.5t-24 -147z" />
<glyph unicode=":" horiz-adv-x="455" d="M147 63q0 35 23 57.5t57 22.5t58 -22.5t24 -57.5q0 -34 -24 -57.5t-58 -23.5t-57 23.5t-23 57.5zM147 963q0 34 23 56.5t57 22.5t58 -22.5t24 -56.5t-24 -58t-58 -24t-57 24t-23 58z" />
<glyph unicode=";" horiz-adv-x="455" d="M47 -248l150 475h102l-174 -475h-78zM156 963q0 34 22.5 56.5t57.5 22.5q34 0 57.5 -22.5t23.5 -56.5t-23.5 -58t-57.5 -24q-35 0 -57.5 24t-22.5 58z" />
<glyph unicode="&#x3c;" horiz-adv-x="1331" d="M250 580v18l833 467v-94l-677 -379v-4l677 -334v-96z" />
<glyph unicode="=" horiz-adv-x="1331" d="M213 362v84h907v-84h-907zM213 750v84h907v-84h-907z" />
<glyph unicode="&#x3e;" horiz-adv-x="1331" d="M250 158v96l678 334v4l-678 379v94l833 -467v-18z" />
<glyph unicode="?" horiz-adv-x="881" d="M119 1245v107q71 54 149.5 80t174.5 26q74 0 137.5 -21t110 -61.5t73 -99t26.5 -133.5q0 -57 -16 -104t-41.5 -87t-58.5 -75t-67 -68q-53 -50 -86.5 -84.5t-52.5 -62.5t-26.5 -54.5t-7.5 -62.5q0 -46 8 -83.5t16 -63.5h-81q-10 25 -17.5 65.5t-7.5 80.5q0 47 12.5 85.5 t35 72.5t54 66t69.5 65q32 29 63 60.5t55 67.5t38.5 78.5t14.5 93.5q0 55 -18.5 98.5t-51.5 74t-79.5 46.5t-102.5 16q-94 0 -173.5 -33t-149.5 -90zM333 63q0 35 22.5 57.5t56.5 22.5q35 0 58.5 -22.5t23.5 -57.5q0 -34 -23.5 -57.5t-58.5 -23.5q-34 0 -56.5 23.5 t-22.5 57.5z" />
<glyph unicode="@" horiz-adv-x="1933" d="M168 616q0 359 235.5 600.5t589.5 241.5q351 0 562.5 -206t211.5 -523q0 -237 -107.5 -389t-268.5 -152q-222 0 -238 238h-4q-90 -238 -293 -238q-140 0 -221.5 100.5t-81.5 268.5q0 227 114 378.5t300 151.5q78 0 137 -40t78 -93h4q4 61 10 119h88l-51 -584 q0 -217 153 -217q124 0 204.5 125t80.5 322q0 299 -181 477t-507 178q-318 0 -518.5 -218t-200.5 -540q0 -327 191 -523.5t520 -196.5q249 0 426 88v-93q-196 -79 -436 -79q-361 0 -579 223t-218 581zM649 565q0 -135 57.5 -214t159.5 -79q136 0 216.5 139t80.5 355 q0 117 -53.5 177.5t-146.5 60.5q-144 0 -229 -120t-85 -319z" />
<glyph unicode="A" horiz-adv-x="1288" d="M59 0l541 1434h94l535 -1434h-111l-164 446h-622l-164 -446h-109zM367 537h553l-242 663q-11 30 -18 59q-7 25 -15 50h-4q-17 -66 -33 -107z" />
<glyph unicode="B" horiz-adv-x="1114" d="M184 0v1434h377q169 0 269 -91t100 -241q0 -125 -66.5 -216.5t-185.5 -129.5v-4q149 -14 235 -106.5t86 -235.5q0 -181 -117 -295.5t-313 -114.5h-385zM283 90h266q169 0 258.5 81t89.5 230q0 297 -403 297h-211v-608zM283 788h200q156 0 250 80t94 217q0 258 -305 258 h-239v-555z" />
<glyph unicode="C" horiz-adv-x="1272" d="M109 688q0 349 201 559.5t511 210.5q165 0 316 -53v-105q-151 68 -318 68q-270 0 -439 -183t-169 -487q0 -293 161.5 -462.5t409.5 -169.5q198 0 355 77v-96q-174 -72 -363 -72q-294 0 -479.5 197.5t-185.5 515.5z" />
<glyph unicode="D" horiz-adv-x="1380" d="M184 0v1434h359q357 0 543 -178t186 -519q0 -328 -199.5 -532.5t-550.5 -204.5h-338zM283 90h225q319 0 490 165.5t171 477.5q0 610 -641 610h-245v-1253z" />
<glyph unicode="E" horiz-adv-x="1024" d="M184 0v1434h670v-91h-571v-575h530v-90h-530v-588h604v-90h-703z" />
<glyph unicode="F" horiz-adv-x="952" d="M184 0v1434h670v-91h-571v-585h530v-90h-530v-668h-99z" />
<glyph unicode="G" horiz-adv-x="1368" d="M109 696q0 326 195 544t521 218q189 0 367 -76v-108q-195 94 -381 94q-271 0 -435.5 -185t-164.5 -472q0 -302 154.5 -473.5t416.5 -171.5q194 0 340 84v473h-338v90h437v-613q-222 -125 -457 -125q-293 0 -474 199t-181 522z" />
<glyph unicode="H" horiz-adv-x="1386" d="M184 0v1434h99v-656h821v656h98v-1434h-98v688h-821v-688h-99z" />
<glyph unicode="I" horiz-adv-x="467" d="M184 0v1434h99v-1434h-99z" />
<glyph unicode="J" horiz-adv-x="664" d="M18 -10v96q59 -20 111 -20q138 0 199 104.5t61 325.5v938h98v-940q0 -519 -360 -519q-56 0 -109 15z" />
<glyph unicode="K" horiz-adv-x="1079" d="M184 0v1434h99v-676h4q12 21 26 35l580 641h129l-629 -695l668 -739h-139l-611 686q-17 19 -24 33h-4v-719h-99z" />
<glyph unicode="L" horiz-adv-x="938" d="M184 0v1434h99v-1344h575v-90h-674z" />
<glyph unicode="M" horiz-adv-x="1706" d="M184 0v1434h92l535 -1155q5 -10 11 -27t13 -34q10 -26 21 -58h6l11 32q1 4 34 95l527 1147h88v-1434h-95v1018q0 37 11 211h-4q-31 -81 -52 -125l-510 -1104h-32l-512 1098q-25 53 -47 135h-5q7 -96 7 -191v-1042h-99z" />
<glyph unicode="N" horiz-adv-x="1452" d="M184 0v1434h76l848 -1149q28 -38 61 -92h5q-5 70 -5 120v1121h99v-1434h-70l-854 1159q-26 35 -46 70l-13 20h-4q2 -26 2 -63v-1186h-99z" />
<glyph unicode="O" horiz-adv-x="1559" d="M109 702q0 343 185.5 549.5t506.5 206.5q290 0 469.5 -198.5t179.5 -520.5q0 -356 -184 -560t-492 -204q-304 0 -484.5 202t-180.5 525zM211 713q0 -296 153 -471.5t408 -175.5q266 0 421 173.5t155 483.5q0 304 -151.5 474.5t-412.5 170.5q-250 0 -411.5 -181 t-161.5 -474z" />
<glyph unicode="P" horiz-adv-x="1114" d="M184 0v1434h346q221 0 338 -102.5t117 -299.5q0 -200 -130.5 -328.5t-365.5 -128.5h-206v-575h-99zM283 666h204q194 0 295 92.5t101 261.5q0 323 -371 323h-229v-677z" />
<glyph unicode="Q" horiz-adv-x="1544" d="M109 702q0 343 185.5 549.5t506.5 206.5q290 0 469.5 -198.5t179.5 -520.5q0 -356 -184 -560q-57 -64 -127 -107l348 -265h-167l-271 218q-122 -50 -275 -50q-304 0 -484.5 202t-180.5 525zM211 713q0 -296 153 -471.5t408 -175.5q266 0 421 173.5t155 483.5 q0 304 -151.5 474.5t-412.5 170.5q-250 0 -411.5 -181t-161.5 -474z" />
<glyph unicode="R" horiz-adv-x="1137" d="M184 0v1434h398q190 0 298.5 -102.5t108.5 -270.5q0 -155 -89 -259t-249 -134v-4q85 -34 166 -207l213 -457h-112l-191 420q-59 130 -118 174.5t-148 44.5h-178v-639h-99zM283 729h247q164 0 260.5 86t96.5 236q0 137 -87 214.5t-249 77.5h-268v-614z" />
<glyph unicode="S" horiz-adv-x="1018" d="M139 51v113q154 -98 312 -98q168 0 255 69.5t87 194.5q0 110 -58.5 175.5t-253.5 178.5q-218 127 -276 212.5t-58 197.5q0 152 118 258t315 106q128 0 256 -43v-104q-126 57 -269 57q-146 0 -231.5 -74t-85.5 -188q0 -110 58.5 -175t252.5 -177q201 -114 267.5 -202.5 t66.5 -203.5q0 -165 -114.5 -269t-323.5 -104q-74 0 -170.5 23t-147.5 53z" />
<glyph unicode="T" horiz-adv-x="1047" d="M61 1343v91h926v-91h-414v-1343h-98v1343h-414z" />
<glyph unicode="U" horiz-adv-x="1327" d="M166 551v883h98v-869q0 -499 406 -499q393 0 393 485v883h98v-861q0 -598 -510 -598q-485 0 -485 576z" />
<glyph unicode="V" horiz-adv-x="1237" d="M41 1434h111l415 -1155q26 -72 37 -136h4q10 51 41 138l441 1153h106l-557 -1434h-74z" />
<glyph unicode="W" horiz-adv-x="1833" d="M51 1434h111l327 -1149q22 -78 31 -127h4q6 37 35 127l354 1149h50l325 -1149q23 -80 31 -127h4q5 28 16 64l336 1212h107l-420 -1434h-82l-319 1079q-24 83 -27 135h-4q-3 -44 -31 -133l-340 -1081h-82z" />
<glyph unicode="X" horiz-adv-x="1153" d="M61 0l453 723l-426 711h119l321 -539q25 -42 52 -96h4l53 96l319 539h115l-430 -709l440 -725h-120l-330 547q-31 51 -53 100h-5q-27 -55 -57 -100l-336 -547h-119z" />
<glyph unicode="Y" horiz-adv-x="1106" d="M61 1434h111l334 -691q18 -36 45 -106h4q14 37 49 104l350 693h107l-463 -889v-545h-98v543z" />
<glyph unicode="Z" horiz-adv-x="1167" d="M66 0v31l868 1312h-799v91h952v-27l-872 -1317h858v-90h-1007z" />
<glyph unicode="[" horiz-adv-x="578" d="M209 -326v1760h317v-84h-225v-1592h225v-84h-317z" />
<glyph unicode="\" horiz-adv-x="750" d="M-29 1434h97l692 -1672h-92z" />
<glyph unicode="]" horiz-adv-x="578" d="M51 -242h225v1592h-225v84h318v-1760h-318v84z" />
<glyph unicode="^" horiz-adv-x="1331" d="M260 702l385 756h41l385 -756h-96l-307 613h-4l-308 -613h-96z" />
<glyph unicode="_" horiz-adv-x="850" d="M0 -178h850v-90h-850v90z" />
<glyph unicode="`" horiz-adv-x="508" d="M76 1516h104l234 -328h-90z" />
<glyph unicode="a" horiz-adv-x="1012" d="M106 264q0 268 355 324l315 47q0 330 -248 330q-169 0 -329 -136v111q57 45 154.5 77t183.5 32q158 0 244.5 -98t86.5 -285v-666h-92v205h-4q-49 -105 -142.5 -167.5t-207.5 -62.5q-146 0 -231 82t-85 207zM203 268q0 -91 60.5 -150t168.5 -59q148 0 246 109.5t98 282.5 v100l-282 -41q-161 -23 -226 -74.5t-65 -167.5z" />
<glyph unicode="b" horiz-adv-x="1147" d="M164 0v1516h92v-703h4q55 113 157.5 174.5t225.5 61.5q195 0 304.5 -134.5t109.5 -365.5q0 -257 -127 -415.5t-330 -158.5q-230 0 -340 207h-4v-182h-92zM256 434q0 -154 97 -264.5t255 -110.5q157 0 255 134.5t98 353.5q0 192 -90 305t-240 113q-179 0 -277 -120 t-98 -282v-129z" />
<glyph unicode="c" horiz-adv-x="909" d="M90 494q0 244 144 399.5t370 155.5q117 0 227 -48v-104q-110 68 -241 68q-180 0 -292 -129.5t-112 -335.5q0 -199 102.5 -320t270.5 -121q154 0 268 82v-96q-114 -70 -272 -70q-209 0 -337 143.5t-128 375.5z" />
<glyph unicode="d" horiz-adv-x="1147" d="M90 494q0 248 130.5 401.5t338.5 153.5q230 0 328 -189h4v656h92v-1516h-92v186h-4q-50 -97 -148 -154t-221 -57q-189 0 -308.5 138t-119.5 381zM186 502q0 -212 94.5 -327.5t243.5 -115.5q175 0 271 108.5t96 264.5v191q0 143 -90.5 242.5t-243.5 99.5 q-161 0 -266 -123.5t-105 -339.5z" />
<glyph unicode="e" horiz-adv-x="1034" d="M90 518q0 224 127.5 377.5t331.5 153.5q191 0 293 -134t102 -366v-41h-758q0 -211 97.5 -330t267.5 -119q172 0 336 127v-98q-159 -113 -355 -113q-198 0 -320 142t-122 401zM190 592h658q-6 177 -85 275t-218 98q-144 0 -238.5 -96.5t-116.5 -276.5z" />
<glyph unicode="f" horiz-adv-x="565" d="M35 940v84h184v178q0 162 81.5 246t203.5 84q65 0 108 -19v-94q-37 29 -112 29q-189 0 -189 -254v-170h271v-84h-271v-940h-92v940h-184z" />
<glyph unicode="g" horiz-adv-x="1147" d="M90 494q0 245 129 400t340 155q226 0 328 -187h4v162h92v-948q0 -289 -126 -423t-392 -134q-148 0 -305 78v96q162 -90 307 -90q424 0 424 448v133h-4q-121 -209 -369 -209q-189 0 -308.5 137t-119.5 382zM186 502q0 -210 94.5 -326.5t249.5 -116.5q165 0 263 107t98 262 v203q0 136 -91.5 235t-238.5 99q-169 0 -272 -127t-103 -336z" />
<glyph unicode="h" d="M164 0v1516h92v-676h4q121 209 352 209q166 0 253 -107t87 -307v-635h-92v614q0 182 -66 266.5t-206 84.5q-132 0 -232 -103t-100 -295v-567h-92z" />
<glyph unicode="i" horiz-adv-x="420" d="M133 1360q0 33 23.5 53.5t52.5 20.5q31 0 54.5 -20t23.5 -54q0 -32 -23 -55t-55 -23q-30 0 -53 22t-23 56zM164 0v1024h92v-1024h-92z" />
<glyph unicode="j" horiz-adv-x="420" d="M-252 -350q80 -47 156 -47q260 0 260 409v1012h92v-995q0 -510 -362 -510q-72 0 -146 35v96zM133 1360q0 33 23.5 53.5t52.5 20.5q31 0 54.5 -20t23.5 -54q0 -32 -23 -55t-55 -23q-30 0 -53 22t-23 56z" />
<glyph unicode="k" horiz-adv-x="909" d="M164 0v1516h92v-977h4l465 485h119l-486 -496l525 -528h-133l-490 506h-4v-506h-92z" />
<glyph unicode="l" horiz-adv-x="420" d="M164 0v1516h92v-1516h-92z" />
<glyph unicode="m" horiz-adv-x="1683" d="M164 0v1024h92v-170h4q107 195 313 195q112 0 191.5 -64.5t107.5 -169.5q48 111 137.5 172.5t194.5 61.5q336 0 336 -416v-633h-92v616q0 193 -60.5 271t-191.5 78q-121 0 -209 -104t-88 -261v-600h-92v623q0 342 -260 342q-125 0 -208 -104.5t-83 -270.5v-590h-92z" />
<glyph unicode="n" d="M164 0v1024h92v-186h4q112 211 350 211q166 0 254 -110.5t88 -315.5v-623h-92v596q0 369 -266 369q-148 0 -243 -108.5t-95 -268.5v-588h-92z" />
<glyph unicode="o" horiz-adv-x="1149" d="M90 506q0 255 136.5 399t359.5 144q219 0 346 -143t127 -396q0 -239 -129.5 -387t-354.5 -148q-224 0 -354.5 147.5t-130.5 383.5zM186 504q0 -201 105 -323t287 -122q185 0 285 120t100 333q0 219 -99.5 336t-281.5 117q-181 0 -288.5 -122t-107.5 -339z" />
<glyph unicode="p" horiz-adv-x="1147" d="M164 -471v1495h92v-211h4q55 113 157.5 174.5t225.5 61.5q195 0 304.5 -134.5t109.5 -365.5q0 -257 -125.5 -415.5t-331.5 -158.5q-230 0 -340 207h-4v-653h-92zM256 434q0 -154 97 -264.5t255 -110.5q157 0 255 134.5t98 353.5q0 192 -90 305t-240 113q-179 0 -277 -120 t-98 -282v-129z" />
<glyph unicode="q" horiz-adv-x="1147" d="M90 496q0 255 133 404t338 149q229 0 326 -191h4v166h92v-1495h-92v659h-4q-114 -213 -371 -213q-192 0 -309 141t-117 380zM186 500q0 -206 93.5 -323.5t242.5 -117.5q179 0 274 110t95 269v176q0 153 -89 252t-247 99q-159 0 -264 -122.5t-105 -342.5z" />
<glyph unicode="r" horiz-adv-x="676" d="M164 0v1024h90v-227h4q35 117 111 182t176 65q57 0 102 -18v-98q-46 33 -108 33q-121 0 -203 -125t-82 -355v-481h-90z" />
<glyph unicode="s" horiz-adv-x="795" d="M111 45v111q52 -45 126 -71t128 -26q241 0 241 197q0 68 -53 116t-172 99q-147 64 -206.5 132.5t-59.5 166.5q0 125 95.5 202t235.5 77q132 0 226 -54v-104q-114 74 -236 74q-101 0 -163 -52.5t-62 -136.5q0 -73 39 -118.5t172 -104.5q160 -72 220 -133.5t60 -163.5 q0 -122 -91.5 -201.5t-252.5 -79.5q-148 0 -247 70z" />
<glyph unicode="t" horiz-adv-x="608" d="M23 940v84h184v266q22 8 46 16q24 7 46 15v-297h270v-84h-270v-676q0 -106 33.5 -153.5t113.5 -47.5q57 0 123 37v-86q-72 -34 -135 -34q-227 0 -227 272v688h-184z" />
<glyph unicode="u" d="M143 432v592h93v-569q0 -208 68.5 -302t215.5 -94q143 0 231.5 105t88.5 280v580h92v-1024h-92v186h-4q-107 -211 -330 -211q-363 0 -363 457z" />
<glyph unicode="v" horiz-adv-x="928" d="M20 1024h103l305 -815q22 -59 31 -107h4q13 63 29 103l315 819h100l-407 -1024h-84z" />
<glyph unicode="w" horiz-adv-x="1386" d="M37 1024h102l238 -817q9 -32 14 -86h8q2 29 19 86l260 817h63l232 -817q8 -29 14 -86h8q0 29 17 86l243 817h95l-318 -1024h-86l-223 772q-9 32 -16 86h-5q-2 -23 -20 -84l-250 -774h-86z" />
<glyph unicode="x" horiz-adv-x="862" d="M33 0l342 500l-336 524h108l228 -367q44 -71 53 -88h4l51 84l238 371h108l-348 -522l334 -502h-117l-270 432h-4l-36 -57q-7 -12 -17 -27l-226 -348h-112z" />
<glyph unicode="y" horiz-adv-x="928" d="M20 1024h103l309 -834q10 -27 14 -41q4 -19 9 -34h4l24 69l330 840h100l-499 -1233q-56 -138 -124 -205t-175 -67q-45 0 -80 14v92q36 -14 84 -14q123 0 194 170l95 227z" />
<glyph unicode="z" horiz-adv-x="950" d="M57 0v35l680 905h-631v84h787v-25l-686 -915h661v-84h-811z" />
<glyph unicode="{" horiz-adv-x="578" d="M94 522v64q156 22 156 243v314q0 152 64.5 219t191.5 72v-84q-88 -5 -124 -57t-36 -179v-293q0 -222 -145 -266v-4q145 -46 145 -281v-276q0 -127 36 -179t124 -57v-84q-127 5 -191.5 72t-64.5 219v297q0 237 -156 260z" />
<glyph unicode="|" horiz-adv-x="463" d="M184 -481v2048h95v-2048h-95z" />
<glyph unicode="}" horiz-adv-x="578" d="M72 -242q82 5 120.5 53t38.5 183v276q0 235 146 281v4q-146 45 -146 266v293q0 135 -38.5 183t-120.5 53v84q127 -5 191.5 -71.5t64.5 -219.5v-314q0 -221 155 -243v-64q-155 -23 -155 -260v-297q0 -153 -64.5 -219.5t-191.5 -71.5v84z" />
<glyph unicode="~" horiz-adv-x="1331" d="M246 479q6 113 68 177.5t165 64.5q95 0 195 -80q70 -55 105 -72.5t79 -17.5q133 0 152 160h77q-7 -114 -68.5 -178t-164.5 -64q-95 0 -201 84q-105 84 -176 84q-141 0 -153 -158h-78z" />
<glyph unicode="&#xa2;" horiz-adv-x="1055" d="M166 657q0 215 114.5 365.5t309.5 183.5v199h92v-193q118 0 225 -47v-104q-104 63 -225 67v-903q130 10 221 80v-96q-91 -56 -221 -68v-198h-92v198q-194 17 -309 157.5t-115 358.5zM262 664q0 -183 87 -300.5t241 -138.5v897q-153 -29 -240.5 -153.5t-87.5 -304.5z" />
<glyph unicode="&#xa3;" horiz-adv-x="1055" d="M80 0v86q248 103 248 365v211h-228v90h228v290q0 188 99 302t263 114q96 0 182 -35v-94q-90 45 -186 45q-125 0 -195.5 -88t-70.5 -256v-278h307v-90h-307v-177q0 -295 -213 -401h741v-84h-868z" />
<glyph unicode="&#xa5;" horiz-adv-x="1055" d="M74 1434h102l307 -572q37 -68 47 -96h5q20 66 43 100l311 568h96l-383 -689h344v-83h-373v-246h373v-84h-373v-332h-92v332h-372v84h372v246h-372v83h342z" />
<glyph unicode="&#xa8;" horiz-adv-x="817" d="M170 1260q0 31 22 50t48 19q29 0 52 -19.5t23 -49.5q0 -31 -21 -51.5t-52 -20.5q-28 0 -50 19.5t-22 52.5zM504 1260q0 31 21.5 50t47.5 19q29 0 52.5 -19.5t23.5 -49.5q0 -31 -21.5 -51.5t-52.5 -20.5q-27 0 -49 19.5t-22 52.5z" />
<glyph unicode="&#xa9;" horiz-adv-x="1804" d="M156 715q0 310 219.5 526.5t525.5 216.5q308 0 528 -217t220 -524q0 -308 -218.5 -525t-527.5 -217q-311 0 -529 216.5t-218 523.5zM236 715q0 -273 195 -468.5t470 -195.5q277 0 472.5 196t195.5 468q0 275 -196.5 471t-471.5 196q-272 0 -468.5 -196t-196.5 -471z M436 690q0 246 145.5 390.5t366.5 144.5q127 0 230 -54v-86q-106 58 -246 58q-170 0 -287 -117.5t-117 -314.5q0 -192 121.5 -310t292.5 -118q130 0 240 67v-80q-123 -71 -250 -71q-209 0 -352.5 141t-143.5 350z" />
<glyph unicode="&#xab;" horiz-adv-x="952" d="M123 537l276 344h113l-281 -344l281 -336h-113zM440 537l277 344h114l-282 -344l280 -336h-112z" />
<glyph unicode="&#xad;" horiz-adv-x="815" d="M145 555v90h547v-90h-547z" />
<glyph unicode="&#xae;" horiz-adv-x="1804" d="M296 853q0 251 176.5 426t423.5 175q248 0 425 -175.5t177 -422.5q0 -250 -175.5 -425.5t-425.5 -175.5t-425.5 175t-175.5 423zM368 853q0 -218 153.5 -374t371.5 -156q220 0 376.5 156t156.5 374q0 220 -157 376.5t-376 156.5q-216 0 -370.5 -156.5t-154.5 -376.5z M674 482v772h211q128 0 197 -55.5t69 -147.5q0 -177 -202 -214v-3q68 -14 128 -140l102 -212h-92l-92 197q-40 86 -77.5 115.5t-84.5 29.5h-77v-342h-82zM756 888h139q78 0 125 40t47 110q0 153 -191 153h-120v-303z" />
<glyph unicode="&#xb4;" horiz-adv-x="508" d="M137 1188l234 328h104l-248 -328h-90z" />
<glyph unicode="&#xb8;" horiz-adv-x="412" d="M57 -356q50 -6 86 -6q160 0 160 92q0 86 -145 86q-32 0 -64 -4v188h72v-117q225 0 225 -147q0 -170 -254 -170q-36 0 -80 4v74z" />
<glyph unicode="&#xbb;" horiz-adv-x="952" d="M121 201l285 344l-285 336h115l276 -336l-274 -344h-117zM440 201l283 344l-283 336h113l278 -336l-278 -344h-113z" />
<glyph unicode="&#xc2;" horiz-adv-x="1288" d="M59 0l541 1434h94l535 -1434h-111l-164 446h-622l-164 -446h-109zM367 537h553l-242 663q-11 30 -18 59q-7 25 -15 50h-4q-17 -66 -33 -107zM400 1535l221 336h45l219 -336h-86l-157 239l-160 -239h-82z" />
<glyph unicode="&#xc7;" horiz-adv-x="1272" d="M109 688q0 349 201 559.5t511 210.5q165 0 316 -53v-105q-151 68 -318 68q-270 0 -439 -183t-169 -487q0 -293 161.5 -462.5t409.5 -169.5q198 0 355 77v-96q-216 -85 -420 -70v-94q225 0 225 -147q0 -170 -254 -170q-36 0 -80 4v74q50 -6 86 -6q160 0 160 92 q0 86 -145 86q-32 0 -64 -4v174q-252 46 -394 237t-142 465z" />
<glyph unicode="&#xce;" horiz-adv-x="467" d="M-10 1537l221 336h45l219 -336h-86l-157 239l-160 -239h-82zM184 0v1434h99v-1434h-99z" />
<glyph unicode="&#xd6;" horiz-adv-x="1559" d="M109 702q0 343 185.5 549.5t506.5 206.5q290 0 469.5 -198.5t179.5 -520.5q0 -356 -184 -560t-492 -204q-304 0 -484.5 202t-180.5 525zM211 713q0 -296 153 -471.5t408 -175.5q266 0 421 173.5t155 483.5q0 304 -151.5 474.5t-412.5 170.5q-250 0 -411.5 -181 t-161.5 -474zM545 1605q0 31 22 50t48 19q29 0 52 -19.5t23 -49.5q0 -31 -21 -51.5t-52 -20.5q-28 0 -50 19.5t-22 52.5zM879 1605q0 31 21.5 50t47.5 19q29 0 52.5 -19.5t23.5 -49.5q0 -31 -21.5 -51.5t-52.5 -20.5q-27 0 -49 19.5t-22 52.5z" />
<glyph unicode="&#xdb;" horiz-adv-x="1327" d="M166 551v883h98v-869q0 -499 406 -499q393 0 393 485v883h98v-861q0 -598 -510 -598q-485 0 -485 576zM460 1537l221 336h45l219 -336h-86l-157 239l-160 -239h-82z" />
<glyph unicode="&#xdc;" horiz-adv-x="1327" d="M166 551v883h98v-869q0 -499 406 -499q393 0 393 485v883h98v-861q0 -598 -510 -598q-485 0 -485 576zM455 1609q0 31 22 50t48 19q29 0 52 -19.5t23 -49.5q0 -31 -21 -51.5t-52 -20.5q-28 0 -50 19.5t-22 52.5zM789 1609q0 31 21.5 50t47.5 19q29 0 52.5 -19.5 t23.5 -49.5q0 -31 -21.5 -51.5t-52.5 -20.5q-27 0 -49 19.5t-22 52.5z" />
<glyph unicode="&#xe2;" horiz-adv-x="1012" d="M106 264q0 268 355 324l315 47q0 330 -248 330q-169 0 -329 -136v111q57 45 154.5 77t183.5 32q158 0 244.5 -98t86.5 -285v-666h-92v205h-4q-49 -105 -142.5 -167.5t-207.5 -62.5q-146 0 -231 82t-85 207zM203 268q0 -91 60.5 -150t168.5 -59q148 0 246 109.5t98 282.5 v100l-282 -41q-161 -23 -226 -74.5t-65 -167.5zM271 1188l221 336h45l219 -336h-86l-157 239l-160 -239h-82z" />
<glyph unicode="&#xe7;" horiz-adv-x="909" d="M90 494q0 244 144 399.5t370 155.5q117 0 227 -48v-104q-110 68 -241 68q-180 0 -292 -129.5t-112 -335.5q0 -199 102.5 -320t270.5 -121q154 0 268 82v-96q-114 -70 -272 -70q-209 0 -337 143.5t-128 375.5zM403 -356q50 -6 86 -6q160 0 160 92q0 86 -145 86 q-32 0 -64 -4v188h72v-117q225 0 225 -147q0 -170 -254 -170q-36 0 -80 4v74z" />
<glyph unicode="&#xee;" horiz-adv-x="420" d="M-30 1188l221 336h45l219 -336h-86l-157 239l-160 -239h-82zM164 0v1024h92v-1024h-92z" />
<glyph unicode="&#xf6;" horiz-adv-x="1149" d="M90 506q0 255 136.5 399t359.5 144q219 0 346 -143t127 -396q0 -239 -129.5 -387t-354.5 -148q-224 0 -354.5 147.5t-130.5 383.5zM186 504q0 -201 105 -323t287 -122q185 0 285 120t100 333q0 219 -99.5 336t-281.5 117q-181 0 -288.5 -122t-107.5 -339zM344 1260 q0 31 22 50t48 19q29 0 52 -19.5t23 -49.5q0 -31 -21 -51.5t-52 -20.5q-28 0 -50 19.5t-22 52.5zM678 1260q0 31 21.5 50t47.5 19q29 0 52.5 -19.5t23.5 -49.5q0 -31 -21.5 -51.5t-52.5 -20.5q-27 0 -49 19.5t-22 52.5z" />
<glyph unicode="&#xfb;" d="M143 432v592h93v-569q0 -208 68.5 -302t215.5 -94q143 0 231.5 105t88.5 280v580h92v-1024h-92v186h-4q-107 -211 -330 -211q-363 0 -363 457zM327 1188l221 336h45l219 -336h-86l-157 239l-160 -239h-82z" />
<glyph unicode="&#xfc;" d="M143 432v592h93v-569q0 -208 68.5 -302t215.5 -94q143 0 231.5 105t88.5 280v580h92v-1024h-92v186h-4q-107 -211 -330 -211q-363 0 -363 457zM330 1260q0 31 22 50t48 19q29 0 52 -19.5t23 -49.5q0 -31 -21 -51.5t-52 -20.5q-28 0 -50 19.5t-22 52.5zM664 1260 q0 31 21.5 50t47.5 19q29 0 52.5 -19.5t23.5 -49.5q0 -31 -21.5 -51.5t-52.5 -20.5q-27 0 -49 19.5t-22 52.5z" />
<glyph unicode="&#x100;" horiz-adv-x="1288" d="M59 0l541 1434h94l535 -1434h-111l-164 446h-622l-164 -446h-109zM367 537h553l-242 663q-11 30 -18 59q-7 25 -15 50h-4q-17 -66 -33 -107zM388 1536v84h508v-84h-508z" />
<glyph unicode="&#x101;" horiz-adv-x="1012" d="M106 264q0 268 355 324l315 47q0 330 -248 330q-169 0 -329 -136v111q57 45 154.5 77t183.5 32q158 0 244.5 -98t86.5 -285v-666h-92v205h-4q-49 -105 -142.5 -167.5t-207.5 -62.5q-146 0 -231 82t-85 207zM203 268q0 -91 60.5 -150t168.5 -59q148 0 246 109.5t98 282.5 v100l-282 -41q-161 -23 -226 -74.5t-65 -167.5zM267 1188v84h508v-84h-508z" />
<glyph unicode="&#x102;" horiz-adv-x="1288" d="M59 0l541 1434h94l535 -1434h-111l-164 446h-622l-164 -446h-109zM367 537h553l-242 663q-11 30 -18 59q-7 25 -15 50h-4q-17 -66 -33 -107zM383 1772h84q6 -75 55.5 -117t126.5 -42q68 0 120.5 43.5t61.5 115.5h88q-16 -108 -89.5 -171.5t-182.5 -63.5q-110 0 -182.5 62 t-81.5 173z" />
<glyph unicode="&#x103;" horiz-adv-x="1012" d="M106 264q0 268 355 324l315 47q0 330 -248 330q-169 0 -329 -136v111q57 45 154.5 77t183.5 32q158 0 244.5 -98t86.5 -285v-666h-92v205h-4q-49 -105 -142.5 -167.5t-207.5 -62.5q-146 0 -231 82t-85 207zM203 268q0 -91 60.5 -150t168.5 -59q148 0 246 109.5t98 282.5 v100l-282 -41q-161 -23 -226 -74.5t-65 -167.5zM248 1423h84q6 -75 55.5 -117t126.5 -42q68 0 120.5 43.5t61.5 115.5h88q-16 -108 -89.5 -171.5t-182.5 -63.5q-110 0 -182.5 62t-81.5 173z" />
<glyph unicode="&#x104;" horiz-adv-x="1288" d="M59 0l541 1434h94l535 -1434h-111l-164 446h-622l-164 -446h-109zM367 537h553l-242 663q-11 30 -18 59q-7 25 -15 50h-4q-17 -66 -33 -107zM950 -246q0 55 42.5 122t125.5 124h88q-170 -135 -170 -240q0 -88 84 -88q38 0 80 17v-70q-49 -18 -94 -18q-70 0 -113 40.5 t-43 112.5z" />
<glyph unicode="&#x105;" horiz-adv-x="1012" d="M106 264q0 268 355 324l315 47q0 330 -248 330q-169 0 -329 -136v111q57 45 154.5 77t183.5 32q158 0 244.5 -98t86.5 -285v-666h-92v205h-4q-49 -105 -142.5 -167.5t-207.5 -62.5q-146 0 -231 82t-85 207zM203 268q0 -91 60.5 -150t168.5 -59q148 0 246 109.5t98 282.5 v100l-282 -41q-161 -23 -226 -74.5t-65 -167.5zM608 -246q0 55 42.5 122t125.5 124h88q-170 -135 -170 -240q0 -88 84 -88q38 0 80 17v-70q-49 -18 -94 -18q-70 0 -113 40.5t-43 112.5z" />
<glyph unicode="&#x106;" horiz-adv-x="1272" d="M109 688q0 349 201 559.5t511 210.5q165 0 316 -53v-105q-151 68 -318 68q-270 0 -439 -183t-169 -487q0 -293 161.5 -462.5t409.5 -169.5q198 0 355 77v-96q-174 -72 -363 -72q-294 0 -479.5 197.5t-185.5 515.5zM606 1536l234 328h104l-248 -328h-90z" />
<glyph unicode="&#x107;" horiz-adv-x="909" d="M90 494q0 244 144 399.5t370 155.5q117 0 227 -48v-104q-110 68 -241 68q-180 0 -292 -129.5t-112 -335.5q0 -199 102.5 -320t270.5 -121q154 0 268 82v-96q-114 -70 -272 -70q-209 0 -337 143.5t-128 375.5zM420 1188l234 328h104l-248 -328h-90z" />
<glyph unicode="&#x108;" horiz-adv-x="1272" d="M109 688q0 349 201 559.5t511 210.5q165 0 316 -53v-105q-151 68 -318 68q-270 0 -439 -183t-169 -487q0 -293 161.5 -462.5t409.5 -169.5q198 0 355 77v-96q-174 -72 -363 -72q-294 0 -479.5 197.5t-185.5 515.5zM521 1537l221 336h45l219 -336h-86l-157 239l-160 -239 h-82z" />
<glyph unicode="&#x109;" horiz-adv-x="909" d="M90 494q0 244 144 399.5t370 155.5q117 0 227 -48v-104q-110 68 -241 68q-180 0 -292 -129.5t-112 -335.5q0 -199 102.5 -320t270.5 -121q154 0 268 82v-96q-114 -70 -272 -70q-209 0 -337 143.5t-128 375.5zM305 1188l221 336h45l219 -336h-86l-157 239l-160 -239h-82z " />
<glyph unicode="&#x10a;" horiz-adv-x="1272" d="M109 688q0 349 201 559.5t511 210.5q165 0 316 -53v-105q-151 68 -318 68q-270 0 -439 -183t-169 -487q0 -293 161.5 -462.5t409.5 -169.5q198 0 355 77v-96q-174 -72 -363 -72q-294 0 -479.5 197.5t-185.5 515.5zM689 1614q0 34 23.5 53.5t52.5 19.5q31 0 55.5 -19.5 t24.5 -53.5q0 -32 -23 -55t-55 -23q-31 0 -54.5 22t-23.5 56z" />
<glyph unicode="&#x10b;" horiz-adv-x="909" d="M90 494q0 244 144 399.5t370 155.5q117 0 227 -48v-104q-110 68 -241 68q-180 0 -292 -129.5t-112 -335.5q0 -199 102.5 -320t270.5 -121q154 0 268 82v-96q-114 -70 -272 -70q-209 0 -337 143.5t-128 375.5zM482 1266q0 34 23.5 53.5t52.5 19.5q31 0 55.5 -19.5 t24.5 -53.5q0 -32 -23 -55t-55 -23q-31 0 -54.5 22t-23.5 56z" />
<glyph unicode="&#x10c;" horiz-adv-x="1272" d="M109 688q0 349 201 559.5t511 210.5q165 0 316 -53v-105q-151 68 -318 68q-270 0 -439 -183t-169 -487q0 -293 161.5 -462.5t409.5 -169.5q198 0 355 77v-96q-174 -72 -363 -72q-294 0 -479.5 197.5t-185.5 515.5zM537 1872h86l158 -240l160 240h82l-221 -336h-45z" />
<glyph unicode="&#x10d;" horiz-adv-x="909" d="M90 494q0 244 144 399.5t370 155.5q117 0 227 -48v-104q-110 68 -241 68q-180 0 -292 -129.5t-112 -335.5q0 -199 102.5 -320t270.5 -121q154 0 268 82v-96q-114 -70 -272 -70q-209 0 -337 143.5t-128 375.5zM333 1524h86l158 -240l160 240h82l-221 -336h-45z" />
<glyph unicode="&#x10e;" horiz-adv-x="1380" d="M184 0v1434h359q357 0 543 -178t186 -519q0 -328 -199.5 -532.5t-550.5 -204.5h-338zM283 90h225q319 0 490 165.5t171 477.5q0 610 -641 610h-245v-1253zM426 1872h86l158 -240l160 240h82l-221 -336h-45z" />
<glyph unicode="&#x10f;" horiz-adv-x="1254" d="M90 494q0 248 130.5 401.5t338.5 153.5q230 0 328 -189h4v656h92v-1516h-92v186h-4q-50 -97 -148 -154t-221 -57q-189 0 -308.5 138t-119.5 381zM186 502q0 -212 94.5 -327.5t243.5 -115.5q175 0 271 108.5t96 264.5v191q0 143 -90.5 242.5t-243.5 99.5 q-161 0 -266 -123.5t-105 -339.5zM1096 1255l93 261h112l-126 -261h-79z" />
<glyph unicode="&#x110;" horiz-adv-x="1380" d="M35 668v88h149v678h359q358 0 543.5 -177.5t185.5 -519.5q0 -332 -201.5 -534.5t-548.5 -202.5h-338v668h-149zM283 90h225q318 0 489.5 165t171.5 478q0 610 -641 610h-245v-587h403v-88h-403v-578z" />
<glyph unicode="&#x111;" horiz-adv-x="1147" d="M90 494q0 248 130.5 401.5t338.5 153.5q230 0 328 -189h4v371h-335v84h335v201h92v-201h135v-84h-135v-1231h-92v186h-4q-50 -97 -148 -154t-221 -57q-189 0 -308.5 138t-119.5 381zM186 502q0 -212 94.5 -327.5t243.5 -115.5q175 0 271 108.5t96 264.5v191 q0 143 -90.5 242.5t-243.5 99.5q-161 0 -266 -123.5t-105 -339.5z" />
<glyph unicode="&#x112;" horiz-adv-x="1024" d="M184 0v1434h670v-91h-571v-575h530v-90h-530v-588h604v-90h-703zM273 1535v84h508v-84h-508z" />
<glyph unicode="&#x113;" horiz-adv-x="1034" d="M90 518q0 224 127.5 377.5t331.5 153.5q191 0 293 -134t102 -366v-41h-758q0 -211 97.5 -330t267.5 -119q172 0 336 127v-98q-159 -113 -355 -113q-198 0 -320 142t-122 401zM190 592h658q-6 177 -85 275t-218 98q-144 0 -238.5 -96.5t-116.5 -276.5zM285 1188v84h508 v-84h-508z" />
<glyph unicode="&#x114;" horiz-adv-x="1024" d="M184 0v1434h670v-91h-571v-575h530v-90h-530v-588h604v-90h-703zM269 1772h84q6 -75 55.5 -117t126.5 -42q68 0 120.5 43.5t61.5 115.5h88q-16 -108 -89.5 -171.5t-182.5 -63.5q-110 0 -182.5 62t-81.5 173z" />
<glyph unicode="&#x115;" horiz-adv-x="1034" d="M90 518q0 224 127.5 377.5t331.5 153.5q191 0 293 -134t102 -366v-41h-758q0 -211 97.5 -330t267.5 -119q172 0 336 127v-98q-159 -113 -355 -113q-198 0 -320 142t-122 401zM190 592h658q-6 177 -85 275t-218 98q-144 0 -238.5 -96.5t-116.5 -276.5zM274 1423h84 q6 -75 55.5 -117t126.5 -42q68 0 120.5 43.5t61.5 115.5h88q-16 -108 -89.5 -171.5t-182.5 -63.5q-110 0 -182.5 62t-81.5 173z" />
<glyph unicode="&#x116;" horiz-adv-x="1024" d="M184 0v1434h670v-91h-571v-575h530v-90h-530v-588h604v-90h-703zM446 1614q0 34 23.5 53.5t52.5 19.5q31 0 55.5 -19.5t24.5 -53.5q0 -32 -23 -55t-55 -23q-31 0 -54.5 22t-23.5 56z" />
<glyph unicode="&#x117;" horiz-adv-x="1034" d="M90 518q0 224 127.5 377.5t331.5 153.5q191 0 293 -134t102 -366v-41h-758q0 -211 97.5 -330t267.5 -119q172 0 336 127v-98q-159 -113 -355 -113q-198 0 -320 142t-122 401zM190 592h658q-6 177 -85 275t-218 98q-144 0 -238.5 -96.5t-116.5 -276.5zM463 1266 q0 34 23.5 53.5t52.5 19.5q31 0 55.5 -19.5t24.5 -53.5q0 -32 -23 -55t-55 -23q-31 0 -54.5 22t-23.5 56z" />
<glyph unicode="&#x118;" horiz-adv-x="1024" d="M184 0v1434h670v-91h-571v-575h530v-90h-530v-588h604v-90h-703zM589 -246q0 55 42.5 122t125.5 124h88q-170 -135 -170 -240q0 -88 84 -88q38 0 80 17v-70q-49 -18 -94 -18q-70 0 -113 40.5t-43 112.5z" />
<glyph unicode="&#x119;" horiz-adv-x="1034" d="M90 518q0 224 127.5 377.5t331.5 153.5q191 0 293 -134t102 -366v-41h-758q0 -211 97.5 -330t267.5 -119q172 0 336 127v-98q-159 -113 -355 -113q-198 0 -320 142t-122 401zM190 592h658q-6 177 -85 275t-218 98q-144 0 -238.5 -96.5t-116.5 -276.5zM419 -246 q0 55 42.5 122t125.5 124h88q-170 -135 -170 -240q0 -88 84 -88q38 0 80 17v-70q-49 -18 -94 -18q-70 0 -113 40.5t-43 112.5z" />
<glyph unicode="&#x11a;" horiz-adv-x="1024" d="M184 0v1434h670v-91h-571v-575h530v-90h-530v-588h604v-90h-703zM277 1872h86l158 -240l160 240h82l-221 -336h-45z" />
<glyph unicode="&#x11b;" horiz-adv-x="1034" d="M90 518q0 224 127.5 377.5t331.5 153.5q191 0 293 -134t102 -366v-41h-758q0 -211 97.5 -330t267.5 -119q172 0 336 127v-98q-159 -113 -355 -113q-198 0 -320 142t-122 401zM190 592h658q-6 177 -85 275t-218 98q-144 0 -238.5 -96.5t-116.5 -276.5zM291 1524h86 l158 -240l160 240h82l-221 -336h-45z" />
<glyph unicode="&#x11c;" horiz-adv-x="1368" d="M109 696q0 326 195 544t521 218q189 0 367 -76v-108q-195 94 -381 94q-271 0 -435.5 -185t-164.5 -472q0 -302 154.5 -473.5t416.5 -171.5q194 0 340 84v473h-338v90h437v-613q-222 -125 -457 -125q-293 0 -474 199t-181 522zM535 1538l221 336h45l219 -336h-86l-157 239 l-160 -239h-82z" />
<glyph unicode="&#x11d;" horiz-adv-x="1147" d="M90 494q0 245 129 400t340 155q226 0 328 -187h4v162h92v-948q0 -289 -126 -423t-392 -134q-148 0 -305 78v96q162 -90 307 -90q424 0 424 448v133h-4q-121 -209 -369 -209q-189 0 -308.5 137t-119.5 382zM186 502q0 -210 94.5 -326.5t249.5 -116.5q165 0 263 107t98 262 v203q0 136 -91.5 235t-238.5 99q-169 0 -272 -127t-103 -336zM330 1188l221 336h45l219 -336h-86l-157 239l-160 -239h-82z" />
<glyph unicode="&#x11e;" horiz-adv-x="1368" d="M109 696q0 326 195 544t521 218q189 0 367 -76v-108q-195 94 -381 94q-271 0 -435.5 -185t-164.5 -472q0 -302 154.5 -473.5t416.5 -171.5q194 0 340 84v473h-338v90h437v-613q-222 -125 -457 -125q-293 0 -474 199t-181 522zM518 1770h84q6 -75 55.5 -117t126.5 -42 q68 0 120.5 43.5t61.5 115.5h88q-16 -108 -89.5 -171.5t-182.5 -63.5q-110 0 -182.5 62t-81.5 173z" />
<glyph unicode="&#x11f;" horiz-adv-x="1147" d="M90 494q0 245 129 400t340 155q226 0 328 -187h4v162h92v-948q0 -289 -126 -423t-392 -134q-148 0 -305 78v96q162 -90 307 -90q424 0 424 448v133h-4q-121 -209 -369 -209q-189 0 -308.5 137t-119.5 382zM186 502q0 -210 94.5 -326.5t249.5 -116.5q165 0 263 107t98 262 v203q0 136 -91.5 235t-238.5 99q-169 0 -272 -127t-103 -336zM310 1423h84q6 -75 55.5 -117t126.5 -42q68 0 120.5 43.5t61.5 115.5h88q-16 -108 -89.5 -171.5t-182.5 -63.5q-110 0 -182.5 62t-81.5 173z" />
<glyph unicode="&#x120;" horiz-adv-x="1368" d="M109 696q0 326 195 544t521 218q189 0 367 -76v-108q-195 94 -381 94q-271 0 -435.5 -185t-164.5 -472q0 -302 154.5 -473.5t416.5 -171.5q194 0 340 84v473h-338v90h437v-613q-222 -125 -457 -125q-293 0 -474 199t-181 522zM694 1614q0 34 23.5 53.5t52.5 19.5 q31 0 55.5 -19.5t24.5 -53.5q0 -32 -23 -55t-55 -23q-31 0 -54.5 22t-23.5 56z" />
<glyph unicode="&#x121;" horiz-adv-x="1147" d="M90 494q0 245 129 400t340 155q226 0 328 -187h4v162h92v-948q0 -289 -126 -423t-392 -134q-148 0 -305 78v96q162 -90 307 -90q424 0 424 448v133h-4q-121 -209 -369 -209q-189 0 -308.5 137t-119.5 382zM186 502q0 -210 94.5 -326.5t249.5 -116.5q165 0 263 107t98 262 v203q0 136 -91.5 235t-238.5 99q-169 0 -272 -127t-103 -336zM480 1266q0 34 23.5 53.5t52.5 19.5q31 0 55.5 -19.5t24.5 -53.5q0 -32 -23 -55t-55 -23q-31 0 -54.5 22t-23.5 56z" />
<glyph unicode="&#x122;" horiz-adv-x="1368" d="M109 696q0 326 195 544t521 218q189 0 367 -76v-108q-195 94 -381 94q-271 0 -435.5 -185t-164.5 -472q0 -302 154.5 -473.5t416.5 -171.5q194 0 340 84v473h-338v90h437v-613q-222 -125 -457 -125q-293 0 -474 199t-181 522zM651 -379l93 261h112l-126 -261h-79z" />
<glyph unicode="&#x123;" horiz-adv-x="1147" d="M90 494q0 245 129 400t340 155q226 0 328 -187h4v162h92v-948q0 -289 -126 -423t-392 -134q-148 0 -305 78v96q162 -90 307 -90q424 0 424 448v133h-4q-121 -209 -369 -209q-189 0 -308.5 137t-119.5 382zM186 502q0 -210 94.5 -326.5t249.5 -116.5q165 0 263 107t98 262 v203q0 136 -91.5 235t-238.5 99q-169 0 -272 -127t-103 -336zM470 1219l126 261h79l-93 -261h-112z" />
<glyph unicode="&#x124;" horiz-adv-x="1386" d="M184 0v1434h99v-656h821v656h98v-1434h-98v688h-821v-688h-99zM449 1536l221 336h45l219 -336h-86l-157 239l-160 -239h-82z" />
<glyph unicode="&#x125;" d="M164 0v1516h92v-676h4q121 209 352 209q166 0 253 -107t87 -307v-635h-92v614q0 182 -66 266.5t-206 84.5q-132 0 -232 -103t-100 -295v-567h-92zM332 1617l221 336h45l219 -336h-86l-157 239l-160 -239h-82z" />
<glyph unicode="&#x126;" horiz-adv-x="1386" d="M61 1045v91h123v298h99v-298h821v298h98v-298h123v-91h-123v-1045h-98v688h-821v-688h-99v1045h-123zM283 778h821v267h-821v-267z" />
<glyph unicode="&#x127;" d="M51 1231v84h135v201h93v-201h389v-84h-389v-416h4q24 44 58.5 82t78.5 66.5t97.5 44.5t117.5 16q86 0 150 -28.5t106 -82t63 -130t21 -173.5v-610h-92v590q0 181 -66.5 265.5t-206.5 84.5q-29 0 -65 -7.5t-72.5 -25.5t-71.5 -48t-62 -74t-43.5 -104t-16.5 -138v-543h-93 v1231h-135z" />
<glyph unicode="&#x128;" horiz-adv-x="467" d="M-78 1534q0 100 48 160.5t128 60.5q72 0 160 -72q67 -59 117 -59q40 0 68 37t28 108h74q0 -103 -48.5 -163t-130.5 -60q-66 0 -151 76q-64 55 -119 55q-102 0 -102 -143h-72zM184 0v1434h99v-1434h-99z" />
<glyph unicode="&#x129;" horiz-adv-x="420" d="M-99 1188q0 100 48 160.5t128 60.5q72 0 160 -72q67 -59 117 -59q40 0 68 37t28 108h74q0 -103 -48.5 -163t-130.5 -60q-66 0 -151 76q-64 55 -119 55q-102 0 -102 -143h-72zM164 0v1024h92v-1024h-92z" />
<glyph unicode="&#x12a;" horiz-adv-x="467" d="M-20 1536v84h508v-84h-508zM184 0v1434h99v-1434h-99z" />
<glyph unicode="&#x12b;" horiz-adv-x="420" d="M-44 1188v84h508v-84h-508zM164 0v1024h92v-1024h-92z" />
<glyph unicode="&#x12c;" horiz-adv-x="467" d="M-37 1771h84q6 -75 55.5 -117t126.5 -42q68 0 120.5 43.5t61.5 115.5h88q-16 -108 -89.5 -171.5t-182.5 -63.5q-110 0 -182.5 62t-81.5 173zM184 0v1434h99v-1434h-99z" />
<glyph unicode="&#x12d;" horiz-adv-x="420" d="M-58 1423h84q6 -75 55.5 -117t126.5 -42q68 0 120.5 43.5t61.5 115.5h88q-16 -108 -89.5 -171.5t-182.5 -63.5q-110 0 -182.5 62t-81.5 173zM164 0v1024h92v-1024h-92z" />
<glyph unicode="&#x12e;" horiz-adv-x="467" d="M27 -246q0 55 42.5 122t125.5 124h88q-170 -135 -170 -240q0 -88 84 -88q38 0 80 17v-70q-49 -18 -94 -18q-70 0 -113 40.5t-43 112.5zM184 0v1434h99v-1434h-99z" />
<glyph unicode="&#x12f;" horiz-adv-x="420" d="M2 -246q0 55 42.5 122t125.5 124h88q-170 -135 -170 -240q0 -88 84 -88q38 0 80 17v-70q-49 -18 -94 -18q-70 0 -113 40.5t-43 112.5zM133 1360q0 33 23.5 53.5t52.5 20.5q31 0 54.5 -20t23.5 -54q0 -32 -23 -55t-55 -23q-30 0 -53 22t-23 56zM164 0v1024h92v-1024h-92z " />
<glyph unicode="&#x130;" horiz-adv-x="467" d="M153 1615q0 34 23.5 53.5t52.5 19.5q31 0 55.5 -19.5t24.5 -53.5q0 -32 -23 -55t-55 -23q-31 0 -54.5 22t-23.5 56zM184 0v1434h99v-1434h-99z" />
<glyph unicode="&#x131;" horiz-adv-x="420" d="M164 0v1024h92v-1024h-92z" />
<glyph unicode="&#x132;" horiz-adv-x="1151" d="M184 0v1434h99v-1434h-99zM505 -10v96q59 -20 111 -20q138 0 199 104.5t61 325.5v938h98v-940q0 -519 -360 -519q-56 0 -109 15z" />
<glyph unicode="&#x133;" horiz-adv-x="840" d="M133 1360q0 33 23.5 53.5t52.5 20.5q31 0 54.5 -20t23.5 -54q0 -32 -23 -55t-55 -23q-30 0 -53 22t-23 56zM164 0v1024h92v-1024h-92zM168 -350q80 -47 156 -47q260 0 260 409v1012h92v-995q0 -510 -362 -510q-72 0 -146 35v96zM553 1360q0 33 23.5 53.5t52.5 20.5 q31 0 54.5 -20t23.5 -54q0 -32 -23 -55t-55 -23q-30 0 -53 22t-23 56z" />
<glyph unicode="&#x134;" horiz-adv-x="664" d="M18 -10v96q59 -20 111 -20q138 0 199 104.5t61 325.5v938h98v-940q0 -519 -360 -519q-56 0 -109 15zM192 1536l221 336h45l219 -336h-86l-157 239l-160 -239h-82z" />
<glyph unicode="&#x135;" horiz-adv-x="420" d="M-252 -350q80 -47 156 -47q260 0 260 409v1012h92v-995q0 -510 -362 -510q-72 0 -146 35v96zM-39 1188l221 336h45l219 -336h-86l-157 239l-160 -239h-82z" />
<glyph unicode="&#x136;" horiz-adv-x="1079" d="M184 0v1434h99v-676h4q12 21 26 35l580 641h129l-629 -695l668 -739h-139l-611 686q-17 19 -24 33h-4v-719h-99zM463 -379l93 261h112l-126 -261h-79z" />
<glyph unicode="&#x137;" horiz-adv-x="909" d="M164 0v1516h92v-977h4l465 485h119l-486 -496l525 -528h-133l-490 506h-4v-506h-92zM356 -379l93 261h112l-126 -261h-79z" />
<glyph unicode="&#x138;" horiz-adv-x="909" d="M164 0v1024h92v-485h4l465 485h119l-486 -496l525 -528h-133l-490 506h-4v-506h-92z" />
<glyph unicode="&#x139;" horiz-adv-x="938" d="M184 0v1434h99v-1344h575v-90h-674zM469 1536l234 328h104l-248 -328h-90z" />
<glyph unicode="&#x13a;" horiz-adv-x="420" d="M149 1621l234 328h104l-248 -328h-90zM164 0v1516h92v-1516h-92z" />
<glyph unicode="&#x13b;" horiz-adv-x="938" d="M184 0v1434h99v-1344h575v-90h-674zM426 -356q50 -6 86 -6q160 0 160 92q0 86 -145 86q-32 0 -64 -4v188h72v-117q225 0 225 -147q0 -170 -254 -170q-36 0 -80 4v74z" />
<glyph unicode="&#x13c;" horiz-adv-x="420" d="M130 -356q50 -6 86 -6q160 0 160 92q0 86 -145 86q-32 0 -64 -4v188h72v-117q225 0 225 -147q0 -170 -254 -170q-36 0 -80 4v74zM164 0v1516h92v-1516h-92z" />
<glyph unicode="&#x13d;" horiz-adv-x="938" d="M184 0v1434h99v-1344h575v-90h-674zM620 1173l93 261h112l-126 -261h-79z" />
<glyph unicode="&#x13e;" horiz-adv-x="527" d="M164 0v1516h92v-1516h-92zM369 1255l93 261h112l-126 -261h-79z" />
<glyph unicode="&#x13f;" horiz-adv-x="938" d="M184 0v1434h99v-1344h575v-90h-674zM575 707q0 34 23 56.5t57 22.5t58 -22.5t24 -56.5t-24 -58t-58 -24t-57 24t-23 58z" />
<glyph unicode="&#x140;" horiz-adv-x="538" d="M164 0v1516h92v-1516h-92zM375 707q0 34 23 56.5t57 22.5t58 -22.5t24 -56.5t-24 -58t-58 -24t-57 24t-23 58z" />
<glyph unicode="&#x141;" horiz-adv-x="938" d="M70 500v96l114 70v768h99v-709l366 223v-96l-366 -223v-539h575v-90h-674v569z" />
<glyph unicode="&#x142;" horiz-adv-x="502" d="M25 494v96l180 137v789h92v-719l182 135v-96l-182 -136v-700h-92v631z" />
<glyph unicode="&#x143;" horiz-adv-x="1452" d="M184 0v1434h76l848 -1149q28 -38 61 -92h5q-5 70 -5 120v1121h99v-1434h-70l-854 1159q-26 35 -46 70l-13 20h-4q2 -26 2 -63v-1186h-99zM619 1536l234 328h104l-248 -328h-90z" />
<glyph unicode="&#x144;" d="M164 0v1024h92v-186h4q112 211 350 211q166 0 254 -110.5t88 -315.5v-623h-92v596q0 369 -266 369q-148 0 -243 -108.5t-95 -268.5v-588h-92zM449 1188l234 328h104l-248 -328h-90z" />
<glyph unicode="&#x145;" horiz-adv-x="1452" d="M184 0v1434h76l848 -1149q28 -38 61 -92h5q-5 70 -5 120v1121h99v-1434h-70l-854 1159q-26 35 -46 70l-13 20h-4q2 -26 2 -63v-1186h-99zM595 -379l93 261h112l-126 -261h-79z" />
<glyph unicode="&#x146;" d="M164 0v1024h92v-186h4q112 211 350 211q166 0 254 -110.5t88 -315.5v-623h-92v596q0 369 -266 369q-148 0 -243 -108.5t-95 -268.5v-588h-92zM422 -379l93 261h112l-126 -261h-79z" />
<glyph unicode="&#x147;" horiz-adv-x="1452" d="M184 0v1434h76l848 -1149q28 -38 61 -92h5q-5 70 -5 120v1121h99v-1434h-70l-854 1159q-26 35 -46 70l-13 20h-4q2 -26 2 -63v-1186h-99zM498 1872h86l158 -240l160 240h82l-221 -336h-45z" />
<glyph unicode="&#x148;" d="M164 0v1024h92v-186h4q112 211 350 211q166 0 254 -110.5t88 -315.5v-623h-92v596q0 369 -266 369q-148 0 -243 -108.5t-95 -268.5v-588h-92zM329 1524h86l158 -240l160 240h82l-221 -336h-45z" />
<glyph unicode="&#x149;" horiz-adv-x="1176" d="M-26 985l125 449h104l-156 -449h-73zM244 0v1024h92v-186h4q112 211 350 211q166 0 254 -110.5t88 -315.5v-623h-92v596q0 369 -266 369q-148 0 -243 -108.5t-95 -268.5v-588h-92z" />
<glyph unicode="&#x14a;" horiz-adv-x="1444" d="M184 0v1434h76l848 -1172q14 -19 29 -42t32 -50h5q-2 35 -3.5 65t-1.5 55v1144h99v-1434q0 -423 -329 -423q-57 0 -109 15v96q60 -20 111 -20q127 0 183 79t56 251v3l-836 1158q-13 17 -24.5 35t-21.5 35l-13 20h-4q1 -13 1.5 -28.5t0.5 -34.5v-1186h-99z" />
<glyph unicode="&#x14b;" d="M164 0v1024h92v-186h4q112 211 350 211q167 0 254.5 -110t87.5 -316v-621q0 -215 -73.5 -319.5t-221.5 -104.5q-30 0 -67 9t-66 26v96q32 -23 67 -35t66 -12q106 0 154.5 83.5t48.5 256.5v594q0 369 -266 369q-149 0 -243 -109q-95 -109 -95 -268v-588h-92z" />
<glyph unicode="&#x14c;" horiz-adv-x="1559" d="M109 702q0 343 185.5 549.5t506.5 206.5q290 0 469.5 -198.5t179.5 -520.5q0 -356 -184 -560t-492 -204q-304 0 -484.5 202t-180.5 525zM211 713q0 -296 153 -471.5t408 -175.5q266 0 421 173.5t155 483.5q0 304 -151.5 474.5t-412.5 170.5q-250 0 -411.5 -181 t-161.5 -474zM536 1536v84h508v-84h-508z" />
<glyph unicode="&#x14d;" horiz-adv-x="1149" d="M90 506q0 255 136.5 399t359.5 144q219 0 346 -143t127 -396q0 -239 -129.5 -387t-354.5 -148q-224 0 -354.5 147.5t-130.5 383.5zM186 504q0 -201 105 -323t287 -122q185 0 285 120t100 333q0 219 -99.5 336t-281.5 117q-181 0 -288.5 -122t-107.5 -339zM334 1188v84 h508v-84h-508z" />
<glyph unicode="&#x14e;" horiz-adv-x="1559" d="M109 702q0 343 185.5 549.5t506.5 206.5q290 0 469.5 -198.5t179.5 -520.5q0 -356 -184 -560t-492 -204q-304 0 -484.5 202t-180.5 525zM211 713q0 -296 153 -471.5t408 -175.5q266 0 421 173.5t155 483.5q0 304 -151.5 474.5t-412.5 170.5q-250 0 -411.5 -181 t-161.5 -474zM523 1772h84q6 -75 55.5 -117t126.5 -42q68 0 120.5 43.5t61.5 115.5h88q-16 -108 -89.5 -171.5t-182.5 -63.5q-110 0 -182.5 62t-81.5 173z" />
<glyph unicode="&#x14f;" horiz-adv-x="1149" d="M90 506q0 255 136.5 399t359.5 144q219 0 346 -143t127 -396q0 -239 -129.5 -387t-354.5 -148q-224 0 -354.5 147.5t-130.5 383.5zM186 504q0 -201 105 -323t287 -122q185 0 285 120t100 333q0 219 -99.5 336t-281.5 117q-181 0 -288.5 -122t-107.5 -339zM316 1423h84 q6 -75 55.5 -117t126.5 -42q68 0 120.5 43.5t61.5 115.5h88q-16 -108 -89.5 -171.5t-182.5 -63.5q-110 0 -182.5 62t-81.5 173z" />
<glyph unicode="&#x150;" horiz-adv-x="1559" d="M109 702q0 343 185.5 549.5t506.5 206.5q290 0 469.5 -198.5t179.5 -520.5q0 -356 -184 -560t-492 -204q-304 0 -484.5 202t-180.5 525zM211 713q0 -296 153 -471.5t408 -175.5q266 0 421 173.5t155 483.5q0 304 -151.5 474.5t-412.5 170.5q-250 0 -411.5 -181 t-161.5 -474zM570 1537l211 317h110l-248 -317h-73zM791 1537l211 317h110l-247 -317h-74z" />
<glyph unicode="&#x151;" horiz-adv-x="1149" d="M90 506q0 255 136.5 399t359.5 144q219 0 346 -143t127 -396q0 -239 -129.5 -387t-354.5 -148q-224 0 -354.5 147.5t-130.5 383.5zM186 504q0 -201 105 -323t287 -122q185 0 285 120t100 333q0 219 -99.5 336t-281.5 117q-181 0 -288.5 -122t-107.5 -339zM381 1188 l211 317h110l-248 -317h-73zM602 1188l211 317h110l-247 -317h-74z" />
<glyph unicode="&#x152;" horiz-adv-x="1935" d="M109 702q0 344 187 550t515 206q141 0 266 -24h670v-91h-571v-575h530v-90h-530v-588h604v-90h-703q-174 -25 -282 -25q-326 0 -506 203t-180 524zM211 713q0 -292 152 -469.5t430 -177.5q139 0 284 30v1245q-130 27 -272 27q-273 0 -433.5 -183t-160.5 -472z" />
<glyph unicode="&#x153;" horiz-adv-x="1886" d="M90 506q0 258 137 400.5t359 142.5q156 0 268 -80t156 -217h4q115 297 407 297q190 0 292 -132.5t102 -367.5v-41h-758q0 -209 96.5 -329t267.5 -120q174 0 336 127v-98q-157 -113 -350 -113q-294 0 -395 297h-4q-116 -297 -433 -297q-226 0 -355.5 149t-129.5 382z M186 504q0 -201 105 -323t287 -122q185 0 285 120t100 333q0 219 -99.5 336t-281.5 117q-181 0 -288.5 -122t-107.5 -339zM1061 592h657q-6 177 -85 275t-218 98q-145 0 -240 -98t-114 -275z" />
<glyph unicode="&#x154;" horiz-adv-x="1137" d="M184 0v1434h398q190 0 298.5 -102.5t108.5 -270.5q0 -155 -89 -259t-249 -134v-4q85 -34 166 -207l213 -457h-112l-191 420q-59 130 -118 174.5t-148 44.5h-178v-639h-99zM283 729h247q164 0 260.5 86t96.5 236q0 137 -87 214.5t-249 77.5h-268v-614zM465 1536l234 328 h104l-248 -328h-90z" />
<glyph unicode="&#x155;" horiz-adv-x="676" d="M164 0v1024h90v-227h4q35 117 111 182t176 65q57 0 102 -18v-98q-46 33 -108 33q-121 0 -203 -125t-82 -355v-481h-90zM301 1188l234 328h104l-248 -328h-90z" />
<glyph unicode="&#x156;" horiz-adv-x="1137" d="M184 0v1434h398q190 0 298.5 -102.5t108.5 -270.5q0 -155 -89 -259t-249 -134v-4q85 -34 166 -207l213 -457h-112l-191 420q-59 130 -118 174.5t-148 44.5h-178v-639h-99zM283 729h247q164 0 260.5 86t96.5 236q0 137 -87 214.5t-249 77.5h-268v-614zM436 -379l93 261 h112l-126 -261h-79z" />
<glyph unicode="&#x157;" horiz-adv-x="676" d="M164 0v1024h90v-227h4q35 117 111 182t176 65q57 0 102 -18v-98q-46 33 -108 33q-121 0 -203 -125t-82 -355v-481h-90zM297 -379l93 261h112l-126 -261h-79z" />
<glyph unicode="&#x158;" horiz-adv-x="1137" d="M184 0v1434h398q190 0 298.5 -102.5t108.5 -270.5q0 -155 -89 -259t-249 -134v-4q85 -34 166 -207l213 -457h-112l-191 420q-59 130 -118 174.5t-148 44.5h-178v-639h-99zM283 729h247q164 0 260.5 86t96.5 236q0 137 -87 214.5t-249 77.5h-268v-614zM311 1872h86 l158 -240l160 240h82l-221 -336h-45z" />
<glyph unicode="&#x159;" horiz-adv-x="676" d="M147 1524h86l158 -240l160 240h82l-221 -336h-45zM164 0v1024h90v-227h4q35 117 111 182t176 65q57 0 102 -18v-98q-46 33 -108 33q-121 0 -203 -125t-82 -355v-481h-90z" />
<glyph unicode="&#x15a;" horiz-adv-x="1018" d="M139 51v113q154 -98 312 -98q168 0 255 69.5t87 194.5q0 110 -58.5 175.5t-253.5 178.5q-218 127 -276 212.5t-58 197.5q0 152 118 258t315 106q128 0 256 -43v-104q-126 57 -269 57q-146 0 -231.5 -74t-85.5 -188q0 -110 58.5 -175t252.5 -177q201 -114 267.5 -202.5 t66.5 -203.5q0 -165 -114.5 -269t-323.5 -104q-74 0 -170.5 23t-147.5 53zM408 1535l234 328h104l-248 -328h-90z" />
<glyph unicode="&#x15b;" horiz-adv-x="795" d="M111 45v111q52 -45 126 -71t128 -26q241 0 241 197q0 68 -53 116t-172 99q-147 64 -206.5 132.5t-59.5 166.5q0 125 95.5 202t235.5 77q132 0 226 -54v-104q-114 74 -236 74q-101 0 -163 -52.5t-62 -136.5q0 -73 39 -118.5t172 -104.5q160 -72 220 -133.5t60 -163.5 q0 -122 -91.5 -201.5t-252.5 -79.5q-148 0 -247 70zM291 1188l234 328h104l-248 -328h-90z" />
<glyph unicode="&#x15c;" horiz-adv-x="1018" d="M139 51v113q154 -98 312 -98q168 0 255 69.5t87 194.5q0 110 -58.5 175.5t-253.5 178.5q-218 127 -276 212.5t-58 197.5q0 152 118 258t315 106q128 0 256 -43v-104q-126 57 -269 57q-146 0 -231.5 -74t-85.5 -188q0 -110 58.5 -175t252.5 -177q201 -114 267.5 -202.5 t66.5 -203.5q0 -165 -114.5 -269t-323.5 -104q-74 0 -170.5 23t-147.5 53zM282 1536l221 336h45l219 -336h-86l-157 239l-160 -239h-82z" />
<glyph unicode="&#x15d;" horiz-adv-x="795" d="M111 45v111q52 -45 126 -71t128 -26q241 0 241 197q0 68 -53 116t-172 99q-147 64 -206.5 132.5t-59.5 166.5q0 125 95.5 202t235.5 77q132 0 226 -54v-104q-114 74 -236 74q-101 0 -163 -52.5t-62 -136.5q0 -73 39 -118.5t172 -104.5q160 -72 220 -133.5t60 -163.5 q0 -122 -91.5 -201.5t-252.5 -79.5q-148 0 -247 70zM177 1188l221 336h45l219 -336h-86l-157 239l-160 -239h-82z" />
<glyph unicode="&#x15e;" horiz-adv-x="1018" d="M139 51v113q154 -98 312 -98q168 0 255 69.5t87 194.5q0 110 -58.5 175.5t-253.5 178.5q-218 127 -276 212.5t-58 197.5q0 152 118 258t315 106q128 0 256 -43v-104q-126 57 -269 57q-146 0 -231.5 -74t-85.5 -188q0 -110 58.5 -175t252.5 -177q201 -114 267.5 -202.5 t66.5 -203.5q0 -165 -114.5 -269t-323.5 -104q-74 0 -170.5 23t-147.5 53zM397 -356q50 -6 86 -6q160 0 160 92q0 86 -145 86q-32 0 -64 -4v188h72v-117q225 0 225 -147q0 -170 -254 -170q-36 0 -80 4v74z" />
<glyph unicode="&#x15f;" horiz-adv-x="795" d="M111 45v111q52 -45 126 -71t128 -26q241 0 241 197q0 68 -53 116t-172 99q-147 64 -206.5 132.5t-59.5 166.5q0 125 95.5 202t235.5 77q132 0 226 -54v-104q-114 74 -236 74q-101 0 -163 -52.5t-62 -136.5q0 -73 39 -118.5t172 -104.5q160 -72 220 -133.5t60 -163.5 q0 -122 -91.5 -201.5t-252.5 -79.5q-148 0 -247 70zM277 -356q50 -6 86 -6q160 0 160 92q0 86 -145 86q-32 0 -64 -4v188h72v-117q225 0 225 -147q0 -170 -254 -170q-36 0 -80 4v74z" />
<glyph unicode="&#x160;" horiz-adv-x="1018" d="M139 51v113q154 -98 312 -98q168 0 255 69.5t87 194.5q0 110 -58.5 175.5t-253.5 178.5q-218 127 -276 212.5t-58 197.5q0 152 118 258t315 106q128 0 256 -43v-104q-126 57 -269 57q-146 0 -231.5 -74t-85.5 -188q0 -110 58.5 -175t252.5 -177q201 -114 267.5 -202.5 t66.5 -203.5q0 -165 -114.5 -269t-323.5 -104q-74 0 -170.5 23t-147.5 53zM301 1903h86l158 -240l160 240h82l-221 -336h-45z" />
<glyph unicode="&#x161;" horiz-adv-x="795" d="M111 45v111q52 -45 126 -71t128 -26q241 0 241 197q0 68 -53 116t-172 99q-147 64 -206.5 132.5t-59.5 166.5q0 125 95.5 202t235.5 77q132 0 226 -54v-104q-114 74 -236 74q-101 0 -163 -52.5t-62 -136.5q0 -73 39 -118.5t172 -104.5q160 -72 220 -133.5t60 -163.5 q0 -122 -91.5 -201.5t-252.5 -79.5q-148 0 -247 70zM180 1524h86l158 -240l160 240h82l-221 -336h-45z" />
<glyph unicode="&#x162;" horiz-adv-x="1047" d="M61 1343v91h926v-91h-414v-1343h-98v1343h-414zM447 -356q50 -6 86 -6q160 0 160 92q0 86 -145 86q-32 0 -64 -4v188h72v-117q225 0 225 -147q0 -170 -254 -170q-36 0 -80 4v74z" />
<glyph unicode="&#x163;" horiz-adv-x="608" d="M23 940v84h184v266q22 8 46 16q24 7 46 15v-297h270v-84h-270v-676q0 -106 33.5 -153.5t113.5 -47.5q57 0 123 37v-86q-72 -34 -135 -34q-227 0 -227 272v688h-184zM278 -356q50 -6 86 -6q160 0 160 92q0 86 -145 86q-32 0 -64 -4v188h72v-117q225 0 225 -147 q0 -170 -254 -170q-36 0 -80 4v74z" />
<glyph unicode="&#x164;" horiz-adv-x="1047" d="M61 1343v91h926v-91h-414v-1343h-98v1343h-414zM282 1872h86l158 -240l160 240h82l-221 -336h-45z" />
<glyph unicode="&#x165;" horiz-adv-x="664" d="M23 940v84h184v266q22 8 46 16q24 7 46 15v-297h270v-84h-270v-676q0 -106 33.5 -153.5t113.5 -47.5q57 0 123 37v-86q-72 -34 -135 -34q-227 0 -227 272v688h-184zM470 1255l93 261h112l-126 -261h-79z" />
<glyph unicode="&#x166;" horiz-adv-x="1047" d="M61 1343v91h926v-91h-414v-576h324v-91h-324v-676h-98v676h-324v91h324v576h-414z" />
<glyph unicode="&#x167;" horiz-adv-x="608" d="M23 940v84h184v266q22 8 46 16q24 7 46 15v-297h270v-84h-270v-284h240v-84h-240v-308q0 -106 33.5 -153.5t113.5 -47.5q57 0 123 37v-86q-72 -34 -135 -34q-227 0 -227 272v320h-164v84h164v284h-184z" />
<glyph unicode="&#x168;" horiz-adv-x="1327" d="M166 551v883h98v-869q0 -499 406 -499q393 0 393 485v883h98v-861q0 -598 -510 -598q-485 0 -485 576zM355 1536q0 100 48 160.5t128 60.5q72 0 160 -72q67 -59 117 -59q40 0 68 37t28 108h74q0 -103 -48.5 -163t-130.5 -60q-66 0 -151 76q-64 55 -119 55 q-102 0 -102 -143h-72z" />
<glyph unicode="&#x169;" d="M143 432v592h93v-569q0 -208 68.5 -302t215.5 -94q143 0 231.5 105t88.5 280v580h92v-1024h-92v186h-4q-107 -211 -330 -211q-363 0 -363 457zM228 1188q0 100 48 160.5t128 60.5q72 0 160 -72q67 -59 117 -59q40 0 68 37t28 108h74q0 -103 -48.5 -163t-130.5 -60 q-66 0 -151 76q-64 55 -119 55q-102 0 -102 -143h-72z" />
<glyph unicode="&#x16a;" horiz-adv-x="1327" d="M166 551v883h98v-869q0 -499 406 -499q393 0 393 485v883h98v-861q0 -598 -510 -598q-485 0 -485 576zM408 1535v84h508v-84h-508z" />
<glyph unicode="&#x16b;" d="M143 432v592h93v-569q0 -208 68.5 -302t215.5 -94q143 0 231.5 105t88.5 280v580h92v-1024h-92v186h-4q-107 -211 -330 -211q-363 0 -363 457zM280 1188v84h508v-84h-508z" />
<glyph unicode="&#x16c;" horiz-adv-x="1327" d="M166 551v883h98v-869q0 -499 406 -499q393 0 393 485v883h98v-861q0 -598 -510 -598q-485 0 -485 576zM391 1771h84q6 -75 55.5 -117t126.5 -42q68 0 120.5 43.5t61.5 115.5h88q-16 -108 -89.5 -171.5t-182.5 -63.5q-110 0 -182.5 62t-81.5 173z" />
<glyph unicode="&#x16d;" d="M143 432v592h93v-569q0 -208 68.5 -302t215.5 -94q143 0 231.5 105t88.5 280v580h92v-1024h-92v186h-4q-107 -211 -330 -211q-363 0 -363 457zM275 1423h84q6 -75 55.5 -117t126.5 -42q68 0 120.5 43.5t61.5 115.5h88q-16 -108 -89.5 -171.5t-182.5 -63.5 q-110 0 -182.5 62t-81.5 173z" />
<glyph unicode="&#x16e;" horiz-adv-x="1327" d="M166 551v883h98v-869q0 -499 406 -499q393 0 393 485v883h98v-861q0 -598 -510 -598q-485 0 -485 576zM472 1719q0 80 57 132t144 52q88 0 144.5 -50.5t56.5 -133.5q0 -80 -58 -132t-143 -52q-86 0 -143.5 50.5t-57.5 133.5zM546 1719q0 -53 36.5 -85t90.5 -32 q57 0 93 32.5t36 84.5q0 57 -37.5 87t-91.5 30q-57 0 -92 -32t-35 -85z" />
<glyph unicode="&#x16f;" d="M143 432v592h93v-569q0 -208 68.5 -302t215.5 -94q143 0 231.5 105t88.5 280v580h92v-1024h-92v186h-4q-107 -211 -330 -211q-363 0 -363 457zM337 1372q0 80 57 132t144 52q88 0 144.5 -50.5t56.5 -133.5q0 -80 -58 -132t-143 -52q-86 0 -143.5 50.5t-57.5 133.5z M411 1372q0 -53 36.5 -85t90.5 -32q57 0 93 32.5t36 84.5q0 57 -37.5 87t-91.5 30q-57 0 -92 -32t-35 -85z" />
<glyph unicode="&#x170;" horiz-adv-x="1327" d="M166 551v883h98v-869q0 -499 406 -499q393 0 393 485v883h98v-861q0 -598 -510 -598q-485 0 -485 576zM463 1536l211 317h110l-248 -317h-73zM684 1536l211 317h110l-247 -317h-74z" />
<glyph unicode="&#x171;" d="M143 432v592h93v-569q0 -208 68.5 -302t215.5 -94q143 0 231.5 105t88.5 280v580h92v-1024h-92v186h-4q-107 -211 -330 -211q-363 0 -363 457zM348 1188l211 317h110l-248 -317h-73zM569 1188l211 317h110l-247 -317h-74z" />
<glyph unicode="&#x172;" horiz-adv-x="1327" d="M166 551v883h98v-869q0 -499 406 -499q393 0 393 485v883h98v-861q0 -598 -510 -598q-485 0 -485 576zM527 -246q0 55 42.5 122t125.5 124h88q-170 -135 -170 -240q0 -88 84 -88q38 0 80 17v-70q-49 -18 -94 -18q-70 0 -113 40.5t-43 112.5z" />
<glyph unicode="&#x173;" d="M143 432v592h93v-569q0 -208 68.5 -302t215.5 -94q143 0 231.5 105t88.5 280v580h92v-1024h-92v186h-4q-107 -211 -330 -211q-363 0 -363 457zM676 -246q0 55 42.5 122t125.5 124h88q-170 -135 -170 -240q0 -88 84 -88q38 0 80 17v-70q-49 -18 -94 -18q-70 0 -113 40.5 t-43 112.5z" />
<glyph unicode="&#x174;" horiz-adv-x="1833" d="M51 1434h111l327 -1149q22 -78 31 -127h4q6 37 35 127l354 1149h50l325 -1149q23 -80 31 -127h4q5 28 16 64l336 1212h107l-420 -1434h-82l-319 1079q-24 83 -27 135h-4q-3 -44 -31 -133l-340 -1081h-82zM687 1536l221 336h45l219 -336h-86l-157 239l-160 -239h-82z" />
<glyph unicode="&#x175;" horiz-adv-x="1386" d="M37 1024h102l238 -817q9 -32 14 -86h8q2 29 19 86l260 817h63l232 -817q8 -29 14 -86h8q0 29 17 86l243 817h95l-318 -1024h-86l-223 772q-9 32 -16 86h-5q-2 -23 -20 -84l-250 -774h-86zM462 1188l221 336h45l219 -336h-86l-157 239l-160 -239h-82z" />
<glyph unicode="&#x176;" horiz-adv-x="1106" d="M61 1434h111l334 -691q18 -36 45 -106h4q14 37 49 104l350 693h107l-463 -889v-545h-98v543zM305 1535l221 336h45l219 -336h-86l-157 239l-160 -239h-82z" />
<glyph unicode="&#x177;" horiz-adv-x="928" d="M20 1024h103l309 -834q10 -27 14 -41q4 -19 9 -34h4l24 69l330 840h100l-499 -1233q-56 -138 -124 -205t-175 -67q-45 0 -80 14v92q36 -14 84 -14q123 0 194 170l95 227zM214 1188l221 336h45l219 -336h-86l-157 239l-160 -239h-82z" />
<glyph unicode="&#x178;" horiz-adv-x="1106" d="M61 1434h111l334 -691q18 -36 45 -106h4q14 37 49 104l350 693h107l-463 -889v-545h-98v543zM311 1607q0 31 22 50t48 19q29 0 52 -19.5t23 -49.5q0 -31 -21 -51.5t-52 -20.5q-28 0 -50 19.5t-22 52.5zM645 1607q0 31 21.5 50t47.5 19q29 0 52.5 -19.5t23.5 -49.5 q0 -31 -21.5 -51.5t-52.5 -20.5q-27 0 -49 19.5t-22 52.5z" />
<glyph unicode="&#x179;" horiz-adv-x="1167" d="M66 0v31l868 1312h-799v91h952v-27l-872 -1317h858v-90h-1007zM506 1537l234 328h104l-248 -328h-90z" />
<glyph unicode="&#x17a;" horiz-adv-x="950" d="M57 0v35l680 905h-631v84h787v-25l-686 -915h661v-84h-811zM391 1188l234 328h104l-248 -328h-90z" />
<glyph unicode="&#x17b;" horiz-adv-x="1167" d="M66 0v31l868 1312h-799v91h952v-27l-872 -1317h858v-90h-1007zM535 1613q0 34 23.5 53.5t52.5 19.5q31 0 55.5 -19.5t24.5 -53.5q0 -32 -23 -55t-55 -23q-31 0 -54.5 22t-23.5 56z" />
<glyph unicode="&#x17c;" horiz-adv-x="950" d="M57 0v35l680 905h-631v84h787v-25l-686 -915h661v-84h-811zM421 1266q0 34 23.5 53.5t52.5 19.5q31 0 55.5 -19.5t24.5 -53.5q0 -32 -23 -55t-55 -23q-31 0 -54.5 22t-23.5 56z" />
<glyph unicode="&#x17d;" horiz-adv-x="1167" d="M66 0v31l868 1312h-799v91h952v-27l-872 -1317h858v-90h-1007zM383 1871h86l158 -240l160 240h82l-221 -336h-45z" />
<glyph unicode="&#x17e;" horiz-adv-x="950" d="M57 0v35l680 905h-631v84h787v-25l-686 -915h661v-84h-811zM265 1524h86l158 -240l160 240h82l-221 -336h-45z" />
<glyph unicode="&#x17f;" horiz-adv-x="510" d="M164 0v1202q0 162 81.5 246t203.5 84q65 0 108 -19v-94q-37 29 -112 29q-189 0 -189 -254v-1194h-92z" />
<glyph unicode="&#x180;" horiz-adv-x="1169" d="M51 1231v84h135v201h92v-201h390v-84h-390v-418h4q55 113 157.5 174.5t225.5 61.5q195 0 304.5 -134.5t109.5 -365.5q0 -257 -127 -415.5t-330 -158.5q-230 0 -340 207h-4v-182h-92v1231h-135zM278 434q0 -154 97 -264.5t255 -110.5q157 0 255 134.5t98 353.5 q0 192 -90 305t-240 113q-179 0 -277 -120t-98 -282v-129z" />
<glyph unicode="&#x181;" horiz-adv-x="1210" d="M-31 1188q0 49 16.5 93.5t50.5 78.5t86 54t124 20h411q84 0 152 -24t116.5 -67.5t74.5 -104.5t26 -136q0 -63 -17 -117.5t-49.5 -99t-79 -77.5t-106.5 -52v-4q73 -7 132.5 -34.5t101.5 -72t64.5 -104t22.5 -131.5q0 -90 -30.5 -165t-86.5 -129.5t-135.5 -85t-177.5 -30.5 h-385v1343h-32q-81 0 -130.5 -42.5t-49.5 -127.5q0 -55 20 -107h-97q-22 54 -22 122zM379 90h266q170 0 259 80.5t89 230.5q0 297 -403 297h-211v-608zM379 788h200q77 0 140.5 20.5t108.5 59t70 93.5t25 124q0 258 -305 258h-239v-555z" />
<glyph unicode="&#x182;" horiz-adv-x="1102" d="M184 0v1434h721v-91h-622v-546h325q85 0 158.5 -21.5t127.5 -67.5t85 -118.5t31 -175.5q0 -85 -28 -160t-82.5 -131.5t-135 -89.5t-184.5 -33h-396zM283 90h276q92 0 158 24t108 66t62 100t20 126q0 81 -23 138t-68 93t-111 53t-152 17h-270v-617z" />
<glyph unicode="&#x183;" horiz-adv-x="1147" d="M164 0v1516h792v-85h-700v-618h4q56 113 157 174q104 62 226 62q97 0 174 -35t130 -100t81.5 -157.5t28.5 -207.5q0 -127 -33.5 -232.5t-93.5 -181.5t-144 -118t-186 -42q-231 0 -340 207h-4v-182h-92zM256 434q0 -76 25.5 -144t71.5 -119.5t111 -81.5t144 -30t144 35.5 t111.5 100t72 154.5t25.5 198q0 96 -23.5 173t-66.5 131.5t-104 84t-136 29.5q-90 0 -160 -33t-117.5 -88.5t-72.5 -128.5t-25 -152v-129z" />
<glyph unicode="&#x184;" horiz-adv-x="1102" d="M47 1308v22l214 128h22v-661h325q85 0 158.5 -21.5t127.5 -67.5t85 -118.5t31 -175.5q0 -85 -28 -160t-82.5 -131.5t-135 -89.5t-184.5 -33h-396v1193zM283 90h276q92 0 158 24t108 66t62 100t20 126q0 81 -23 138t-68 93t-111 53t-152 17h-270v-617z" />
<glyph unicode="&#x185;" horiz-adv-x="1167" d="M47 1366v22l207 128h22v-703h4q55 113 157.5 174.5t225.5 61.5q195 0 304.5 -134.5t109.5 -365.5q0 -257 -127 -415.5t-330 -158.5q-230 0 -340 207h-4v-182h-92v1251zM276 434q0 -154 97 -264.5t255 -110.5q157 0 255 134.5t98 353.5q0 192 -90 305t-240 113 q-179 0 -277 -120t-98 -282v-129z" />
<glyph unicode="&#x186;" horiz-adv-x="1272" d="M135 41v102q159 -77 355 -77q123 0 228 44.5t181 129t119 206.5t43 278q0 150 -43.5 269.5t-122 202.5t-188.5 127.5t-243 44.5q-84 0 -168.5 -17t-160.5 -51v105q76 26 161 39.5t168 13.5q153 0 281 -49.5t221 -144t145 -231.5t52 -312q0 -170 -50.5 -307.5t-139.5 -235 t-210.5 -150.5t-264.5 -53q-95 0 -185 15t-178 51z" />
<glyph unicode="&#x187;" horiz-adv-x="1272" d="M109 688q0 349 201 559q201 211 511 211q83 0 138.5 -9.5t88.5 -19.5q0 118 48.5 178.5t129.5 60.5q28 0 48.5 -4t37.5 -12v-89q-17 6 -35.5 10t-35.5 4q-49 0 -76 -39t-27 -112q0 -18 1 -33.5t3 -30.5t4.5 -31t6.5 -35l-5 -3q-76 34 -160.5 54.5t-168.5 20.5 q-270 0 -439 -183q-169 -182 -169 -487q0 -293 161 -463q162 -169 410 -169q196 0 355 77v-96q-174 -72 -363 -72q-294 0 -480 197q-185 199 -185 516z" />
<glyph unicode="&#x188;" horiz-adv-x="948" d="M90 494q0 121 38.5 223t106.5 176t162.5 115t206.5 41q33 0 62.5 -3t61.5 -11q0 118 48.5 178.5t129.5 60.5q28 0 48.5 -4t37.5 -12v-82q-17 6 -35.5 10t-35.5 4q-49 0 -76 -42.5t-27 -115.5q0 -18 1 -33.5t3 -30.5t4.5 -31t6.5 -35l-5 -3q-55 34 -113.5 50t-124.5 16 q-90 0 -164 -34.5t-127.5 -96t-83 -147t-29.5 -187.5q0 -99 27 -180.5t76 -139.5t117.5 -89.5t152.5 -31.5q155 0 268 82v-96q-113 -70 -272 -70q-105 0 -190.5 38t-146.5 106.5t-94.5 164t-33.5 210.5z" />
<glyph unicode="&#x189;" horiz-adv-x="1380" d="M35 668v88h149v678h359q358 0 543.5 -177.5t185.5 -519.5q0 -332 -201.5 -534.5t-548.5 -202.5h-338v668h-149zM283 90h225q318 0 489.5 165t171.5 478q0 610 -641 610h-245v-587h403v-88h-403v-578z" />
<glyph unicode="&#x18a;" horiz-adv-x="1476" d="M-31 1188q0 49 16.5 93.5t50.5 78.5t86 54t124 20h393q178 0 314.5 -45t228.5 -133t139 -218t47 -301q0 -162 -51 -297.5t-148 -233t-236 -152t-315 -54.5h-338v1343h-32q-81 0 -130.5 -42.5t-49.5 -127.5q0 -55 20 -107h-97q-22 54 -22 122zM379 90h225q160 0 283 42 t207 124t127.5 201.5t43.5 275.5q0 610 -641 610h-245v-1253z" />
<glyph unicode="&#x18b;" horiz-adv-x="1102" d="M92 414q0 103 35 175.5t95 118.5t139 67.5t166 21.5h292v546h-622v91h721v-1434h-396q-104 0 -184.5 33t-135 89.5t-82.5 131.5t-28 160zM195 406q0 -65 20 -122.5t62 -100.5t108 -68t158 -25h276v617h-270q-86 0 -152 -17t-111 -53t-68 -93t-23 -138z" />
<glyph unicode="&#x18c;" horiz-adv-x="1147" d="M90 494q0 248 130.5 401.5t338.5 153.5q230 0 328 -189h4v571h-700v85h792v-1516h-92v186h-4q-50 -97 -148 -154t-221 -57q-189 0 -308.5 138t-119.5 381zM186 502q0 -212 94.5 -327.5t243.5 -115.5q175 0 271 108.5t96 264.5v191q0 143 -90.5 242.5t-243.5 99.5 q-161 0 -266 -123.5t-105 -339.5z" />
<glyph unicode="&#x18d;" horiz-adv-x="1184" d="M90 569q0 106 36 194t102 151.5t160 98.5t210 35q111 0 202 -36t156.5 -98.5t101.5 -147t36 -181.5q0 -110 -38.5 -195.5t-102 -150t-145 -108.5t-166.5 -72q39 -24 83.5 -53t82.5 -65t63.5 -80.5t25.5 -98.5q0 -53 -23 -97.5t-70 -77t-117.5 -50.5t-165.5 -18 q-96 0 -175.5 20.5t-144.5 49.5v106q34 -21 73.5 -38t80.5 -29.5t83 -19.5t81 -7q75 0 128.5 11t87 31.5t49 48.5t15.5 62q0 44 -21.5 80t-64.5 72t-108 75t-152 89q-82 47 -149 102t-114.5 117t-73.5 132t-26 148zM187 579q0 -87 32 -156t84 -125t118 -101t133 -83 q41 13 90.5 31.5t98.5 44.5t95 61t81.5 82t57 107t21.5 137q0 93 -33.5 165.5t-89.5 121.5t-130.5 74.5t-156.5 25.5t-155 -25.5t-127.5 -75t-86.5 -121t-32 -163.5z" />
<glyph unicode="&#x18e;" horiz-adv-x="1024" d="M137 0v90h604v588h-530v90h530v575h-571v91h670v-1434h-703z" />
<glyph unicode="&#x18f;" horiz-adv-x="1494" d="M89 762h1193q-18 279 -171.5 441t-390.5 162q-234 0 -403 -97v115q158 75 384 75q319 0 501.5 -197t182.5 -544q0 -322 -182 -531.5t-483 -209.5q-303 0 -467 199.5t-164 586.5zM194 672q5 -276 145 -441t380 -165q241 0 390.5 164.5t172.5 441.5h-1088z" />
<glyph unicode="&#x190;" horiz-adv-x="1104" d="M116 370q0 71 23 135.5t68 115t111 84.5t152 45v4q-143 37 -219 131t-76 233q0 72 27 134.5t79 108t128 71.5t175 26q112 0 196 -26.5t150 -63.5v-98q-69 48 -155 76t-183 28q-81 0 -141 -21t-100 -57.5t-60 -86.5t-20 -107q0 -74 29 -132.5t83 -99.5t130.5 -62.5 t171.5 -21.5h98v-84h-129q-104 0 -186 -19.5t-139 -59t-87 -100.5t-30 -144q0 -71 23.5 -130t72 -101t123.5 -65.5t178 -23.5q114 0 210 32.5t165 79.5v-99q-66 -42 -160.5 -69.5t-225.5 -27.5q-121 0 -211.5 31t-150.5 85t-90 126t-30 153z" />
<glyph unicode="&#x191;" horiz-adv-x="952" d="M-96 -250q48 -20 89 -20q103 0 147 79t44 251v1374h670v-91h-571v-585h530v-90h-530v-606q0 -423 -285 -423q-49 0 -94 15v96z" />
<glyph unicode="&#x192;" horiz-adv-x="1055" d="M113 -184q41 -13 67 -13q176 0 219 324l97 711h-105v82h117l33 231q20 141 96.5 212t191.5 71q45 0 82 -11v-84q-32 13 -69 13q-178 0 -207 -201l-33 -231h172v-82h-184l-98 -705q-31 -221 -107.5 -316.5t-200.5 -95.5q-34 0 -71 13v82z" />
<glyph unicode="&#x193;" horiz-adv-x="1368" d="M109 696q0 326 195 544t521 218q69 0 137 -10t134 -30v11q0 118 48.5 178.5t129.5 60.5q28 0 48.5 -4t37.5 -12v-89q-17 6 -35.5 10t-35.5 4q-49 0 -76 -39t-27 -112t15 -151l-5 -3q-101 48 -196 72t-189 24q-271 0 -436 -185q-164 -185 -164 -472q0 -302 154 -474 q154 -171 417 -171q194 0 340 84v473h-338v90h437v-613q-223 -125 -457 -125q-293 0 -474 199t-181 522z" />
<glyph unicode="&#x194;" horiz-adv-x="1285" d="M25 1434h111l454 -1124q13 -36 22.5 -70t14.5 -66h4q5 26 15 60t26 78l482 1122h106l-570 -1317l34 -69q56 -113 81 -187t25 -123q0 -48 -13.5 -88.5t-39 -70t-63 -45.5t-86.5 -16q-96 0 -148 57t-52 157q0 35 8.5 73t22 76.5t30 76t33.5 72.5l42 89zM525 -272 q0 -58 26.5 -92t79.5 -34q26 0 45.5 10t32 27t19 40t6.5 49q0 36 -9 75.5t-23.5 80.5t-33.5 81t-40 77q-21 -38 -39.5 -79t-32.5 -82t-22.5 -80t-8.5 -73z" />
<glyph unicode="&#x195;" horiz-adv-x="1755" d="M164 0v1516h92v-676h4q116 209 337 209q159 0 242 -106.5t83 -307.5v-178q0 -103 21.5 -178t62 -124t98 -72.5t128.5 -23.5q63 0 119.5 25.5t99.5 76.5t68 128.5t25 181.5q0 144 -35.5 286.5t-95.5 266.5h98q28 -56 51 -120.5t39.5 -134.5t25.5 -143t9 -147 q0 -122 -30.5 -216t-84.5 -158t-128 -97t-161 -33q-103 0 -178.5 34.5t-125 96t-74 146.5t-24.5 186v176q0 182 -62.5 266.5t-195.5 84.5q-125 0 -221 -103q-95 -102 -95 -295v-567h-92z" />
<glyph unicode="&#x196;" horiz-adv-x="518" d="M164 244v1190h92v-1192q0 -56 14 -89.5t34 -51.5t42 -23.5t39 -5.5q26 0 42 2.5t30 7.5v-80q-22 -8 -43.5 -11t-38.5 -3q-56 0 -96 18.5t-65.5 52t-37.5 80.5t-12 105z" />
<glyph unicode="&#x197;" horiz-adv-x="465" d="M45 688v84h142v662h92v-662h141v-84h-141v-688h-92v688h-142z" />
<glyph unicode="&#x198;" horiz-adv-x="1079" d="M184 0v1434h99v-676h4q6 11 13 19.5t13 15.5l308 392q65 83 111 134t82 79t67.5 37.5t67.5 9.5q29 0 48 -4t41 -12v-94q-21 9 -40.5 13.5t-48.5 4.5q-21 0 -41 -7t-44.5 -27t-56.5 -55.5t-77 -92.5l-341 -425l672 -746h-139l-611 686q-17 19 -24 33h-4v-719h-99z" />
<glyph unicode="&#x199;" horiz-adv-x="909" d="M164 0v1115q0 423 285 423q49 0 94 -15v-88q-45 19 -89 19q-103 0 -150.5 -82t-47.5 -255v-578h4l465 485h119l-486 -496l525 -528h-133l-490 506h-4v-506h-92z" />
<glyph unicode="&#x19a;" horiz-adv-x="465" d="M45 698v84h142v709h92v-709h141v-84h-141v-698h-92v698h-142z" />
<glyph unicode="&#x19b;" horiz-adv-x="1020" d="M37 0l459 1028l-34 98l-275 -134l-39 80l285 139l-9 28q-12 36 -29 71.5t-42 64t-59 46t-81 17.5q-22 0 -45.5 -4t-46.5 -9v88q25 4 49 6.5t47 2.5q59 0 104 -17t80.5 -51t63 -84.5t51.5 -117.5l276 134l39 -80l-284 -139l428 -1167h-98l-336 922l-404 -922h-100z" />
<glyph unicode="&#x19c;" horiz-adv-x="1737" d="M177 391v1043h99v-1020q0 -90 14 -155.5t43.5 -108.5t76 -64t111.5 -21q60 0 113.5 27t93.5 74.5t63.5 113.5t23.5 144v1010h98v-1027q0 -342 257 -342q62 0 114 26.5t90 75t59 116.5t21 151v1000h99v-1434h-99v170h-4q-54 -98 -128.5 -146.5t-177.5 -48.5q-56 0 -104 17 t-87 48t-66.5 74t-41.5 95q-24 -56 -59.5 -99.5t-79 -73.5t-92.5 -45.5t-101 -15.5q-336 0 -336 416z" />
<glyph unicode="&#x19d;" horiz-adv-x="1452" d="M-96 -250q48 -20 89 -20q103 0 147 79t44 251v1374h76l848 -1149q28 -38 61 -92h5q-5 70 -5 120v1121h99v-1434h-70l-854 1159q-26 35 -46 70l-13 20h-4q2 -26 2 -63v-1124q0 -423 -285 -423q-49 0 -94 15v96z" />
<glyph unicode="&#x19e;" horiz-adv-x="1116" d="M137 1024h92q3 -15 7 -38t7 -50t5 -55t2 -52h4q34 73 79 116.5t92.5 66.5t94.5 30t86 7q85 0 150 -28.5t108.5 -82t65.5 -131t22 -174.5v-1057h-92v1008q0 90 -13.5 160t-45.5 118t-84.5 73.5t-130.5 25.5q-81 0 -143 -33t-103.5 -84.5t-62.5 -116t-21 -127.5v-600h-92 v713q0 31 -1.5 71t-5 82t-8.5 83t-12 75z" />
<glyph unicode="&#x19f;" horiz-adv-x="1559" d="M109 702q0 163 45 301.5t132.5 239.5t217 158t297.5 57q149 0 269 -53.5t204.5 -148.5t130 -227.5t45.5 -289.5q0 -191 -52 -334t-142.5 -238.5t-214 -143.5t-267.5 -48q-162 0 -286 57t-208.5 155.5t-127.5 231t-43 283.5zM212 672q6 -140 48 -252.5t115 -191 t174 -120.5t223 -42q121 0 223.5 38.5t178 114.5t120.5 189.5t52 263.5h-1134zM212 762h1135q-5 150 -48.5 263.5t-118 189.5t-175.5 114.5t-221 38.5q-118 0 -219.5 -42.5t-177.5 -121t-122 -191t-53 -251.5z" />
<glyph unicode="&#x1a0;" horiz-adv-x="1559" d="M109 702q0 171 48 310.5t138 238.5t218 153t288 54q219 0 375 -114q22 -3 47.5 -4.5t51.5 -1.5q52 0 89 9.5t60 26.5t33.5 41t10.5 53q0 71 -21 130h104q9 -27 13.5 -60t4.5 -69q0 -112 -65.5 -164.5t-187.5 -52.5h-40q174 -197 174 -513q0 -177 -48 -318.5 t-136.5 -240.5t-213.5 -152t-278 -53q-152 0 -275 53.5t-209.5 150t-133.5 230t-47 293.5zM211 713q0 -147 40 -266.5t113 -204t176.5 -130.5t231.5 -46q133 0 239.5 44.5t181.5 129.5t115 206.5t40 276.5q0 152 -39.5 271.5t-113 202.5t-178 127t-233.5 44 q-125 0 -230 -47.5t-181 -134t-119 -207t-43 -266.5z" />
<glyph unicode="&#x1a1;" horiz-adv-x="1149" d="M90 506q0 127 35.5 228t101 171t157 107t202.5 37q96 0 177 -29q21 -2 47 -3t49 -1q52 0 89 9.5t60 26.5t33.5 41t10.5 53q0 71 -21 130h97q9 -27 13.5 -60t4.5 -69q0 -54 -16.5 -93t-48 -65t-76.5 -39.5t-101 -15.5q77 -77 116 -179t39 -245q0 -118 -33 -216t-95.5 -169 t-152.5 -110.5t-203 -39.5t-203 39t-152.5 109.5t-96 168t-33.5 214.5zM186 504q0 -100 27 -182t78 -140.5t123.5 -90.5t163.5 -32q93 0 164.5 31t120.5 89.5t74.5 142.5t25.5 190q0 220 -99 336.5t-282 116.5q-90 0 -163 -31.5t-125 -90.5t-80 -144.5t-28 -194.5z" />
<glyph unicode="&#x1a2;" horiz-adv-x="1926" d="M109 700q0 165 47 304t133 240t207.5 157.5t271.5 56.5q93 0 175.5 -10.5t156.5 -23.5t141 -23.5t129 -10.5q104 0 193 17t179 51v-1458h-98v1336q-65 -16 -132 -24.5t-141 -8.5q-52 0 -103.5 4t-89.5 11v-1233q-59 -32 -113.5 -53t-108 -33.5t-106 -17.5t-107.5 -5 q-144 0 -261.5 53t-200 148.5t-127.5 228.5t-45 294zM211 714q0 -146 39 -265t110.5 -204.5t172 -132t223.5 -46.5q172 0 324 67v1198q-109 17 -188 26t-130 9q-122 0 -223.5 -47t-174 -133t-113 -206t-40.5 -266z" />
<glyph unicode="&#x1a3;" horiz-adv-x="1495" d="M90 502q0 125 35.5 226t101 172t159.5 109.5t211 38.5q51 0 112.5 -10t136.5 -29q35 -9 62 -14.5t52 -8.5t51 -4t59 -1t61.5 4t58.5 12.5t63.5 21t77.5 29.5v-1048h-92v922q-51 -12 -93.5 -18t-88.5 -6q-31 0 -72 2t-72 6v-861q-44 -17 -80 -30t-70.5 -21.5t-71.5 -13 t-83 -4.5q-118 0 -214 37t-163.5 105.5t-104 165.5t-36.5 218zM183 506q0 -105 31 -187.5t87.5 -139.5t134.5 -87t172 -30q125 0 213 43v825q-73 17 -132.5 25.5t-100.5 8.5q-89 0 -163 -31t-128 -90t-84 -144t-30 -193z" />
<glyph unicode="&#x1a4;" horiz-adv-x="1210" d="M-31 1188q0 49 16.5 93.5t50.5 78.5t86 54t124 20h380q223 0 339 -102t116 -300q0 -99 -33 -182.5t-96.5 -144.5t-156 -95.5t-210.5 -34.5h-206v-575h-99v1343h-32q-81 0 -130.5 -42.5t-49.5 -127.5q0 -55 20 -107h-97q-22 54 -22 122zM379 666h204q195 0 295.5 92 t100.5 262q0 323 -371 323h-229v-677z" />
<glyph unicode="&#x1a5;" horiz-adv-x="1147" d="M164 -471v1586q0 423 285 423q49 0 94 -15v-88q-45 19 -89 19q-103 0 -150.5 -82t-47.5 -255v-304h4q56 113 157 174q104 62 226 62q194 0 304 -135q110 -134 110 -365q0 -257 -126 -416q-125 -158 -331 -158q-231 0 -340 207h-4v-653h-92zM256 434q0 -155 97 -265 q98 -110 255 -110t255 134q98 136 98 354q0 192 -90 305t-240 113q-180 0 -277 -120q-98 -121 -98 -282v-129z" />
<glyph unicode="&#x1a6;" horiz-adv-x="1137" d="M184 0v1434h99v-150h299q191 0 298 -103q109 -102 109 -270q0 -155 -89 -259t-249 -134v-4q85 -34 166 -207l213 -457h-112l-191 420q-58 129 -118 174q-59 45 -148 45h-178v-489h-99zM283 579h247q163 0 260 86q97 85 97 236q0 138 -86.5 215t-249.5 77h-268v-614z" />
<glyph unicode="&#x1a7;" horiz-adv-x="1018" d="M121 322q0 88 25.5 151t72 111.5t111.5 88.5t143 81q92 49 152 88t95.5 79.5t49.5 87.5t14 113q0 56 -20.5 101.5t-59 77.5t-93 49.5t-122.5 17.5q-72 0 -146 -14t-137 -43v104q64 22 131.5 32.5t153.5 10.5q87 0 160 -24t125.5 -68.5t81.5 -106.5t29 -137 q0 -80 -21.5 -140t-63.5 -109.5t-104 -92.5t-144 -87q-75 -41 -136 -75.5t-104.5 -74.5t-67 -90.5t-23.5 -122.5q0 -60 22.5 -108.5t66 -83t108 -53.5t148.5 -19q79 0 166 24t161 67v-106q-24 -14 -60 -28t-79.5 -24.5t-92 -17t-98.5 -6.5q-110 0 -193 26.5t-139 73t-84 110 t-28 137.5z" />
<glyph unicode="&#x1a8;" horiz-adv-x="795" d="M102 235q0 60 20.5 106.5t59 83.5t92.5 68t121 60q63 28 104 53t64.5 51t33 54.5t9.5 64.5q0 42 -17 77t-46 59.5t-69 38.5t-86 14q-61 0 -123.5 -18.5t-119.5 -55.5v104q48 27 108.5 40.5t141.5 13.5q67 0 123.5 -19t97 -54.5t63.5 -85.5t23 -112q0 -51 -14.5 -93 t-45 -78t-79 -67.5t-116.5 -61.5q-70 -31 -117.5 -58t-77 -55t-42 -60t-12.5 -73q0 -83 58 -128t167 -45q32 0 71 7t77.5 19.5t73.5 30.5t61 40v-105q-25 -18 -57.5 -32t-69 -23.5t-75.5 -15t-76 -5.5q-162 0 -244 68.5t-82 191.5z" />
<glyph unicode="&#x1a9;" horiz-adv-x="1057" d="M18 0v35l543 706l-463 645v48h856v-91h-704l430 -600l-498 -653h817v-90h-981z" />
<glyph unicode="&#x1aa;" horiz-adv-x="606" d="M-90 1290q0 52 15.5 97t45 78.5t72 53t96.5 19.5q66 0 110.5 -25t70.5 -70t37 -106.5t11 -134.5v-1400q0 -106 33.5 -153.5t113.5 -47.5q58 0 123 37v-86q-71 -34 -135 -34q-227 0 -227 272v1292q-25 -16 -60 -23t-67 -7q-52 0 -96 18t-75.5 49.5t-49.5 75t-18 95.5z M0 1291q0 -40 12 -69t32 -48.5t47 -29t57 -9.5q35 0 65.5 6.5t62.5 27.5v17q0 135 -31.5 202t-107.5 67q-26 0 -50.5 -9t-44 -28.5t-31 -50.5t-11.5 -76z" />
<glyph unicode="&#x1ab;" horiz-adv-x="608" d="M23 940v84h184v266q11 4 22.5 8t23.5 8t23.5 7.5t22.5 7.5v-297h270v-84h-270v-676q0 -106 33.5 -153.5t113.5 -47.5q35 0 74 14.5t68 32.5v-138q0 -71 -14 -132t-47 -106t-86.5 -70.5t-132.5 -25.5q-24 0 -50 3.5t-49 11.5v88q23 -10 52 -14.5t50 -4.5q41 0 75 8 t58.5 34.5t38 75.5t13.5 131v17q-17 -4 -32 -6t-30 -2q-227 0 -227 272v688h-184z" />
<glyph unicode="&#x1ac;" horiz-adv-x="1047" d="M-31 1188q0 49 16.5 93.5t50.5 78.5t86 54t124 20h741v-91h-414v-1343h-98v1343h-227q-81 0 -130.5 -42.5t-49.5 -127.5q0 -55 20 -107h-97q-22 54 -22 122z" />
<glyph unicode="&#x1ad;" horiz-adv-x="608" d="M23 940v84h184v154q0 82 18 148.5t53.5 113.5t89 72.5t124.5 25.5q49 0 94 -15v-88q-45 19 -89 19q-51 0 -88.5 -19.5t-62 -56t-36 -89t-11.5 -117.5v-148h283v-84h-283v-676q0 -106 33.5 -153.5t113.5 -47.5q58 0 123 37v-86q-71 -34 -135 -34q-227 0 -227 272v688h-184 z" />
<glyph unicode="&#x1ae;" horiz-adv-x="1047" d="M61 1343v91h926v-91h-414v-1303q0 -86 10.5 -145t34 -96t60 -53t87.5 -16q21 0 43.5 3.5t45.5 13.5v-93q-45 -15 -94 -15q-71 0 -124.5 21.5t-89 68.5t-53.5 121t-18 180v1313h-414z" />
<glyph unicode="&#x1af;" horiz-adv-x="1362" d="M166 551v883h98v-869q0 -499 406 -499q393 0 393 485v883h68q52 0 89 9.5t60 26.5t33.5 41t10.5 53q0 71 -21 130h104q9 -27 13.5 -60t4.5 -69q0 -112 -65.5 -164.5t-187.5 -52.5h-11v-775q0 -598 -510 -598q-485 0 -485 576z" />
<glyph unicode="&#x1b0;" horiz-adv-x="1121" d="M143 432v592h93v-569q0 -104 17 -179t51.5 -123t88 -71t127.5 -23q142 0 231 105q89 106 89 280v580h19q105 0 149 35t44 94q0 71 -21 130h97q9 -27 13.5 -60t4.5 -69q0 -51 -15.5 -89t-44 -64t-67.5 -40.5t-87 -18.5v-942h-92v186h-4q-106 -211 -330 -211 q-363 0 -363 457z" />
<glyph unicode="&#x1b1;" horiz-adv-x="1546" d="M110 650q0 206 96 389q95 184 258 305h-354v90h477v-90q-375 -278 -375 -684q0 -135 39.5 -245t112.5 -187.5t176 -119.5t229 -42q132 0 239 42t182.5 119.5t117 186t41.5 242.5q0 410 -377 688v90h477v-90h-352q354 -269 354 -690q0 -153 -48.5 -278.5t-137 -214 t-211.5 -137t-272 -48.5q-153 0 -277.5 47t-212 134t-135 212t-47.5 281z" />
<glyph unicode="&#x1b2;" horiz-adv-x="1396" d="M177 551v883h98v-869q0 -499 426 -499q115 0 204 44t149 136.5t91 235t31 339.5q0 151 -23.5 253t-61.5 164.5t-85.5 89t-95.5 26.5q-37 0 -64 -5t-60 -15v88q17 6 31.5 10t29 6.5t30.5 4t36 1.5q63 0 127 -30t116 -101.5t84.5 -190.5t32.5 -296q0 -217 -39 -377 t-112 -265.5t-178.5 -157t-238.5 -51.5q-528 0 -528 576z" />
<glyph unicode="&#x1b3;" horiz-adv-x="1157" d="M61 1434h111l334 -691q19 -38 45 -106h4q2 5 14.5 34.5t33.5 71.5l256 505q34 67 65.5 108t60.5 62.5t55 28.5t50 7q28 0 48.5 -4t37.5 -12v-89q-17 6 -39.5 10t-39.5 4q-15 0 -31 -6t-35 -23.5t-42 -50.5t-51 -87l-340 -651v-545h-98v543z" />
<glyph unicode="&#x1b4;" horiz-adv-x="1007" d="M20 1024h103l292 -790q13 -35 21 -67t12 -47h4l23 78l215 569q25 66 49 116.5t52 84.5t62 51.5t80 17.5q18 0 36.5 -2.5t37.5 -6.5v-88q-17 5 -34.5 9t-33.5 4q-27 0 -47.5 -12.5t-38.5 -37t-35 -62t-36 -87.5l-364 -960q-28 -69 -58.5 -121t-67.5 -86t-80.5 -51 t-96.5 -17q-44 0 -80 14v92q37 -14 84 -14q61 0 113 44t92 143l84 210z" />
<glyph unicode="&#x1b5;" horiz-adv-x="1168" d="M66 0v31l432 653h-223v88h281l378 571h-799v91h952v-27l-421 -635h260v-88h-318l-393 -594h858v-90h-1007z" />
<glyph unicode="&#x1b6;" horiz-adv-x="950" d="M57 0v35l333 443h-164v84h227l284 378h-631v84h787v-25l-328 -437h166v-84h-229l-295 -394h661v-84h-811z" />
<glyph unicode="&#x1b7;" horiz-adv-x="1228" d="M33 -314q42 -19 87.5 -33.5t98 -24t112.5 -14.5t132 -5q131 0 235 35.5t177 99.5t111.5 152.5t38.5 194.5q0 112 -46.5 202t-133.5 153t-211 97t-280 34h-31v60l558 706h-799v91h952v-32l-588 -746q154 -9 279.5 -50.5t214 -113t136.5 -170.5t48 -223q0 -125 -45.5 -231 t-131 -184t-208.5 -122t-278 -44q-132 0 -234 15t-194 51v102z" />
<glyph unicode="&#x1b8;" horiz-adv-x="1228" d="M106 99q0 124 48 223t136.5 170.5t213.5 113t280 50.5l-588 746v32h952v-91h-799l558 -706v-60h-31q-156 0 -280 -34t-211 -97t-133.5 -153t-46.5 -202q0 -106 38.5 -194.5t111.5 -152.5t177 -99.5t235 -35.5q72 0 132 5t112.5 14.5t98 24t87.5 33.5v-102 q-92 -36 -194 -51t-234 -15q-155 0 -278 44t-208.5 122t-131 184t-45.5 231z" />
<glyph unicode="&#x1b9;" horiz-adv-x="936" d="M35 -50q0 107 38.5 190.5t108 142.5t166.5 92.5t213 40.5l-451 583v25h787v-84h-631l447 -585v-24h-121q-102 0 -187 -26t-146 -74.5t-95 -119t-34 -159.5q0 -81 29.5 -145.5t84.5 -109t134.5 -68.5t180.5 -24q64 0 117 5t99 15.5t85.5 25.5t75.5 36v-96 q-70 -35 -158.5 -52.5t-213.5 -17.5q-126 0 -224.5 29t-166 84t-103 135t-35.5 181z" />
<glyph unicode="&#x1ba;" horiz-adv-x="838" d="M36 -219q0 69 31.5 117.5t84.5 83.5t122 60.5t143 48.5q89 28 142.5 55.5t82 56.5t37.5 60.5t9 67.5q0 37 -13 70t-43.5 57.5t-82 39t-128.5 14.5l-120 -1v30l311 399h-570v84h718v-25l-311 -404q69 0 130 -16.5t106 -49t71 -80t26 -109.5q0 -54 -17.5 -101t-56 -87.5 t-100 -73.5t-148.5 -60q-94 -28 -157 -53t-101 -52t-54 -59t-16 -73q0 -39 17.5 -71.5t50.5 -55.5t81 -36t108 -13q36 0 76.5 5.5t81 16t78 26.5t67.5 36v-98q-55 -33 -132 -51.5t-178 -18.5q-76 0 -139.5 17.5t-109.5 51t-71.5 82t-25.5 109.5z" />
<glyph unicode="&#x1bb;" horiz-adv-x="1067" d="M82 0v98l391 416q16 17 31 33t29 32h-305v91h386q47 54 80 97.5t53 75.5q66 106 66 236q0 141 -77.5 218t-221.5 77q-189 0 -358 -149v108q164 125 370 125q92 0 163.5 -26t120 -74t74 -115t25.5 -149q0 -147 -71 -268q-37 -63 -115 -156h200v-91h-278q-25 -28 -52.5 -58 t-57.5 -62l-351 -371v-4h777v-84h-879z" />
<glyph unicode="&#x1bc;" horiz-adv-x="1084" d="M110 1350v84h787v-84h-515l-68 -510q29 2 51.5 3.5t39.5 2.5t31 1.5t26 0.5q122 0 215 -28.5t155.5 -83t94 -133t31.5 -177.5q0 -100 -34 -183t-99.5 -142.5t-161 -92.5t-219.5 -33q-168 0 -286 54v106q149 -76 297 -76q96 0 171.5 25.5t128 72t80 112t27.5 145.5 q0 350 -425 350q-96 0 -225 -12l77 598h-179z" />
<glyph unicode="&#x1bd;" horiz-adv-x="778" d="M91 24v101q51 -28 111.5 -47t135.5 -19q58 0 104.5 17t79.5 47.5t50.5 73.5t17.5 95q0 51 -16.5 92t-48 70t-76.5 44.5t-102 15.5q-17 0 -39 -1t-47 -3t-51 -4.5t-50 -5.5l69 440h-123v84h553v-84h-352l-52 -351q27 5 47.5 7t49.5 2q80 0 142.5 -22t105 -62t65 -95.5 t22.5 -122.5q0 -71 -26 -130t-72.5 -101t-109.5 -65.5t-138 -23.5q-45 0 -80 3t-64.5 9t-55 15t-50.5 21z" />
<glyph unicode="&#x1be;" horiz-adv-x="807" d="M27 940v84h184v266q23 8 46.5 15.5t45.5 15.5v-297h270v-84h-270v-153q0 -36 7 -66t27.5 -57.5t59 -54t101.5 -56.5q60 -29 107.5 -57t81 -62t51.5 -77t18 -101q0 -60 -24.5 -111.5t-69.5 -89t-108.5 -59t-141.5 -21.5q-93 0 -159.5 17.5t-119.5 52.5v111q27 -22 62 -40 t72.5 -30.5t74.5 -19.5t67 -7q120 0 185.5 48.5t65.5 143.5q0 36 -12 65.5t-37 55t-64 49.5t-94 50q-68 32 -114.5 65t-75 70t-40.5 78.5t-12 90.5v165h-184z" />
<glyph unicode="&#x1bf;" horiz-adv-x="1118" d="M164 -471v1495h92v-162q42 37 87.5 71t98 59.5t111.5 41t128 15.5q83 0 151.5 -25.5t118 -71t77 -108.5t27.5 -138q0 -223 -213 -422q-53 -50 -121 -97.5t-144.5 -89.5t-158.5 -78.5t-162 -63.5v-426h-92zM256 46q155 57 280.5 127.5t223.5 159.5q98 90 148.5 178.5 t50.5 188.5q0 60 -21.5 108.5t-59.5 83t-89.5 53t-111.5 18.5q-65 0 -123 -17t-110.5 -45.5t-99 -65.5t-88.5 -77v-712z" />
<glyph unicode="&#x1c0;" horiz-adv-x="463" d="M184 -481v2048h95v-2048h-95z" />
<glyph unicode="&#x1c1;" horiz-adv-x="742" d="M184 -481v2048h95v-2048h-95zM463 -481v2048h95v-2048h-95z" />
<glyph unicode="&#x1c2;" horiz-adv-x="934" d="M54 362v84h365v304h-365v84h365v733h95v-733h367v-84h-367v-304h367v-84h-367v-843h-95v843h-365z" />
<glyph unicode="&#x1c3;" horiz-adv-x="582" d="M211 63q0 35 23 57.5t57 22.5t58 -22.5t24 -57.5q0 -34 -24 -57.5t-58 -23.5t-57 23.5t-23 57.5zM236 1434h106l-10 -1031h-86z" />
<glyph unicode="&#x1c4;" horiz-adv-x="2499" d="M184 0v1434h359q357 0 543 -178t186 -519q0 -328 -199.5 -532.5t-550.5 -204.5h-338zM283 90h225q319 0 490 165.5t171 477.5q0 610 -641 610h-245v-1253zM1398 0v31l868 1312h-799v91h952v-27l-872 -1317h858v-90h-1007zM1691 1866h86l158 -240l160 240h82l-221 -336 h-45z" />
<glyph unicode="&#x1c5;" horiz-adv-x="2312" d="M184 0v1434h359q357 0 543 -178t186 -519q0 -328 -199.5 -532.5t-550.5 -204.5h-338zM283 90h225q319 0 490 165.5t171 477.5q0 610 -641 610h-245v-1253zM1419 0v35l680 905h-631v84h787v-25l-686 -915h661v-84h-811zM1624 1524h86l158 -240l160 240h82l-221 -336h-45z " />
<glyph unicode="&#x1c6;" horiz-adv-x="2039" d="M90 494q0 248 130.5 401.5t338.5 153.5q230 0 328 -189h4v656h92v-1516h-92v186h-4q-50 -97 -148 -154t-221 -57q-189 0 -308.5 138t-119.5 381zM186 502q0 -212 94.5 -327.5t243.5 -115.5q175 0 271 108.5t96 264.5v191q0 143 -90.5 242.5t-243.5 99.5 q-161 0 -266 -123.5t-105 -339.5zM1146 0v35l680 905h-631v84h787v-25l-686 -915h661v-84h-811zM1352 1524h86l158 -240l160 240h82l-221 -336h-45z" />
<glyph unicode="&#x1c7;" horiz-adv-x="1602" d="M184 0v1434h99v-1344h575v-90h-674zM956 -10v96q59 -20 111 -20q138 0 199 104.5t61 325.5v938h98v-940q0 -519 -360 -519q-56 0 -109 15z" />
<glyph unicode="&#x1c8;" horiz-adv-x="1379" d="M184 0v1434h99v-1344h575v-90h-674zM707 -350q80 -47 156 -47q260 0 260 409v1012h92v-995q0 -510 -362 -510q-72 0 -146 35v96zM1092 1360q0 33 23.5 53.5t52.5 20.5q31 0 54.5 -20t23.5 -54q0 -32 -23 -55t-55 -23q-30 0 -53 22t-23 56z" />
<glyph unicode="&#x1c9;" horiz-adv-x="840" d="M164 0v1516h92v-1516h-92zM168 -350q80 -47 156 -47q260 0 260 409v1012h92v-995q0 -510 -362 -510q-72 0 -146 35v96zM553 1360q0 33 23.5 53.5t52.5 20.5q31 0 54.5 -20t23.5 -54q0 -32 -23 -55t-55 -23q-30 0 -53 22t-23 56z" />
<glyph unicode="&#x1ca;" horiz-adv-x="2116" d="M184 0v1434h76l848 -1149q28 -38 61 -92h5q-5 70 -5 120v1121h99v-1434h-70l-854 1159q-26 35 -46 70l-13 20h-4q2 -26 2 -63v-1186h-99zM1470 -10v96q59 -20 111 -20q138 0 199 104.5t61 325.5v938h98v-940q0 -519 -360 -519q-56 0 -109 15z" />
<glyph unicode="&#x1cb;" horiz-adv-x="1865" d="M184 0v1434h76l848 -1149q28 -38 61 -92h5q-5 70 -5 120v1121h99v-1434h-70l-854 1159q-26 35 -46 70l-13 20h-4q2 -26 2 -63v-1186h-99zM1193 -350q80 -47 156 -47q260 0 260 409v1012h92v-995q0 -510 -362 -510q-72 0 -146 35v96zM1578 1360q0 33 23.5 53.5t52.5 20.5 q31 0 54.5 -20t23.5 -54q0 -32 -23 -55t-55 -23q-30 0 -53 22t-23 56z" />
<glyph unicode="&#x1cc;" horiz-adv-x="1516" d="M164 0v1024h92v-186h4q112 211 350 211q166 0 254 -110.5t88 -315.5v-623h-92v596q0 369 -266 369q-148 0 -243 -108.5t-95 -268.5v-588h-92zM844 -350q80 -47 156 -47q260 0 260 409v1012h92v-995q0 -510 -362 -510q-72 0 -146 35v96zM1229 1360q0 33 23.5 53.5 t52.5 20.5q31 0 54.5 -20t23.5 -54q0 -32 -23 -55t-55 -23q-30 0 -53 22t-23 56z" />
<glyph unicode="&#x1cd;" horiz-adv-x="1288" d="M59 0l541 1434h94l535 -1434h-111l-164 446h-622l-164 -446h-109zM367 537h553l-242 663q-11 30 -18 59q-7 25 -15 50h-4q-17 -66 -33 -107zM400 1866h86l158 -240l160 240h82l-221 -336h-45z" />
<glyph unicode="&#x1ce;" horiz-adv-x="1012" d="M106 264q0 268 355 324l315 47q0 330 -248 330q-169 0 -329 -136v111q57 45 154.5 77t183.5 32q158 0 244.5 -98t86.5 -285v-666h-92v205h-4q-49 -105 -142.5 -167.5t-207.5 -62.5q-146 0 -231 82t-85 207zM203 268q0 -91 60.5 -150t168.5 -59q148 0 246 109.5t98 282.5 v100l-282 -41q-161 -23 -226 -74.5t-65 -167.5zM274 1524h86l158 -240l160 240h82l-221 -336h-45z" />
<glyph unicode="&#x1cf;" horiz-adv-x="467" d="M-10 1866h86l158 -240l160 240h82l-221 -336h-45zM184 0v1434h99v-1434h-99z" />
<glyph unicode="&#x1d0;" horiz-adv-x="420" d="M-33 1524h86l158 -240l160 240h82l-221 -336h-45zM164 0v1024h92v-1024h-92z" />
<glyph unicode="&#x1d1;" horiz-adv-x="1559" d="M109 702q0 343 185.5 549.5t506.5 206.5q290 0 469.5 -198.5t179.5 -520.5q0 -356 -184 -560t-492 -204q-304 0 -484.5 202t-180.5 525zM211 713q0 -296 153 -471.5t408 -175.5q266 0 421 173.5t155 483.5q0 304 -151.5 474.5t-412.5 170.5q-250 0 -411.5 -181 t-161.5 -474zM559 1866h86l158 -240l160 240h82l-221 -336h-45z" />
<glyph unicode="&#x1d2;" horiz-adv-x="1149" d="M90 506q0 255 136.5 399t359.5 144q219 0 346 -143t127 -396q0 -239 -129.5 -387t-354.5 -148q-224 0 -354.5 147.5t-130.5 383.5zM186 504q0 -201 105 -323t287 -122q185 0 285 120t100 333q0 219 -99.5 336t-281.5 117q-181 0 -288.5 -122t-107.5 -339zM347 1524h86 l158 -240l160 240h82l-221 -336h-45z" />
<glyph unicode="&#x1d3;" horiz-adv-x="1327" d="M166 551v883h98v-869q0 -499 406 -499q393 0 393 485v883h98v-861q0 -598 -510 -598q-485 0 -485 576zM426 1866h86l158 -240l160 240h82l-221 -336h-45z" />
<glyph unicode="&#x1d4;" d="M143 432v592h93v-569q0 -208 68.5 -302t215.5 -94q143 0 231.5 105t88.5 280v580h92v-1024h-92v186h-4q-107 -211 -330 -211q-363 0 -363 457zM295 1524h86l158 -240l160 240h82l-221 -336h-45z" />
<glyph unicode="&#x1d5;" horiz-adv-x="1327" d="M166 551v883h98v-869q0 -499 406 -499q393 0 393 485v883h98v-861q0 -598 -510 -598q-485 0 -485 576zM417 1812v84h508v-84h-508zM430 1609q0 33 22 52.5t50 19.5q31 0 52 -20.5t21 -51.5q0 -30 -23 -49.5t-52 -19.5q-26 0 -48 19t-22 50zM764 1609q0 33 22 52.5 t49 19.5q31 0 52.5 -20.5t21.5 -51.5q0 -30 -23.5 -49.5t-52.5 -19.5q-26 0 -47.5 19t-21.5 50z" />
<glyph unicode="&#x1d6;" d="M143 432v592h93v-569q0 -208 68.5 -302t215.5 -94q143 0 231.5 105t88.5 280v580h92v-1024h-92v186h-4q-107 -211 -330 -211q-363 0 -363 457zM286 1460v84h508v-84h-508zM299 1257q0 33 22 52.5t50 19.5q31 0 52 -20.5t21 -51.5q0 -30 -23 -49.5t-52 -19.5q-26 0 -48 19 t-22 50zM633 1257q0 33 22 52.5t49 19.5q31 0 52.5 -20.5t21.5 -51.5q0 -30 -23.5 -49.5t-52.5 -19.5q-26 0 -47.5 19t-21.5 50z" />
<glyph unicode="&#x1d7;" horiz-adv-x="1327" d="M166 551v883h98v-869q0 -499 406 -499q393 0 393 485v883h98v-861q0 -598 -510 -598q-485 0 -485 576zM432 1612q0 31 22 50t48 19q29 0 52 -19.5t23 -49.5q0 -31 -21 -51.5t-52 -20.5q-28 0 -50 19.5t-22 52.5zM592 1722l234 246h104l-248 -246h-90zM766 1612 q0 31 21.5 50t47.5 19q29 0 52.5 -19.5t23.5 -49.5q0 -31 -21.5 -51.5t-52.5 -20.5q-27 0 -49 19.5t-22 52.5z" />
<glyph unicode="&#x1d8;" d="M143 432v592h93v-569q0 -208 68.5 -302t215.5 -94q143 0 231.5 105t88.5 280v580h92v-1024h-92v186h-4q-107 -211 -330 -211q-363 0 -363 457zM302 1260q0 31 22 50t48 19q29 0 52 -19.5t23 -49.5q0 -31 -21 -51.5t-52 -20.5q-28 0 -50 19.5t-22 52.5zM462 1370l234 246 h104l-248 -246h-90zM636 1260q0 31 21.5 50t47.5 19q29 0 52.5 -19.5t23.5 -49.5q0 -31 -21.5 -51.5t-52.5 -20.5q-27 0 -49 19.5t-22 52.5z" />
<glyph unicode="&#x1d9;" horiz-adv-x="1327" d="M166 551v883h98v-869q0 -499 406 -499q393 0 393 485v883h98v-861q0 -598 -510 -598q-485 0 -485 576zM384 2138h115l164 -230l164 230h118l-213 -330h-133zM425 1612q0 31 22 50t48 19q29 0 52 -19.5t23 -49.5q0 -31 -21 -51.5t-52 -20.5q-28 0 -50 19.5t-22 52.5z M759 1612q0 31 21.5 50t47.5 19q29 0 52.5 -19.5t23.5 -49.5q0 -31 -21.5 -51.5t-52.5 -20.5q-27 0 -49 19.5t-22 52.5z" />
<glyph unicode="&#x1da;" d="M143 432v592h93v-569q0 -208 68.5 -302t215.5 -94q143 0 231.5 105t88.5 280v580h92v-1024h-92v186h-4q-107 -211 -330 -211q-363 0 -363 457zM295 1794h86l158 -240l160 240h82l-221 -336h-45zM300 1260q0 31 22 50t48 19q29 0 52 -19.5t23 -49.5q0 -31 -21 -51.5 t-52 -20.5q-28 0 -50 19.5t-22 52.5zM634 1260q0 31 21.5 50t47.5 19q29 0 52.5 -19.5t23.5 -49.5q0 -31 -21.5 -51.5t-52.5 -20.5q-27 0 -49 19.5t-22 52.5z" />
<glyph unicode="&#x1db;" horiz-adv-x="1327" d="M166 551v883h98v-869q0 -499 406 -499q393 0 393 485v883h98v-861q0 -598 -510 -598q-485 0 -485 576zM431 1968h104l234 -246h-90zM450 1612q0 30 23.5 49.5t52.5 19.5q26 0 47.5 -19t21.5 -50q0 -33 -22 -52.5t-49 -19.5q-31 0 -52.5 20.5t-21.5 51.5zM784 1612 q0 30 23 49.5t52 19.5q26 0 48 -19t22 -50q0 -33 -22 -52.5t-50 -19.5q-31 0 -52 20.5t-21 51.5z" />
<glyph unicode="&#x1dc;" d="M143 432v592h93v-569q0 -208 68.5 -302t215.5 -94q143 0 231.5 105t88.5 280v580h92v-1024h-92v186h-4q-107 -211 -330 -211q-363 0 -363 457zM307 1616h104l234 -246h-90zM326 1260q0 30 23.5 49.5t52.5 19.5q26 0 47.5 -19t21.5 -50q0 -33 -22 -52.5t-49 -19.5 q-31 0 -52.5 20.5t-21.5 51.5zM660 1260q0 30 23 49.5t52 19.5q26 0 48 -19t22 -50q0 -33 -22 -52.5t-50 -19.5q-31 0 -52 20.5t-21 51.5z" />
<glyph unicode="&#x1dd;" horiz-adv-x="1034" d="M90 475v41h758q0 211 -97.5 330t-267.5 119q-172 0 -336 -127v98q159 113 355 113q198 0 320 -142t122 -401q0 -224 -127.5 -377.5t-331.5 -153.5q-191 0 -293 134t-102 366zM186 432q6 -177 85 -275t218 -98q144 0 238.5 96.5t116.5 276.5h-658z" />
<glyph unicode="&#x1de;" horiz-adv-x="1288" d="M59 0l541 1434h94l535 -1434h-111l-164 446h-622l-164 -446h-109zM367 537h553l-242 663q-11 30 -18 59q-7 25 -15 50h-4q-17 -66 -33 -107zM387 1812v84h508v-84h-508zM400 1609q0 33 22 52.5t50 19.5q31 0 52 -20.5t21 -51.5q0 -30 -23 -49.5t-52 -19.5q-26 0 -48 19 t-22 50zM734 1609q0 33 22 52.5t49 19.5q31 0 52.5 -20.5t21.5 -51.5q0 -30 -23.5 -49.5t-52.5 -19.5q-26 0 -47.5 19t-21.5 50z" />
<glyph unicode="&#x1df;" horiz-adv-x="1012" d="M106 264q0 268 355 324l315 47q0 330 -248 330q-169 0 -329 -136v111q57 45 154.5 77t183.5 32q158 0 244.5 -98t86.5 -285v-666h-92v205h-4q-49 -105 -142.5 -167.5t-207.5 -62.5q-146 0 -231 82t-85 207zM203 268q0 -91 60.5 -150t168.5 -59q148 0 246 109.5t98 282.5 v100l-282 -41q-161 -23 -226 -74.5t-65 -167.5zM255 1460v84h508v-84h-508zM268 1257q0 33 22 52.5t50 19.5q31 0 52 -20.5t21 -51.5q0 -30 -23 -49.5t-52 -19.5q-26 0 -48 19t-22 50zM602 1257q0 33 22 52.5t49 19.5q31 0 52.5 -20.5t21.5 -51.5q0 -30 -23.5 -49.5 t-52.5 -19.5q-26 0 -47.5 19t-21.5 50z" />
<glyph unicode="&#x1e0;" horiz-adv-x="1288" d="M59 0l541 1434h94l535 -1434h-111l-164 446h-622l-164 -446h-109zM367 537h553l-242 663q-11 30 -18 59q-7 25 -15 50h-4q-17 -66 -33 -107zM391 1817v84h508v-84h-508zM566 1623q0 34 23.5 53.5t52.5 19.5q31 0 55.5 -19.5t24.5 -53.5q0 -32 -23 -55t-55 -23 q-31 0 -54.5 22t-23.5 56z" />
<glyph unicode="&#x1e1;" horiz-adv-x="1012" d="M106 264q0 268 355 324l315 47q0 330 -248 330q-169 0 -329 -136v111q57 45 154.5 77t183.5 32q158 0 244.5 -98t86.5 -285v-666h-92v205h-4q-49 -105 -142.5 -167.5t-207.5 -62.5q-146 0 -231 82t-85 207zM203 268q0 -91 60.5 -150t168.5 -59q148 0 246 109.5t98 282.5 v100l-282 -41q-161 -23 -226 -74.5t-65 -167.5zM264 1460v84h508v-84h-508zM441 1266q0 34 23.5 53.5t52.5 19.5q31 0 55.5 -19.5t24.5 -53.5q0 -32 -23 -55t-55 -23q-31 0 -54.5 22t-23.5 56z" />
<glyph unicode="&#x1e2;" horiz-adv-x="1706" d="M16 0l697 1434h803v-97h-572v-571h531v-90h-531v-586h604v-90h-702v446h-502l-219 -446h-109zM385 537h461v800h-78zM783 1537v84h508v-84h-508z" />
<glyph unicode="&#x1e3;" horiz-adv-x="1718" d="M106 264q0 143 99 225t287 91l284 12q0 373 -239 373q-186 0 -338 -134v109q161 109 348 109q230 0 295 -254h4q126 254 383 254q190 0 293.5 -133t103.5 -367v-41h-758q0 -211 97.5 -330t267.5 -119q172 0 336 127v-98q-159 -113 -355 -113q-136 0 -240 74.5t-151 210.5 h-4q-133 -285 -391 -285q-150 0 -236 80.5t-86 208.5zM203 268q0 -98 63.5 -153.5t171.5 -55.5q136 0 237 107.5t101 259.5v82l-264 -8q-156 -5 -232.5 -58.5t-76.5 -173.5zM597 1188v84h508v-84h-508zM872 592h658q-6 177 -85 275t-218 98q-144 0 -238.5 -96.5 t-116.5 -276.5z" />
<glyph unicode="&#x1e4;" horiz-adv-x="1405" d="M109 696q0 326 195 544t521 218q190 0 367 -76v-108q-194 94 -381 94q-135 0 -246 -49t-189.5 -137t-121.5 -208.5t-43 -262.5q0 -150 40 -269.5t114 -203t179.5 -128t237.5 -44.5q194 0 340 84v174h-335v88h335v211h-338v90h437v-301h184v-88h-184v-224 q-223 -125 -457 -125q-146 0 -266.5 52.5t-207 147.5t-134 227.5t-47.5 293.5z" />
<glyph unicode="&#x1e5;" horiz-adv-x="1147" d="M90 494q0 121 33.5 223t95 175.5t148 115t192.5 41.5q226 0 328 -187h4v162h92v-948q0 -109 -18 -197h153v-84h-177q-30 -85 -84 -142q-126 -134 -392 -134q-148 0 -305 78v96q162 -90 307 -90q277 0 373 192h-284v84h315q20 78 20 172v133h-4q-122 -209 -369 -209 q-94 0 -172.5 35t-135.5 102t-88.5 163t-31.5 219zM186 502q0 -105 24.5 -187t69.5 -139t108.5 -87t141.5 -30q83 0 149.5 29t113.5 79t72.5 117t25.5 144v203q0 67 -24 127.5t-67.5 106.5t-104.5 73t-134 27q-85 0 -154 -33.5t-118 -94.5t-76 -146.5t-27 -188.5z" />
<glyph unicode="&#x1e6;" horiz-adv-x="1368" d="M109 696q0 326 195 544t521 218q189 0 367 -76v-108q-195 94 -381 94q-271 0 -435.5 -185t-164.5 -472q0 -302 154.5 -473.5t416.5 -171.5q194 0 340 84v473h-338v90h437v-613q-222 -125 -457 -125q-293 0 -474 199t-181 522zM514 1866h86l158 -240l160 240h82l-221 -336 h-45z" />
<glyph unicode="&#x1e7;" horiz-adv-x="1147" d="M90 494q0 245 129 400t340 155q226 0 328 -187h4v162h92v-948q0 -289 -126 -423t-392 -134q-148 0 -305 78v96q162 -90 307 -90q424 0 424 448v133h-4q-121 -209 -369 -209q-189 0 -308.5 137t-119.5 382zM186 502q0 -210 94.5 -326.5t249.5 -116.5q165 0 263 107t98 262 v203q0 136 -91.5 235t-238.5 99q-169 0 -272 -127t-103 -336zM341 1524h86l158 -240l160 240h82l-221 -336h-45z" />
<glyph unicode="&#x1e8;" horiz-adv-x="1079" d="M184 0v1434h99v-676h4q12 21 26 35l580 641h129l-629 -695l668 -739h-139l-611 686q-17 19 -24 33h-4v-719h-99zM340 1866h86l158 -240l160 240h82l-221 -336h-45z" />
<glyph unicode="&#x1e9;" horiz-adv-x="909" d="M164 0v1516h92v-977h4l465 485h119l-486 -496l525 -528h-133l-490 506h-4v-506h-92zM276 1866h86l158 -240l160 240h82l-221 -336h-45z" />
<glyph unicode="&#x1ea;" horiz-adv-x="1559" d="M109 702q0 343 185.5 549.5t506.5 206.5q290 0 469.5 -198.5t179.5 -520.5q0 -356 -184 -560t-492 -204q-304 0 -484.5 202t-180.5 525zM211 713q0 -296 153 -471.5t408 -175.5q266 0 421 173.5t155 483.5q0 304 -151.5 474.5t-412.5 170.5q-250 0 -411.5 -181 t-161.5 -474zM660 -246q0 55 42.5 122t125.5 124h88q-170 -135 -170 -240q0 -88 84 -88q38 0 80 17v-70q-49 -18 -94 -18q-70 0 -113 40.5t-43 112.5z" />
<glyph unicode="&#x1eb;" horiz-adv-x="1149" d="M90 506q0 255 136.5 399t359.5 144q219 0 346 -143t127 -396q0 -239 -129.5 -387t-354.5 -148q-224 0 -354.5 147.5t-130.5 383.5zM186 504q0 -201 105 -323t287 -122q185 0 285 120t100 333q0 219 -99.5 336t-281.5 117q-181 0 -288.5 -122t-107.5 -339zM449 -246 q0 55 42.5 122t125.5 124h88q-170 -135 -170 -240q0 -88 84 -88q38 0 80 17v-70q-49 -18 -94 -18q-70 0 -113 40.5t-43 112.5z" />
<glyph unicode="&#x1ec;" horiz-adv-x="1559" d="M109 702q0 343 185.5 549.5t506.5 206.5q290 0 469.5 -198.5t179.5 -520.5q0 -356 -184 -560t-492 -204q-304 0 -484.5 202t-180.5 525zM211 713q0 -296 153 -471.5t408 -175.5q266 0 421 173.5t155 483.5q0 304 -151.5 474.5t-412.5 170.5q-250 0 -411.5 -181 t-161.5 -474zM527 1537v84h508v-84h-508zM660 -246q0 55 42.5 122t125.5 124h88q-170 -135 -170 -240q0 -88 84 -88q38 0 80 17v-70q-49 -18 -94 -18q-70 0 -113 40.5t-43 112.5z" />
<glyph unicode="&#x1ed;" horiz-adv-x="1149" d="M90 506q0 255 136.5 399t359.5 144q219 0 346 -143t127 -396q0 -239 -129.5 -387t-354.5 -148q-224 0 -354.5 147.5t-130.5 383.5zM186 504q0 -201 105 -323t287 -122q185 0 285 120t100 333q0 219 -99.5 336t-281.5 117q-181 0 -288.5 -122t-107.5 -339zM321 1188v84 h508v-84h-508zM449 -246q0 55 42.5 122t125.5 124h88q-170 -135 -170 -240q0 -88 84 -88q38 0 80 17v-70q-49 -18 -94 -18q-70 0 -113 40.5t-43 112.5z" />
<glyph unicode="&#x1ee;" horiz-adv-x="1228" d="M33 -314q42 -19 87.5 -33.5t98 -24t112.5 -14.5t132 -5q131 0 235 35.5t177 99.5t111.5 152.5t38.5 194.5q0 112 -46.5 202t-133.5 153t-211 97t-280 34h-31v60l558 706h-799v91h952v-32l-588 -746q154 -9 279.5 -50.5t214 -113t136.5 -170.5t48 -223q0 -125 -45.5 -231 t-131 -184t-208.5 -122t-278 -44q-132 0 -234 15t-194 51v102zM300 1866h86l158 -240l160 240h82l-221 -336h-45z" />
<glyph unicode="&#x1ef;" horiz-adv-x="936" d="M0 -313q36 -21 75.5 -36t85 -25.5t99 -15.5t117.5 -5q100 0 180 24t135 68.5t84.5 109t29.5 145.5q0 89 -34 159.5t-95 119t-146 74.5t-187 26h-121v24l447 585h-631v84h787v-25l-451 -583q116 -7 213 -40.5t166.5 -92.5t108 -142.5t38.5 -190.5q0 -101 -35.5 -181 t-103 -135t-166 -84t-224.5 -29q-125 0 -213.5 17.5t-158.5 52.5v96zM178 1524h86l158 -240l160 240h82l-221 -336h-45z" />
<glyph unicode="&#x1f0;" horiz-adv-x="420" d="M-252 -350q80 -47 156 -47q260 0 260 409v1012h92v-995q0 -510 -362 -510q-72 0 -146 35v96zM-34 1524h86l158 -240l160 240h82l-221 -336h-45z" />
<glyph unicode="&#x1f1;" horiz-adv-x="2499" d="M184 0v1434h359q357 0 543 -178t186 -519q0 -328 -199.5 -532.5t-550.5 -204.5h-338zM283 90h225q319 0 490 165.5t171 477.5q0 610 -641 610h-245v-1253zM1398 0v31l868 1312h-799v91h952v-27l-872 -1317h858v-90h-1007z" />
<glyph unicode="&#x1f2;" horiz-adv-x="2312" d="M184 0v1434h359q357 0 543 -178t186 -519q0 -328 -199.5 -532.5t-550.5 -204.5h-338zM283 90h225q319 0 490 165.5t171 477.5q0 610 -641 610h-245v-1253zM1419 0v35l680 905h-631v84h787v-25l-686 -915h661v-84h-811z" />
<glyph unicode="&#x1f3;" horiz-adv-x="2039" d="M90 494q0 248 130.5 401.5t338.5 153.5q230 0 328 -189h4v656h92v-1516h-92v186h-4q-50 -97 -148 -154t-221 -57q-189 0 -308.5 138t-119.5 381zM186 502q0 -212 94.5 -327.5t243.5 -115.5q175 0 271 108.5t96 264.5v191q0 143 -90.5 242.5t-243.5 99.5 q-161 0 -266 -123.5t-105 -339.5zM1146 0v35l680 905h-631v84h787v-25l-686 -915h661v-84h-811z" />
<glyph unicode="&#x1f4;" horiz-adv-x="1368" d="M109 696q0 326 195 544t521 218q189 0 367 -76v-108q-195 94 -381 94q-271 0 -435.5 -185t-164.5 -472q0 -302 154.5 -473.5t416.5 -171.5q194 0 340 84v473h-338v90h437v-613q-222 -125 -457 -125q-293 0 -474 199t-181 522zM688 1538l234 328h104l-248 -328h-90z" />
<glyph unicode="&#x1f5;" horiz-adv-x="1147" d="M90 494q0 245 129 400t340 155q226 0 328 -187h4v162h92v-948q0 -289 -126 -423t-392 -134q-148 0 -305 78v96q162 -90 307 -90q424 0 424 448v133h-4q-121 -209 -369 -209q-189 0 -308.5 137t-119.5 382zM186 502q0 -210 94.5 -326.5t249.5 -116.5q165 0 263 107t98 262 v203q0 136 -91.5 235t-238.5 99q-169 0 -272 -127t-103 -336zM479 1188l234 328h104l-248 -328h-90z" />
<glyph unicode="&#x1f6;" horiz-adv-x="2057" d="M184 0v1434h99v-656h821v656h98v-1038q0 -75 18.5 -136t56 -104t94 -66.5t131.5 -23.5q73 0 127.5 24t91 68.5t54.5 107.5t18 141v616h98v-613q0 -101 -25 -182t-75.5 -137t-126 -86t-176.5 -30q-96 0 -168 29t-120 83t-72 131.5t-24 174.5v295h-821v-688h-99z" />
<glyph unicode="&#x1f7;" horiz-adv-x="1411" d="M184 -471v1905h99v-226q249 250 551 250q113 0 200.5 -32t147 -92.5t90.5 -147.5t31 -197q0 -322 -270 -596q-268 -274 -750 -451v-413h-99zM283 46q207 81 374 181t294 228q128 128 188 264t60 280q0 82 -26.5 150t-75.5 116t-118.5 74.5t-154.5 26.5 q-68 0 -133.5 -15.5t-131.5 -49t-134 -86t-142 -125.5v-1044z" />
<glyph unicode="&#x1f8;" horiz-adv-x="1452" d="M184 0v1434h76l848 -1149q28 -38 61 -92h5q-5 70 -5 120v1121h99v-1434h-70l-854 1159q-26 35 -46 70l-13 20h-4q2 -26 2 -63v-1186h-99zM476 1866h104l234 -328h-90z" />
<glyph unicode="&#x1f9;" d="M164 0v1024h92v-186h4q112 211 350 211q166 0 254 -110.5t88 -315.5v-623h-92v596q0 369 -266 369q-148 0 -243 -108.5t-95 -268.5v-588h-92zM321 1516h104l234 -328h-90z" />
<glyph unicode="&#x1fa;" horiz-adv-x="1288" d="M59 0l541 1434h94l535 -1434h-111l-164 446h-622l-164 -446h-109zM367 537h553l-242 663q-11 30 -18 59q-7 25 -15 50h-4q-17 -66 -33 -107zM444 1551q0 80 57 132t144 52q88 0 144.5 -50.5t56.5 -133.5q0 -80 -58 -132t-143 -52q-86 0 -143.5 50.5t-57.5 133.5z M518 1551q0 -53 36.5 -85t90.5 -32q57 0 93 32.5t36 84.5q0 57 -37.5 87t-91.5 30q-57 0 -92 -32t-35 -85zM538 1802l234 328h104l-248 -328h-90z" />
<glyph unicode="&#x1fb;" horiz-adv-x="1012" d="M145 264q0 268 355 324l315 47q0 330 -248 330q-169 0 -329 -136v111q57 45 154.5 77t183.5 32q158 0 244.5 -98t86.5 -285v-666h-92v205h-4q-49 -105 -142.5 -167.5t-207.5 -62.5q-146 0 -231 82t-85 207zM242 268q0 -91 60.5 -150t168.5 -59q148 0 246 109.5t98 282.5 v100l-282 -41q-161 -23 -226 -74.5t-65 -167.5zM359 1372q0 80 57 132t144 52q88 0 144.5 -50.5t56.5 -133.5q0 -80 -58 -132t-143 -52q-86 0 -143.5 50.5t-57.5 133.5zM433 1372q0 -53 36.5 -85t90.5 -32q57 0 93 32.5t36 84.5q0 57 -37.5 87t-91.5 30q-57 0 -92 -32 t-35 -85zM443 1620l234 328h104l-248 -328h-90z" />
<glyph unicode="&#x1fc;" horiz-adv-x="1706" d="M16 0l697 1434h803v-97h-572v-571h531v-90h-531v-586h604v-90h-702v446h-502l-219 -446h-109zM385 537h461v800h-78zM953 1536l234 328h104l-248 -328h-90z" />
<glyph unicode="&#x1fd;" horiz-adv-x="1718" d="M106 264q0 143 99 225t287 91l284 12q0 373 -239 373q-186 0 -338 -134v109q161 109 348 109q230 0 295 -254h4q126 254 383 254q190 0 293.5 -133t103.5 -367v-41h-758q0 -211 97.5 -330t267.5 -119q172 0 336 127v-98q-159 -113 -355 -113q-136 0 -240 74.5t-151 210.5 h-4q-133 -285 -391 -285q-150 0 -236 80.5t-86 208.5zM203 268q0 -98 63.5 -153.5t171.5 -55.5q136 0 237 107.5t101 259.5v82l-264 -8q-156 -5 -232.5 -58.5t-76.5 -173.5zM726 1188l234 328h104l-248 -328h-90zM872 592h658q-6 177 -85 275t-218 98q-144 0 -238.5 -96.5 t-116.5 -276.5z" />
<glyph unicode="&#x1fe;" horiz-adv-x="1559" d="M84 -4l178 213q-153 200 -153 493q0 343 185.5 549.5t506.5 206.5q235 0 399 -131l139 166l64 -53l-141 -168q188 -201 188 -533q0 -356 -184 -560t-492 -204q-274 0 -457 172l-170 -202zM211 713q0 -258 117 -426l811 966q-144 115 -355 115q-250 0 -411.5 -181 t-161.5 -474zM381 223q153 -157 391 -157q266 0 421 173.5t155 483.5q0 298 -150 473zM643 1536l234 328h104l-248 -328h-90z" />
<glyph unicode="&#x1ff;" horiz-adv-x="1149" d="M29 -39l170 189q-109 146 -109 356q0 255 136.5 399t359.5 144q199 0 321 -115l172 190l62 -55l-180 -199q98 -140 98 -360q0 -239 -129.5 -387t-354.5 -148q-192 0 -319 113l-166 -184zM186 504q0 -167 76 -285l584 647q-99 99 -264 99q-181 0 -288.5 -122t-107.5 -339z M315 156q104 -97 263 -97q185 0 285 120t100 333q0 171 -66 287zM473 1188l234 328h104l-248 -328h-90z" />
<glyph unicode="&#x200;" horiz-adv-x="1288" d="M59 0l541 1434h94l535 -1434h-111l-164 446h-622l-164 -446h-109zM274 1855h110l211 -317h-74zM367 537h553l-242 663q-11 30 -18 59q-7 25 -15 50h-4q-17 -66 -33 -107zM495 1855h110l211 -317h-73z" />
<glyph unicode="&#x201;" horiz-adv-x="1012" d="M106 264q0 268 355 324l315 47q0 330 -248 330q-169 0 -329 -136v111q57 45 154.5 77t183.5 32q158 0 244.5 -98t86.5 -285v-666h-92v205h-4q-49 -105 -142.5 -167.5t-207.5 -62.5q-146 0 -231 82t-85 207zM150 1505h110l211 -317h-74zM203 268q0 -91 60.5 -150 t168.5 -59q148 0 246 109.5t98 282.5v100l-282 -41q-161 -23 -226 -74.5t-65 -167.5zM371 1505h110l211 -317h-73z" />
<glyph unicode="&#x202;" horiz-adv-x="1288" d="M59 0l541 1434h94l535 -1434h-111l-164 446h-622l-164 -446h-109zM367 537h553l-242 663q-11 30 -18 59q-7 25 -15 50h-4q-17 -66 -33 -107zM373 1538q9 111 81.5 173t182.5 62q109 0 182.5 -63.5t89.5 -171.5h-88q-9 72 -61.5 115.5t-120.5 43.5q-77 0 -126.5 -42 t-55.5 -117h-84z" />
<glyph unicode="&#x203;" horiz-adv-x="1012" d="M106 264q0 268 355 324l315 47q0 330 -248 330q-169 0 -329 -136v111q57 45 154.5 77t183.5 32q158 0 244.5 -98t86.5 -285v-666h-92v205h-4q-49 -105 -142.5 -167.5t-207.5 -62.5q-146 0 -231 82t-85 207zM203 268q0 -91 60.5 -150t168.5 -59q148 0 246 109.5t98 282.5 v100l-282 -41q-161 -23 -226 -74.5t-65 -167.5zM253 1230q9 111 81.5 173t182.5 62q109 0 182.5 -63.5t89.5 -171.5h-88q-9 72 -61.5 115.5t-120.5 43.5q-77 0 -126.5 -42t-55.5 -117h-84z" />
<glyph unicode="&#x204;" horiz-adv-x="1024" d="M182 1855h110l211 -317h-74zM184 0v1434h670v-91h-571v-575h530v-90h-530v-588h604v-90h-703zM403 1855h110l211 -317h-73z" />
<glyph unicode="&#x205;" horiz-adv-x="1034" d="M90 518q0 224 127.5 377.5t331.5 153.5q191 0 293 -134t102 -366v-41h-758q0 -211 97.5 -330t267.5 -119q172 0 336 127v-98q-159 -113 -355 -113q-198 0 -320 142t-122 401zM180 1505h110l211 -317h-74zM190 592h658q-6 177 -85 275t-218 98q-144 0 -238.5 -96.5 t-116.5 -276.5zM401 1505h110l211 -317h-73z" />
<glyph unicode="&#x206;" horiz-adv-x="1024" d="M184 0v1434h670v-91h-571v-575h530v-90h-530v-588h604v-90h-703zM290 1578q9 111 81.5 173t182.5 62q109 0 182.5 -63.5t89.5 -171.5h-88q-9 72 -61.5 115.5t-120.5 43.5q-77 0 -126.5 -42t-55.5 -117h-84z" />
<glyph unicode="&#x207;" horiz-adv-x="1034" d="M90 518q0 224 127.5 377.5t331.5 153.5q191 0 293 -134t102 -366v-41h-758q0 -211 97.5 -330t267.5 -119q172 0 336 127v-98q-159 -113 -355 -113q-198 0 -320 142t-122 401zM190 592h658q-6 177 -85 275t-218 98q-144 0 -238.5 -96.5t-116.5 -276.5zM271 1230 q9 111 81.5 173t182.5 62q109 0 182.5 -63.5t89.5 -171.5h-88q-9 72 -61.5 115.5t-120.5 43.5q-77 0 -126.5 -42t-55.5 -117h-84z" />
<glyph unicode="&#x208;" horiz-adv-x="467" d="M-98 1855h110l211 -317h-74zM123 1855h110l211 -317h-73zM184 0v1434h99v-1434h-99z" />
<glyph unicode="&#x209;" horiz-adv-x="420" d="M-122 1505h110l211 -317h-74zM99 1505h110l211 -317h-73zM164 0v1024h92v-1024h-92z" />
<glyph unicode="&#x20a;" horiz-adv-x="467" d="M-33 1578q9 111 81.5 173t182.5 62q109 0 182.5 -63.5t89.5 -171.5h-88q-9 72 -61.5 115.5t-120.5 43.5q-77 0 -126.5 -42t-55.5 -117h-84zM184 0v1434h99v-1434h-99z" />
<glyph unicode="&#x20b;" horiz-adv-x="420" d="M-55 1189q9 111 81.5 173t182.5 62q109 0 182.5 -63.5t89.5 -171.5h-88q-9 72 -61.5 115.5t-120.5 43.5q-77 0 -126.5 -42t-55.5 -117h-84zM164 0v1024h92v-1024h-92z" />
<glyph unicode="&#x20c;" horiz-adv-x="1559" d="M109 702q0 343 185.5 549.5t506.5 206.5q290 0 469.5 -198.5t179.5 -520.5q0 -356 -184 -560t-492 -204q-304 0 -484.5 202t-180.5 525zM211 713q0 -296 153 -471.5t408 -175.5q266 0 421 173.5t155 483.5q0 304 -151.5 474.5t-412.5 170.5q-250 0 -411.5 -181 t-161.5 -474zM390 1855h110l211 -317h-74zM611 1855h110l211 -317h-73z" />
<glyph unicode="&#x20d;" horiz-adv-x="1149" d="M90 506q0 255 136.5 399t359.5 144q219 0 346 -143t127 -396q0 -239 -129.5 -387t-354.5 -148q-224 0 -354.5 147.5t-130.5 383.5zM186 504q0 -201 105 -323t287 -122q185 0 285 120t100 333q0 219 -99.5 336t-281.5 117q-181 0 -288.5 -122t-107.5 -339zM216 1505h110 l211 -317h-74zM437 1505h110l211 -317h-73z" />
<glyph unicode="&#x20e;" horiz-adv-x="1559" d="M109 702q0 343 185.5 549.5t506.5 206.5q290 0 469.5 -198.5t179.5 -520.5q0 -356 -184 -560t-492 -204q-304 0 -484.5 202t-180.5 525zM211 713q0 -296 153 -471.5t408 -175.5q266 0 421 173.5t155 483.5q0 304 -151.5 474.5t-412.5 170.5q-250 0 -411.5 -181 t-161.5 -474zM506 1578q9 111 81.5 173t182.5 62q109 0 182.5 -63.5t89.5 -171.5h-88q-9 72 -61.5 115.5t-120.5 43.5q-77 0 -126.5 -42t-55.5 -117h-84z" />
<glyph unicode="&#x20f;" horiz-adv-x="1149" d="M90 506q0 255 136.5 399t359.5 144q219 0 346 -143t127 -396q0 -239 -129.5 -387t-354.5 -148q-224 0 -354.5 147.5t-130.5 383.5zM186 504q0 -201 105 -323t287 -122q185 0 285 120t100 333q0 219 -99.5 336t-281.5 117q-181 0 -288.5 -122t-107.5 -339zM334 1230 q9 111 81.5 173t182.5 62q109 0 182.5 -63.5t89.5 -171.5h-88q-9 72 -61.5 115.5t-120.5 43.5q-77 0 -126.5 -42t-55.5 -117h-84z" />
<glyph unicode="&#x210;" horiz-adv-x="1137" d="M184 0v1434h398q190 0 298.5 -102.5t108.5 -270.5q0 -155 -89 -259t-249 -134v-4q85 -34 166 -207l213 -457h-112l-191 420q-59 130 -118 174.5t-148 44.5h-178v-639h-99zM184 1855h110l211 -317h-74zM283 729h247q164 0 260.5 86t96.5 236q0 137 -87 214.5t-249 77.5 h-268v-614zM405 1855h110l211 -317h-73z" />
<glyph unicode="&#x211;" horiz-adv-x="676" d="M28 1505h110l211 -317h-74zM164 0v1024h90v-227h4q35 117 111 182t176 65q57 0 102 -18v-98q-46 33 -108 33q-121 0 -203 -125t-82 -355v-481h-90zM249 1505h110l211 -317h-73z" />
<glyph unicode="&#x212;" horiz-adv-x="1137" d="M184 0v1434h398q190 0 298.5 -102.5t108.5 -270.5q0 -155 -89 -259t-249 -134v-4q85 -34 166 -207l213 -457h-112l-191 420q-59 130 -118 174.5t-148 44.5h-178v-639h-99zM283 729h247q164 0 260.5 86t96.5 236q0 137 -87 214.5t-249 77.5h-268v-614zM333 1578 q9 111 81.5 173t182.5 62q109 0 182.5 -63.5t89.5 -171.5h-88q-9 72 -61.5 115.5t-120.5 43.5q-77 0 -126.5 -42t-55.5 -117h-84z" />
<glyph unicode="&#x213;" horiz-adv-x="676" d="M164 0v1024h90v-227h4q35 117 111 182t176 65q57 0 102 -18v-98q-46 33 -108 33q-121 0 -203 -125t-82 -355v-481h-90zM169 1230q9 111 81.5 173t182.5 62q109 0 182.5 -63.5t89.5 -171.5h-88q-9 72 -61.5 115.5t-120.5 43.5q-77 0 -126.5 -42t-55.5 -117h-84z" />
<glyph unicode="&#x214;" horiz-adv-x="1327" d="M166 551v883h98v-869q0 -499 406 -499q393 0 393 485v883h98v-861q0 -598 -510 -598q-485 0 -485 576zM329 1855h110l211 -317h-74zM550 1855h110l211 -317h-73z" />
<glyph unicode="&#x215;" d="M143 432v592h93v-569q0 -208 68.5 -302t215.5 -94q143 0 231.5 105t88.5 280v580h92v-1024h-92v186h-4q-107 -211 -330 -211q-363 0 -363 457zM198 1505h110l211 -317h-74zM419 1505h110l211 -317h-73z" />
<glyph unicode="&#x216;" horiz-adv-x="1327" d="M166 551v883h98v-869q0 -499 406 -499q393 0 393 485v883h98v-861q0 -598 -510 -598q-485 0 -485 576zM438 1578q9 111 81.5 173t182.5 62q109 0 182.5 -63.5t89.5 -171.5h-88q-9 72 -61.5 115.5t-120.5 43.5q-77 0 -126.5 -42t-55.5 -117h-84z" />
<glyph unicode="&#x217;" d="M143 432v592h93v-569q0 -208 68.5 -302t215.5 -94q143 0 231.5 105t88.5 280v580h92v-1024h-92v186h-4q-107 -211 -330 -211q-363 0 -363 457zM314 1230q9 111 81.5 173t182.5 62q109 0 182.5 -63.5t89.5 -171.5h-88q-9 72 -61.5 115.5t-120.5 43.5q-77 0 -126.5 -42 t-55.5 -117h-84z" />
<glyph unicode="&#x218;" horiz-adv-x="1018" d="M139 51v113q154 -98 312 -98q168 0 255 69.5t87 194.5q0 110 -58.5 175.5t-253.5 178.5q-218 127 -276 212.5t-58 197.5q0 152 118 258t315 106q128 0 256 -43v-104q-126 57 -269 57q-146 0 -231.5 -74t-85.5 -188q0 -110 58.5 -175t252.5 -177q201 -114 267.5 -202.5 t66.5 -203.5q0 -165 -114.5 -269t-323.5 -104q-74 0 -170.5 23t-147.5 53zM383 -379l93 261h112l-126 -261h-79z" />
<glyph unicode="&#x219;" horiz-adv-x="795" d="M111 45v111q52 -45 126 -71t128 -26q241 0 241 197q0 68 -53 116t-172 99q-147 64 -206.5 132.5t-59.5 166.5q0 125 95.5 202t235.5 77q132 0 226 -54v-104q-114 74 -236 74q-101 0 -163 -52.5t-62 -136.5q0 -73 39 -118.5t172 -104.5q160 -72 220 -133.5t60 -163.5 q0 -122 -91.5 -201.5t-252.5 -79.5q-148 0 -247 70zM269 -379l93 261h112l-126 -261h-79z" />
<glyph unicode="&#x21a;" horiz-adv-x="1047" d="M61 1343v91h926v-91h-414v-1343h-98v1343h-414zM407 -379l93 261h112l-126 -261h-79z" />
<glyph unicode="&#x21b;" horiz-adv-x="608" d="M23 940v84h184v266q22 8 46 16q24 7 46 15v-297h270v-84h-270v-676q0 -106 33.5 -153.5t113.5 -47.5q57 0 123 37v-86q-72 -34 -135 -34q-227 0 -227 272v688h-184zM240 -379l93 261h112l-126 -261h-79z" />
<glyph unicode="&#x21c;" horiz-adv-x="1032" d="M10 -354q16 -4 37 -9t48 -9.5t62.5 -7.5t82.5 -3q146 0 262.5 42.5t198.5 113.5t125.5 163t43.5 192q0 105 -36 183t-101 130.5t-155 78.5t-198 26q-19 0 -53 -5.5t-67 -11.5q-39 -7 -82 -16v91l130 28q117 25 207.5 60t152 83t93 111t31.5 145q0 75 -25 137t-75 106 t-124.5 68.5t-173.5 24.5q-45 0 -88 -4.5t-87.5 -15.5t-91.5 -29t-101 -45v105q51 22 96 37t90 24.5t91.5 14t100.5 4.5q124 0 215.5 -32t152.5 -88.5t91 -133t30 -164.5q0 -83 -26 -149.5t-72 -118t-108 -89t-135 -63.5v-9q81 -9 156.5 -42t133.5 -92.5t93 -147t35 -205.5 q0 -112 -49.5 -219t-143.5 -190.5t-229 -134.5t-307 -51q-50 0 -85 1.5t-61 3.5t-46 5.5t-39 7.5v99z" />
<glyph unicode="&#x21d;" horiz-adv-x="880" d="M47 -374q37 -9 80 -15t91 -6q112 0 206.5 30t163.5 83.5t107.5 127t38.5 161.5q0 74 -23.5 132.5t-66 99t-101.5 62t-130 21.5q-24 0 -54 -3.5t-61.5 -9.5t-63 -13t-58.5 -14v84l113 23q92 19 165 50.5t123.5 73.5t77.5 92.5t27 107.5q0 55 -19.5 101.5t-59 80t-99.5 52 t-140 18.5q-82 0 -160.5 -20.5t-153.5 -55.5v92q71 32 149.5 50t165.5 18q103 0 181 -24.5t129.5 -69.5t77.5 -108t26 -139q0 -50 -18 -96.5t-51 -87.5t-80 -75t-106 -58v-7q70 -14 126.5 -45.5t96.5 -78.5t61.5 -107t21.5 -129q0 -108 -46 -200.5t-127 -159.5t-192 -105 t-242 -38q-63 0 -104 3t-72 9v93z" />
<glyph unicode="&#x21e;" horiz-adv-x="1386" d="M184 0v1434h99v-656h821v656h98v-1434h-98v688h-821v-688h-99zM437 1866h86l158 -240l160 240h82l-221 -336h-45z" />
<glyph unicode="&#x21f;" d="M164 0v1516h92v-676h4q121 209 352 209q166 0 253 -107t87 -307v-635h-92v614q0 182 -66 266.5t-206 84.5q-132 0 -232 -103t-100 -295v-567h-92zM346 1866h86l158 -240l160 240h82l-221 -336h-45z" />
<glyph unicode="&#x220;" horiz-adv-x="1368" d="M184 0v1434h99v-262h6q151 286 454 286q111 0 196.5 -39t144 -114.5t88.5 -186t30 -252.5v-1337h-98v1337q0 502 -365 502q-198 0 -327 -148q-129 -147 -129 -370v-850h-99z" />
<glyph unicode="&#x221;" horiz-adv-x="1319" d="M90 494q0 123 34.5 225.5t96.5 175.5t148 113.5t190 40.5q230 0 328 -189h4v656h92v-1516q0 -20 1 -42.5t3 -44.5t6 -41.5t9 -32.5q38 70 102.5 105.5t136.5 35.5q61 0 106 -15t73.5 -40.5t42.5 -60t14 -74.5q0 -43 -16.5 -79.5t-48 -63.5t-78 -42t-105.5 -15 q-56 0 -112.5 19.5t-97.5 59.5q-4 -12 -8.5 -29.5t-8 -36.5t-6 -36.5t-2.5 -30.5h-80q4 47 15 97.5t31 96.5q-35 49 -52 114t-17 156v186h-4q-24 -48 -62 -87t-86 -66.5t-104 -42.5t-117 -15q-94 0 -172.5 35.5t-135.5 102t-88.5 163t-31.5 218.5zM186 502q0 -106 25 -188.5 t70 -139t107 -86t136 -29.5q88 0 156.5 29.5t115.5 80.5t71 118.5t24 144.5v191q0 70 -23.5 132.5t-67 109t-105.5 73.5t-138 27q-80 0 -147.5 -31.5t-117.5 -91.5t-78 -146t-28 -194zM1041 -241q17 -20 40 -35t49 -26t52.5 -16.5t50.5 -5.5q28 0 55 5.5t48 18t34 34 t13 54.5q0 28 -11 48t-30 33.5t-43.5 20t-52.5 6.5q-63 0 -116.5 -33t-88.5 -104z" />
<glyph unicode="&#x222;" horiz-adv-x="1222" d="M100 441q0 144 77 249.5t229 169.5q-61 23 -105.5 57t-73 76.5t-42 92.5t-13.5 106q0 122 49 242h104q-29 -61 -43 -123t-14 -128q0 -62 25 -114.5t70 -90.5t108 -59.5t140 -21.5q78 0 142 21.5t109.5 59.5t70.5 90.5t25 114.5q0 128 -61 251h98q33 -63 47.5 -122.5 t14.5 -119.5q0 -51 -14 -100t-43.5 -92t-76 -79t-110.5 -63q68 -24 125 -64t98 -93.5t63.5 -118t22.5 -136.5q0 -108 -39.5 -194.5t-108.5 -148t-163.5 -94.5t-204.5 -33q-113 0 -206.5 32t-160 92.5t-103 146.5t-36.5 194zM203 437q0 -86 30.5 -156t85 -119.5t130 -76 t164.5 -26.5q87 0 162.5 26.5t131 75.5t87.5 119t32 157t-33.5 156.5t-90.5 118t-132 74.5t-157 26q-86 0 -160.5 -26t-130 -74.5t-87.5 -118t-32 -156.5z" />
<glyph unicode="&#x223;" horiz-adv-x="1202" d="M90 467q0 152 77 263.5t229 179.5q-61 24 -105.5 60t-73 81t-42 98t-13.5 112q0 64 13.5 127.5t38.5 128.5h101q-29 -65 -44.5 -130.5t-15.5 -134.5q0 -72 25 -128t70 -95t109 -59t142 -20q77 0 141.5 20.5t111 59.5t72 95t25.5 126q0 68 -16.5 133.5t-47.5 131.5h98 q29 -66 45.5 -129.5t16.5 -126.5q0 -54 -14 -105t-43.5 -96.5t-76 -84t-110.5 -66.5q68 -26 125 -68.5t98 -98.5t63.5 -124.5t22.5 -144.5q0 -114 -39.5 -205.5t-108.5 -156t-163.5 -99.5t-204.5 -35q-113 0 -206.5 34t-160 97.5t-103 154.5t-36.5 205zM189 463 q0 -92 31 -167t86 -127.5t130.5 -81t164.5 -28.5q87 0 163 28t132 80.5t88 127.5t32 168t-34 168t-91 127.5t-132.5 81t-157.5 28.5q-86 0 -161 -28.5t-131 -81t-88 -127.5t-32 -168z" />
<glyph unicode="&#x224;" horiz-adv-x="1167" d="M66 0v31l868 1312h-799v91h952v-27l-872 -1317h682q49 0 88.5 -12t68 -37t44 -62.5t15.5 -88.5q0 -36 -4.5 -73.5t-13.5 -64.5h-97q21 58 21 130q0 57 -37 86.5t-106 31.5h-810z" />
<glyph unicode="&#x225;" horiz-adv-x="950" d="M57 0v35l680 905h-631v84h787v-25l-686 -915h498q49 0 88.5 -11t68 -35t44 -60.5t15.5 -87.5q0 -36 -4.5 -73.5t-13.5 -64.5h-97q21 58 21 130q0 57 -37 87.5t-106 30.5h-627z" />
<glyph unicode="&#x226;" horiz-adv-x="1288" d="M59 0l541 1434h94l535 -1434h-111l-164 446h-622l-164 -446h-109zM367 537h553l-242 663q-11 30 -18 59q-7 25 -15 50h-4q-17 -66 -33 -107zM559 1623q0 34 23.5 53.5t52.5 19.5q31 0 55.5 -19.5t24.5 -53.5q0 -32 -23 -55t-55 -23q-31 0 -54.5 22t-23.5 56z" />
<glyph unicode="&#x227;" horiz-adv-x="1012" d="M106 264q0 268 355 324l315 47q0 330 -248 330q-169 0 -329 -136v111q57 45 154.5 77t183.5 32q158 0 244.5 -98t86.5 -285v-666h-92v205h-4q-49 -105 -142.5 -167.5t-207.5 -62.5q-146 0 -231 82t-85 207zM203 268q0 -91 60.5 -150t168.5 -59q148 0 246 109.5t98 282.5 v100l-282 -41q-161 -23 -226 -74.5t-65 -167.5zM416 1266q0 34 23.5 53.5t52.5 19.5q31 0 55.5 -19.5t24.5 -53.5q0 -32 -23 -55t-55 -23q-31 0 -54.5 22t-23.5 56z" />
<glyph unicode="&#x228;" horiz-adv-x="1024" d="M184 0v1434h670v-91h-571v-575h530v-90h-530v-588h604v-90h-703zM401 -356q50 -6 86 -6q160 0 160 92q0 86 -145 86q-32 0 -64 -4v188h72v-117q225 0 225 -147q0 -170 -254 -170q-36 0 -80 4v74z" />
<glyph unicode="&#x229;" horiz-adv-x="1034" d="M90 518q0 224 127.5 377.5t331.5 153.5q191 0 293 -134t102 -366v-41h-758q0 -211 97.5 -330t267.5 -119q172 0 336 127v-98q-159 -113 -355 -113q-198 0 -320 142t-122 401zM190 592h658q-6 177 -85 275t-218 98q-144 0 -238.5 -96.5t-116.5 -276.5zM438 -356 q50 -6 86 -6q160 0 160 92q0 86 -145 86q-32 0 -64 -4v188h72v-117q225 0 225 -147q0 -170 -254 -170q-36 0 -80 4v74z" />
<glyph unicode="&#x22a;" horiz-adv-x="1559" d="M109 702q0 343 185.5 549.5t506.5 206.5q290 0 469.5 -198.5t179.5 -520.5q0 -356 -184 -560t-492 -204q-304 0 -484.5 202t-180.5 525zM211 713q0 -296 153 -471.5t408 -175.5q266 0 421 173.5t155 483.5q0 304 -151.5 474.5t-412.5 170.5q-250 0 -411.5 -181 t-161.5 -474zM523 1821v84h508v-84h-508zM536 1618q0 33 22 52.5t50 19.5q31 0 52 -20.5t21 -51.5q0 -30 -23 -49.5t-52 -19.5q-26 0 -48 19t-22 50zM870 1618q0 33 22 52.5t49 19.5q31 0 52.5 -20.5t21.5 -51.5q0 -30 -23.5 -49.5t-52.5 -19.5q-26 0 -47.5 19t-21.5 50z " />
<glyph unicode="&#x22b;" horiz-adv-x="1149" d="M90 506q0 255 136.5 399t359.5 144q219 0 346 -143t127 -396q0 -239 -129.5 -387t-354.5 -148q-224 0 -354.5 147.5t-130.5 383.5zM186 504q0 -201 105 -323t287 -122q185 0 285 120t100 333q0 219 -99.5 336t-281.5 117q-181 0 -288.5 -122t-107.5 -339zM347 1460v84 h508v-84h-508zM360 1257q0 33 22 52.5t50 19.5q31 0 52 -20.5t21 -51.5q0 -30 -23 -49.5t-52 -19.5q-26 0 -48 19t-22 50zM694 1257q0 33 22 52.5t49 19.5q31 0 52.5 -20.5t21.5 -51.5q0 -30 -23.5 -49.5t-52.5 -19.5q-26 0 -47.5 19t-21.5 50z" />
<glyph unicode="&#x22c;" horiz-adv-x="1559" d="M109 702q0 343 185.5 549.5t506.5 206.5q290 0 469.5 -198.5t179.5 -520.5q0 -356 -184 -560t-492 -204q-304 0 -484.5 202t-180.5 525zM211 713q0 -296 153 -471.5t408 -175.5q266 0 421 173.5t155 483.5q0 304 -151.5 474.5t-412.5 170.5q-250 0 -411.5 -181 t-161.5 -474zM469 1542q0 100 48 160.5t128 60.5q72 0 160 -72q67 -59 117 -59q40 0 68 37t28 108h74q0 -103 -48.5 -163t-130.5 -60q-66 0 -151 76q-64 55 -119 55q-102 0 -102 -143h-72zM522 1880v84h508v-84h-508z" />
<glyph unicode="&#x22d;" horiz-adv-x="1149" d="M90 506q0 255 136.5 399t359.5 144q219 0 346 -143t127 -396q0 -239 -129.5 -387t-354.5 -148q-224 0 -354.5 147.5t-130.5 383.5zM186 504q0 -201 105 -323t287 -122q185 0 285 120t100 333q0 219 -99.5 336t-281.5 117q-181 0 -288.5 -122t-107.5 -339zM299 1188 q0 100 48 160.5t128 60.5q72 0 160 -72q67 -59 117 -59q40 0 68 37t28 108h74q0 -103 -48.5 -163t-130.5 -60q-66 0 -151 76q-64 55 -119 55q-102 0 -102 -143h-72zM352 1526v84h508v-84h-508z" />
<glyph unicode="&#x22e;" horiz-adv-x="1559" d="M109 702q0 343 185.5 549.5t506.5 206.5q290 0 469.5 -198.5t179.5 -520.5q0 -356 -184 -560t-492 -204q-304 0 -484.5 202t-180.5 525zM211 713q0 -296 153 -471.5t408 -175.5q266 0 421 173.5t155 483.5q0 304 -151.5 474.5t-412.5 170.5q-250 0 -411.5 -181 t-161.5 -474zM670 1623q0 34 23.5 53.5t52.5 19.5q31 0 55.5 -19.5t24.5 -53.5q0 -32 -23 -55t-55 -23q-31 0 -54.5 22t-23.5 56z" />
<glyph unicode="&#x22f;" horiz-adv-x="1149" d="M90 506q0 255 136.5 399t359.5 144q219 0 346 -143t127 -396q0 -239 -129.5 -387t-354.5 -148q-224 0 -354.5 147.5t-130.5 383.5zM186 504q0 -201 105 -323t287 -122q185 0 285 120t100 333q0 219 -99.5 336t-281.5 117q-181 0 -288.5 -122t-107.5 -339zM498 1266 q0 34 23.5 53.5t52.5 19.5q31 0 55.5 -19.5t24.5 -53.5q0 -32 -23 -55t-55 -23q-31 0 -54.5 22t-23.5 56z" />
<glyph unicode="&#x230;" horiz-adv-x="1559" d="M109 702q0 343 185.5 549.5t506.5 206.5q290 0 469.5 -198.5t179.5 -520.5q0 -356 -184 -560t-492 -204q-304 0 -484.5 202t-180.5 525zM211 713q0 -296 153 -471.5t408 -175.5q266 0 421 173.5t155 483.5q0 304 -151.5 474.5t-412.5 170.5q-250 0 -411.5 -181 t-161.5 -474zM520 1817v84h508v-84h-508zM695 1623q0 34 23.5 53.5t52.5 19.5q31 0 55.5 -19.5t24.5 -53.5q0 -32 -23 -55t-55 -23q-31 0 -54.5 22t-23.5 56z" />
<glyph unicode="&#x259;" horiz-adv-x="1034" d="M90 475v41h758q0 211 -97.5 330t-267.5 119q-172 0 -336 -127v98q159 113 355 113q198 0 320 -142t122 -401q0 -224 -127.5 -377.5t-331.5 -153.5q-191 0 -293 134t-102 366zM186 432q6 -177 85 -275t218 -98q144 0 238.5 96.5t116.5 276.5h-658z" />
<glyph unicode="&#x2c6;" horiz-adv-x="766" d="M129 1188l221 336h45l219 -336h-86l-157 239l-160 -239h-82z" />
<glyph unicode="&#x2da;" horiz-adv-x="594" d="M96 1372q0 80 57 132t144 52q88 0 144.5 -50.5t56.5 -133.5q0 -80 -58 -132t-143 -52q-86 0 -143.5 50.5t-57.5 133.5zM170 1372q0 -53 36.5 -85t90.5 -32q57 0 93 32.5t36 84.5q0 57 -37.5 87t-91.5 30q-57 0 -92 -32t-35 -85z" />
<glyph unicode="&#x2dc;" horiz-adv-x="649" d="M41 1188q0 100 48 160.5t128 60.5q72 0 160 -72q67 -59 117 -59q40 0 68 37t28 108h74q0 -103 -48.5 -163t-130.5 -60q-66 0 -151 76q-64 55 -119 55q-102 0 -102 -143h-72z" />
<glyph unicode="&#x1e00;" horiz-adv-x="1288" d="M59 0l541 1434h94l535 -1434h-111l-164 446h-622l-164 -446h-109zM367 537h553l-242 663q-11 30 -18 59q-7 25 -15 50h-4q-17 -66 -33 -107zM442 -311q0 80 57 132t144 52q88 0 144.5 -50.5t56.5 -133.5q0 -80 -58 -132t-143 -52q-86 0 -143.5 50.5t-57.5 133.5z M516 -311q0 -53 36.5 -85t90.5 -32q57 0 93 32.5t36 84.5q0 57 -37.5 87t-91.5 30q-57 0 -92 -32t-35 -85z" />
<glyph unicode="&#x1e01;" horiz-adv-x="1012" d="M106 264q0 268 355 324l315 47q0 330 -248 330q-169 0 -329 -136v111q57 45 154.5 77t183.5 32q158 0 244.5 -98t86.5 -285v-666h-92v205h-4q-49 -105 -142.5 -167.5t-207.5 -62.5q-146 0 -231 82t-85 207zM203 268q0 -91 60.5 -150t168.5 -59q148 0 246 109.5t98 282.5 v100l-282 -41q-161 -23 -226 -74.5t-65 -167.5zM298 -310q0 80 57 132t144 52q88 0 144.5 -50.5t56.5 -133.5q0 -80 -58 -132t-143 -52q-86 0 -143.5 50.5t-57.5 133.5zM372 -310q0 -53 36.5 -85t90.5 -32q57 0 93 32.5t36 84.5q0 57 -37.5 87t-91.5 30q-57 0 -92 -32 t-35 -85z" />
<glyph unicode="&#x1e02;" horiz-adv-x="1114" d="M184 0v1434h377q169 0 269 -91t100 -241q0 -125 -66.5 -216.5t-185.5 -129.5v-4q149 -14 235 -106.5t86 -235.5q0 -181 -117 -295.5t-313 -114.5h-385zM283 90h266q169 0 258.5 81t89.5 230q0 297 -403 297h-211v-608zM283 788h200q156 0 250 80t94 217q0 258 -305 258 h-239v-555zM431 1615q0 34 23.5 53.5t52.5 19.5q31 0 55.5 -19.5t24.5 -53.5q0 -32 -23 -55t-55 -23q-31 0 -54.5 22t-23.5 56z" />
<glyph unicode="&#x1e03;" horiz-adv-x="1147" d="M164 0v1516h92v-703h4q55 113 157.5 174.5t225.5 61.5q195 0 304.5 -134.5t109.5 -365.5q0 -257 -127 -415.5t-330 -158.5q-230 0 -340 207h-4v-182h-92zM256 434q0 -154 97 -264.5t255 -110.5q157 0 255 134.5t98 353.5q0 192 -90 305t-240 113q-179 0 -277 -120 t-98 -282v-129zM557 1266q0 34 23.5 53.5t52.5 19.5q31 0 55.5 -19.5t24.5 -53.5q0 -32 -23 -55t-55 -23q-31 0 -54.5 22t-23.5 56z" />
<glyph unicode="&#x1e04;" horiz-adv-x="1114" d="M184 0v1434h377q169 0 269 -91t100 -241q0 -125 -66.5 -216.5t-185.5 -129.5v-4q149 -14 235 -106.5t86 -235.5q0 -181 -117 -295.5t-313 -114.5h-385zM283 90h266q169 0 258.5 81t89.5 230q0 297 -403 297h-211v-608zM283 788h200q156 0 250 80t94 217q0 258 -305 258 h-239v-555zM488 -192q0 34 23.5 53.5t52.5 19.5q31 0 55.5 -19.5t24.5 -53.5q0 -32 -23 -55t-55 -23q-31 0 -54.5 22t-23.5 56z" />
<glyph unicode="&#x1e05;" horiz-adv-x="1147" d="M164 0v1516h92v-703h4q55 113 157.5 174.5t225.5 61.5q195 0 304.5 -134.5t109.5 -365.5q0 -257 -127 -415.5t-330 -158.5q-230 0 -340 207h-4v-182h-92zM256 434q0 -154 97 -264.5t255 -110.5q157 0 255 134.5t98 353.5q0 192 -90 305t-240 113q-179 0 -277 -120 t-98 -282v-129zM535 -192q0 34 23.5 53.5t52.5 19.5q31 0 55.5 -19.5t24.5 -53.5q0 -32 -23 -55t-55 -23q-31 0 -54.5 22t-23.5 56z" />
<glyph unicode="&#x1e06;" horiz-adv-x="1114" d="M184 0v1434h377q169 0 269 -91t100 -241q0 -125 -66.5 -216.5t-185.5 -129.5v-4q149 -14 235 -106.5t86 -235.5q0 -181 -117 -295.5t-313 -114.5h-385zM283 90h266q169 0 258.5 81t89.5 230q0 297 -403 297h-211v-608zM283 788h200q156 0 250 80t94 217q0 258 -305 258 h-239v-555zM298 -171h508v-84h-508v84z" />
<glyph unicode="&#x1e07;" horiz-adv-x="1147" d="M164 0v1516h92v-703h4q55 113 157.5 174.5t225.5 61.5q195 0 304.5 -134.5t109.5 -365.5q0 -257 -127 -415.5t-330 -158.5q-230 0 -340 207h-4v-182h-92zM256 434q0 -154 97 -264.5t255 -110.5q157 0 255 134.5t98 353.5q0 192 -90 305t-240 113q-179 0 -277 -120 t-98 -282v-129zM337 -171h508v-84h-508v84z" />
<glyph unicode="&#x1e08;" horiz-adv-x="1272" d="M109 688q0 349 201 559.5t511 210.5q165 0 316 -53v-105q-151 68 -318 68q-270 0 -439 -183t-169 -487q0 -293 161.5 -462.5t409.5 -169.5q198 0 355 77v-96q-174 -72 -363 -72q-294 0 -479.5 197.5t-185.5 515.5zM616 -356q50 -6 86 -6q160 0 160 92q0 86 -145 86 q-32 0 -64 -4v188h72v-117q225 0 225 -147q0 -170 -254 -170q-36 0 -80 4v74zM688 1537l234 328h104l-248 -328h-90z" />
<glyph unicode="&#x1e09;" horiz-adv-x="909" d="M90 494q0 244 144 399.5t370 155.5q117 0 227 -48v-104q-110 68 -241 68q-180 0 -292 -129.5t-112 -335.5q0 -199 102.5 -320t270.5 -121q154 0 268 82v-96q-114 -70 -272 -70q-209 0 -337 143.5t-128 375.5zM403 -356q50 -6 86 -6q160 0 160 92q0 86 -145 86 q-32 0 -64 -4v188h72v-117q225 0 225 -147q0 -170 -254 -170q-36 0 -80 4v74zM498 1188l234 328h104l-248 -328h-90z" />
<glyph unicode="&#x1e0a;" horiz-adv-x="1380" d="M184 0v1434h359q357 0 543 -178t186 -519q0 -328 -199.5 -532.5t-550.5 -204.5h-338zM283 90h225q319 0 490 165.5t171 477.5q0 610 -641 610h-245v-1253zM570 1615q0 34 23.5 53.5t52.5 19.5q31 0 55.5 -19.5t24.5 -53.5q0 -32 -23 -55t-55 -23q-31 0 -54.5 22t-23.5 56 z" />
<glyph unicode="&#x1e0b;" horiz-adv-x="1147" d="M90 494q0 248 130.5 401.5t338.5 153.5q230 0 328 -189h4v656h92v-1516h-92v186h-4q-50 -97 -148 -154t-221 -57q-189 0 -308.5 138t-119.5 381zM186 502q0 -212 94.5 -327.5t243.5 -115.5q175 0 271 108.5t96 264.5v191q0 143 -90.5 242.5t-243.5 99.5 q-161 0 -266 -123.5t-105 -339.5zM460 1266q0 34 23.5 53.5t52.5 19.5q31 0 55.5 -19.5t24.5 -53.5q0 -32 -23 -55t-55 -23q-31 0 -54.5 22t-23.5 56z" />
<glyph unicode="&#x1e0c;" horiz-adv-x="1380" d="M184 0v1434h359q357 0 543 -178t186 -519q0 -328 -199.5 -532.5t-550.5 -204.5h-338zM283 90h225q319 0 490 165.5t171 477.5q0 610 -641 610h-245v-1253zM603 -192q0 34 23.5 53.5t52.5 19.5q31 0 55.5 -19.5t24.5 -53.5q0 -32 -23 -55t-55 -23q-31 0 -54.5 22t-23.5 56 z" />
<glyph unicode="&#x1e0d;" horiz-adv-x="1147" d="M90 494q0 248 130.5 401.5t338.5 153.5q230 0 328 -189h4v656h92v-1516h-92v186h-4q-50 -97 -148 -154t-221 -57q-189 0 -308.5 138t-119.5 381zM186 502q0 -212 94.5 -327.5t243.5 -115.5q175 0 271 108.5t96 264.5v191q0 143 -90.5 242.5t-243.5 99.5 q-161 0 -266 -123.5t-105 -339.5zM521 -192q0 34 23.5 53.5t52.5 19.5q31 0 55.5 -19.5t24.5 -53.5q0 -32 -23 -55t-55 -23q-31 0 -54.5 22t-23.5 56z" />
<glyph unicode="&#x1e0e;" horiz-adv-x="1380" d="M184 0v1434h359q357 0 543 -178t186 -519q0 -328 -199.5 -532.5t-550.5 -204.5h-338zM283 90h225q319 0 490 165.5t171 477.5q0 610 -641 610h-245v-1253zM387 -171h508v-84h-508v84z" />
<glyph unicode="&#x1e0f;" horiz-adv-x="1147" d="M90 494q0 248 130.5 401.5t338.5 153.5q230 0 328 -189h4v656h92v-1516h-92v186h-4q-50 -97 -148 -154t-221 -57q-189 0 -308.5 138t-119.5 381zM186 502q0 -212 94.5 -327.5t243.5 -115.5q175 0 271 108.5t96 264.5v191q0 143 -90.5 242.5t-243.5 99.5 q-161 0 -266 -123.5t-105 -339.5zM345 -171h508v-84h-508v84z" />
<glyph unicode="&#x1e10;" horiz-adv-x="1380" d="M184 0v1434h359q357 0 543 -178t186 -519q0 -328 -199.5 -532.5t-550.5 -204.5h-338zM283 90h225q319 0 490 165.5t171 477.5q0 610 -641 610h-245v-1253zM535 -379l93 261h112l-126 -261h-79z" />
<glyph unicode="&#x1e11;" horiz-adv-x="1147" d="M90 494q0 248 130.5 401.5t338.5 153.5q230 0 328 -189h4v656h92v-1516h-92v186h-4q-50 -97 -148 -154t-221 -57q-189 0 -308.5 138t-119.5 381zM186 502q0 -212 94.5 -327.5t243.5 -115.5q175 0 271 108.5t96 264.5v191q0 143 -90.5 242.5t-243.5 99.5 q-161 0 -266 -123.5t-105 -339.5zM464 -379l93 261h112l-126 -261h-79z" />
<glyph unicode="&#x1e12;" horiz-adv-x="1380" d="M184 0v1434h359q357 0 543 -178t186 -519q0 -328 -199.5 -532.5t-550.5 -204.5h-338zM283 90h225q319 0 490 165.5t171 477.5q0 610 -641 610h-245v-1253zM448 -480l221 336h45l219 -336h-86l-157 239l-160 -239h-82z" />
<glyph unicode="&#x1e13;" horiz-adv-x="1147" d="M90 494q0 248 130.5 401.5t338.5 153.5q230 0 328 -189h4v656h92v-1516h-92v186h-4q-50 -97 -148 -154t-221 -57q-189 0 -308.5 138t-119.5 381zM186 502q0 -212 94.5 -327.5t243.5 -115.5q175 0 271 108.5t96 264.5v191q0 143 -90.5 242.5t-243.5 99.5 q-161 0 -266 -123.5t-105 -339.5zM353 -479l221 336h45l219 -336h-86l-157 239l-160 -239h-82z" />
<glyph unicode="&#x1e14;" horiz-adv-x="1024" d="M184 0v1434h670v-91h-571v-575h530v-90h-530v-588h604v-90h-703zM268 1566v84h508v-84h-508zM286 1994h104l234 -246h-90z" />
<glyph unicode="&#x1e15;" horiz-adv-x="1034" d="M90 518q0 224 127.5 377.5t331.5 153.5q191 0 293 -134t102 -366v-41h-758q0 -211 97.5 -330t267.5 -119q172 0 336 127v-98q-159 -113 -355 -113q-198 0 -320 142t-122 401zM190 592h658q-6 177 -85 275t-218 98q-144 0 -238.5 -96.5t-116.5 -276.5zM280 1188v84h508 v-84h-508zM298 1616h104l234 -246h-90z" />
<glyph unicode="&#x1e16;" horiz-adv-x="1024" d="M184 0v1434h670v-91h-571v-575h530v-90h-530v-588h604v-90h-703zM285 1566v84h508v-84h-508zM437 1748l234 246h104l-248 -246h-90z" />
<glyph unicode="&#x1e17;" horiz-adv-x="1034" d="M90 518q0 224 127.5 377.5t331.5 153.5q191 0 293 -134t102 -366v-41h-758q0 -211 97.5 -330t267.5 -119q172 0 336 127v-98q-159 -113 -355 -113q-198 0 -320 142t-122 401zM190 592h658q-6 177 -85 275t-218 98q-144 0 -238.5 -96.5t-116.5 -276.5zM280 1188v84h508 v-84h-508zM432 1370l234 246h104l-248 -246h-90z" />
<glyph unicode="&#x1e18;" horiz-adv-x="1024" d="M184 0v1434h670v-91h-571v-575h530v-90h-530v-588h604v-90h-703zM306 -481l221 336h45l219 -336h-86l-157 239l-160 -239h-82z" />
<glyph unicode="&#x1e19;" horiz-adv-x="1034" d="M90 518q0 224 127.5 377.5t331.5 153.5q191 0 293 -134t102 -366v-41h-758q0 -211 97.5 -330t267.5 -119q172 0 336 127v-98q-159 -113 -355 -113q-198 0 -320 142t-122 401zM190 592h658q-6 177 -85 275t-218 98q-144 0 -238.5 -96.5t-116.5 -276.5zM307 -480l221 336 h45l219 -336h-86l-157 239l-160 -239h-82z" />
<glyph unicode="&#x1e1a;" horiz-adv-x="1024" d="M184 0v1434h670v-91h-571v-575h530v-90h-530v-588h604v-90h-703zM230 -371q0 100 48 160.5t128 60.5q72 0 160 -72q67 -59 117 -59q40 0 68 37t28 108h74q0 -103 -48.5 -163t-130.5 -60q-66 0 -151 76q-64 55 -119 55q-102 0 -102 -143h-72z" />
<glyph unicode="&#x1e1b;" horiz-adv-x="1034" d="M90 518q0 224 127.5 377.5t331.5 153.5q191 0 293 -134t102 -366v-41h-758q0 -211 97.5 -330t267.5 -119q172 0 336 127v-98q-159 -113 -355 -113q-198 0 -320 142t-122 401zM190 592h658q-6 177 -85 275t-218 98q-144 0 -238.5 -96.5t-116.5 -276.5zM236 -372 q0 100 48 160.5t128 60.5q72 0 160 -72q67 -59 117 -59q40 0 68 37t28 108h74q0 -103 -48.5 -163t-130.5 -60q-66 0 -151 76q-64 55 -119 55q-102 0 -102 -143h-72z" />
<glyph unicode="&#x1e1c;" horiz-adv-x="1024" d="M184 0v1434h670v-91h-571v-575h530v-90h-530v-588h604v-90h-703zM253 1773h84q6 -75 55.5 -117t126.5 -42q68 0 120.5 43.5t61.5 115.5h88q-16 -108 -89.5 -171.5t-182.5 -63.5q-110 0 -182.5 62t-81.5 173zM431 -356q50 -6 86 -6q160 0 160 92q0 86 -145 86 q-32 0 -64 -4v188h72v-117q225 0 225 -147q0 -170 -254 -170q-36 0 -80 4v74z" />
<glyph unicode="&#x1e1d;" horiz-adv-x="1034" d="M90 518q0 224 127.5 377.5t331.5 153.5q191 0 293 -134t102 -366v-41h-758q0 -211 97.5 -330t267.5 -119q172 0 336 127v-98q-159 -113 -355 -113q-198 0 -320 142t-122 401zM190 592h658q-6 177 -85 275t-218 98q-144 0 -238.5 -96.5t-116.5 -276.5zM266 1423h84 q6 -75 55.5 -117t126.5 -42q68 0 120.5 43.5t61.5 115.5h88q-16 -108 -89.5 -171.5t-182.5 -63.5q-110 0 -182.5 62t-81.5 173zM438 -356q50 -6 86 -6q160 0 160 92q0 86 -145 86q-32 0 -64 -4v188h72v-117q225 0 225 -147q0 -170 -254 -170q-36 0 -80 4v74z" />
<glyph unicode="&#x1e1e;" horiz-adv-x="952" d="M184 0v1434h670v-91h-571v-585h530v-90h-530v-668h-99zM434 1615q0 34 23.5 53.5t52.5 19.5q31 0 55.5 -19.5t24.5 -53.5q0 -32 -23 -55t-55 -23q-31 0 -54.5 22t-23.5 56z" />
<glyph unicode="&#x1e1f;" horiz-adv-x="565" d="M35 940v84h184v178q0 162 81.5 246t203.5 84q65 0 108 -19v-94q-37 29 -112 29q-189 0 -189 -254v-170h271v-84h-271v-940h-92v940h-184zM107 1615q0 34 23.5 53.5t52.5 19.5q31 0 55.5 -19.5t24.5 -53.5q0 -32 -23 -55t-55 -23q-31 0 -54.5 22t-23.5 56z" />
<glyph unicode="&#x1e20;" horiz-adv-x="1368" d="M109 696q0 326 195 544t521 218q189 0 367 -76v-108q-195 94 -381 94q-271 0 -435.5 -185t-164.5 -472q0 -302 154.5 -473.5t416.5 -171.5q194 0 340 84v473h-338v90h437v-613q-222 -125 -457 -125q-293 0 -474 199t-181 522zM535 1537v84h508v-84h-508z" />
<glyph unicode="&#x1e21;" horiz-adv-x="1147" d="M90 494q0 245 129 400t340 155q226 0 328 -187h4v162h92v-948q0 -289 -126 -423t-392 -134q-148 0 -305 78v96q162 -90 307 -90q424 0 424 448v133h-4q-121 -209 -369 -209q-189 0 -308.5 137t-119.5 382zM186 502q0 -210 94.5 -326.5t249.5 -116.5q165 0 263 107t98 262 v203q0 136 -91.5 235t-238.5 99q-169 0 -272 -127t-103 -336zM300 1188v84h508v-84h-508z" />
<glyph unicode="&#x1e22;" horiz-adv-x="1386" d="M184 0v1434h99v-656h821v656h98v-1434h-98v688h-821v-688h-99zM617 1615q0 34 23.5 53.5t52.5 19.5q31 0 55.5 -19.5t24.5 -53.5q0 -32 -23 -55t-55 -23q-31 0 -54.5 22t-23.5 56z" />
<glyph unicode="&#x1e23;" d="M164 0v1516h92v-676h4q121 209 352 209q166 0 253 -107t87 -307v-635h-92v614q0 182 -66 266.5t-206 84.5q-132 0 -232 -103t-100 -295v-567h-92zM500 1266q0 34 23.5 53.5t52.5 19.5q31 0 55.5 -19.5t24.5 -53.5q0 -32 -23 -55t-55 -23q-31 0 -54.5 22t-23.5 56z" />
<glyph unicode="&#x1e24;" horiz-adv-x="1386" d="M184 0v1434h99v-656h821v656h98v-1434h-98v688h-821v-688h-99zM616 -192q0 34 23.5 53.5t52.5 19.5q31 0 55.5 -19.5t24.5 -53.5q0 -32 -23 -55t-55 -23q-31 0 -54.5 22t-23.5 56z" />
<glyph unicode="&#x1e25;" d="M164 0v1516h92v-676h4q121 209 352 209q166 0 253 -107t87 -307v-635h-92v614q0 182 -66 266.5t-206 84.5q-132 0 -232 -103t-100 -295v-567h-92zM494 -192q0 34 23.5 53.5t52.5 19.5q31 0 55.5 -19.5t24.5 -53.5q0 -32 -23 -55t-55 -23q-31 0 -54.5 22t-23.5 56z" />
<glyph unicode="&#x1e26;" horiz-adv-x="1386" d="M184 0v1434h99v-656h821v656h98v-1434h-98v688h-821v-688h-99zM452 1609q0 31 22 50t48 19q29 0 52 -19.5t23 -49.5q0 -31 -21 -51.5t-52 -20.5q-28 0 -50 19.5t-22 52.5zM786 1609q0 31 21.5 50t47.5 19q29 0 52.5 -19.5t23.5 -49.5q0 -31 -21.5 -51.5t-52.5 -20.5 q-27 0 -49 19.5t-22 52.5z" />
<glyph unicode="&#x1e27;" d="M164 0v1516h92v-676h4q121 209 352 209q166 0 253 -107t87 -307v-635h-92v614q0 182 -66 266.5t-206 84.5q-132 0 -232 -103t-100 -295v-567h-92zM357 1609q0 31 22 50t48 19q29 0 52 -19.5t23 -49.5q0 -31 -21 -51.5t-52 -20.5q-28 0 -50 19.5t-22 52.5zM691 1609 q0 31 21.5 50t47.5 19q29 0 52.5 -19.5t23.5 -49.5q0 -31 -21.5 -51.5t-52.5 -20.5q-27 0 -49 19.5t-22 52.5z" />
<glyph unicode="&#x1e28;" horiz-adv-x="1386" d="M166 -356q50 -6 86 -6q160 0 160 92q0 86 -145 86q-32 0 -64 -4v188h72v-117q225 0 225 -147q0 -170 -254 -170q-36 0 -80 4v74zM184 0v1434h99v-656h821v656h98v-1434h-98v688h-821v-688h-99z" />
<glyph unicode="&#x1e29;" d="M146 -356q50 -6 86 -6q160 0 160 92q0 86 -145 86q-32 0 -64 -4v188h72v-117q225 0 225 -147q0 -170 -254 -170q-36 0 -80 4v74zM164 0v1516h92v-676h4q121 209 352 209q166 0 253 -107t87 -307v-635h-92v614q0 182 -66 266.5t-206 84.5q-132 0 -232 -103t-100 -295v-567 h-92z" />
<glyph unicode="&#x1e2a;" horiz-adv-x="1386" d="M184 0v1434h99v-656h821v656h98v-1434h-98v688h-821v-688h-99zM419 -166h84q6 -75 55.5 -117t126.5 -42q68 0 120.5 43.5t61.5 115.5h88q-16 -108 -89.5 -171.5t-182.5 -63.5q-110 0 -182.5 62t-81.5 173z" />
<glyph unicode="&#x1e2b;" d="M164 0v1516h92v-676h4q121 209 352 209q166 0 253 -107t87 -307v-635h-92v614q0 182 -66 266.5t-206 84.5q-132 0 -232 -103t-100 -295v-567h-92zM292 -166h84q6 -75 55.5 -117t126.5 -42q68 0 120.5 43.5t61.5 115.5h88q-16 -108 -89.5 -171.5t-182.5 -63.5 q-110 0 -182.5 62t-81.5 173z" />
<glyph unicode="&#x1e2c;" horiz-adv-x="467" d="M-77 -369q0 100 48 160.5t128 60.5q72 0 160 -72q67 -59 117 -59q40 0 68 37t28 108h74q0 -103 -48.5 -163t-130.5 -60q-66 0 -151 76q-64 55 -119 55q-102 0 -102 -143h-72zM184 0v1434h99v-1434h-99z" />
<glyph unicode="&#x1e2d;" horiz-adv-x="420" d="M-104 -369q0 100 48 160.5t128 60.5q72 0 160 -72q67 -59 117 -59q40 0 68 37t28 108h74q0 -103 -48.5 -163t-130.5 -60q-66 0 -151 76q-64 55 -119 55q-102 0 -102 -143h-72zM133 1360q0 33 23.5 53.5t52.5 20.5q31 0 54.5 -20t23.5 -54q0 -32 -23 -55t-55 -23 q-30 0 -53 22t-23 56zM164 0v1024h92v-1024h-92z" />
<glyph unicode="&#x1e2e;" horiz-adv-x="467" d="M-17 1638q0 31 22 50t48 19q29 0 52 -19.5t23 -49.5q0 -31 -21 -51.5t-52 -20.5q-28 0 -50 19.5t-22 52.5zM143 1748l234 246h104l-248 -246h-90zM184 0v1434h99v-1434h-99zM317 1638q0 31 21.5 50t47.5 19q29 0 52.5 -19.5t23.5 -49.5q0 -31 -21.5 -51.5t-52.5 -20.5 q-27 0 -49 19.5t-22 52.5z" />
<glyph unicode="&#x1e2f;" horiz-adv-x="420" d="M-39 1260q0 31 22 50t48 19q29 0 52 -19.5t23 -49.5q0 -31 -21 -51.5t-52 -20.5q-28 0 -50 19.5t-22 52.5zM121 1370l234 246h104l-248 -246h-90zM164 0v1024h92v-1024h-92zM295 1260q0 31 21.5 50t47.5 19q29 0 52.5 -19.5t23.5 -49.5q0 -31 -21.5 -51.5t-52.5 -20.5 q-27 0 -49 19.5t-22 52.5z" />
<glyph unicode="&#x1e30;" horiz-adv-x="1079" d="M184 0v1434h99v-676h4q12 21 26 35l580 641h129l-629 -695l668 -739h-139l-611 686q-17 19 -24 33h-4v-719h-99zM491 1535l234 328h104l-248 -328h-90z" />
<glyph unicode="&#x1e31;" horiz-adv-x="909" d="M164 0v1516h92v-977h4l465 485h119l-486 -496l525 -528h-133l-490 506h-4v-506h-92zM363 1537l234 328h104l-248 -328h-90z" />
<glyph unicode="&#x1e32;" horiz-adv-x="1079" d="M184 0v1434h99v-676h4q12 21 26 35l580 641h129l-629 -695l668 -739h-139l-611 686q-17 19 -24 33h-4v-719h-99zM530 -192q0 34 23.5 53.5t52.5 19.5q31 0 55.5 -19.5t24.5 -53.5q0 -32 -23 -55t-55 -23q-31 0 -54.5 22t-23.5 56z" />
<glyph unicode="&#x1e33;" horiz-adv-x="909" d="M164 0v1516h92v-977h4l465 485h119l-486 -496l525 -528h-133l-490 506h-4v-506h-92zM423 -192q0 34 23.5 53.5t52.5 19.5q31 0 55.5 -19.5t24.5 -53.5q0 -32 -23 -55t-55 -23q-31 0 -54.5 22t-23.5 56z" />
<glyph unicode="&#x1e34;" horiz-adv-x="1079" d="M184 0v1434h99v-676h4q12 21 26 35l580 641h129l-629 -695l668 -739h-139l-611 686q-17 19 -24 33h-4v-719h-99zM356 -173h508v-84h-508v84z" />
<glyph unicode="&#x1e35;" horiz-adv-x="909" d="M164 0v1516h92v-977h4l465 485h119l-486 -496l525 -528h-133l-490 506h-4v-506h-92zM257 -173h508v-84h-508v84z" />
<glyph unicode="&#x1e36;" horiz-adv-x="938" d="M184 0v1434h99v-1344h575v-90h-674zM468 -192q0 34 23.5 53.5t52.5 19.5q31 0 55.5 -19.5t24.5 -53.5q0 -32 -23 -55t-55 -23q-31 0 -54.5 22t-23.5 56z" />
<glyph unicode="&#x1e37;" horiz-adv-x="420" d="M132 -192q0 34 23.5 53.5t52.5 19.5q31 0 55.5 -19.5t24.5 -53.5q0 -32 -23 -55t-55 -23q-31 0 -54.5 22t-23.5 56zM164 0v1516h92v-1516h-92z" />
<glyph unicode="&#x1e38;" horiz-adv-x="938" d="M184 0v1434h99v-1344h575v-90h-674zM268 1537v84h508v-84h-508zM468 -192q0 34 23.5 53.5t52.5 19.5q31 0 55.5 -19.5t24.5 -53.5q0 -32 -23 -55t-55 -23q-31 0 -54.5 22t-23.5 56z" />
<glyph unicode="&#x1e39;" horiz-adv-x="420" d="M-44 1607v84h508v-84h-508zM133 -192q0 34 23.5 53.5t52.5 19.5q31 0 55.5 -19.5t24.5 -53.5q0 -32 -23 -55t-55 -23q-31 0 -54.5 22t-23.5 56zM164 0v1516h92v-1516h-92z" />
<glyph unicode="&#x1e3a;" horiz-adv-x="938" d="M184 0v1434h99v-1344h575v-90h-674zM271 -173h508v-84h-508v84z" />
<glyph unicode="&#x1e3b;" horiz-adv-x="420" d="M-44 -173h508v-84h-508v84zM164 0v1516h92v-1516h-92z" />
<glyph unicode="&#x1e3c;" horiz-adv-x="938" d="M184 0v1434h99v-1344h575v-90h-674zM276 -480l221 336h45l219 -336h-86l-157 239l-160 -239h-82z" />
<glyph unicode="&#x1e3d;" horiz-adv-x="420" d="M-31 -479l221 336h45l219 -336h-86l-157 239l-160 -239h-82zM164 0v1516h92v-1516h-92z" />
<glyph unicode="&#x1e3e;" horiz-adv-x="1706" d="M184 0v1434h92l535 -1155q5 -10 11 -27t13 -34q10 -26 21 -58h6l11 32q1 4 34 95l527 1147h88v-1434h-95v1018q0 37 11 211h-4q-31 -81 -52 -125l-510 -1104h-32l-512 1098q-25 53 -47 135h-5q7 -96 7 -191v-1042h-99zM770 1537l234 328h104l-248 -328h-90z" />
<glyph unicode="&#x1e3f;" horiz-adv-x="1683" d="M164 0v1024h92v-170h4q107 195 313 195q112 0 191.5 -64.5t107.5 -169.5q48 111 137.5 172.5t194.5 61.5q336 0 336 -416v-633h-92v616q0 193 -60.5 271t-191.5 78q-121 0 -209 -104t-88 -261v-600h-92v623q0 342 -260 342q-125 0 -208 -104.5t-83 -270.5v-590h-92z M727 1188l234 328h104l-248 -328h-90z" />
<glyph unicode="&#x1e40;" horiz-adv-x="1706" d="M184 0v1434h92l535 -1155q5 -10 11 -27t13 -34q10 -26 21 -58h6l11 32q1 4 34 95l527 1147h88v-1434h-95v1018q0 37 11 211h-4q-31 -81 -52 -125l-510 -1104h-32l-512 1098q-25 53 -47 135h-5q7 -96 7 -191v-1042h-99zM781 1615q0 34 23.5 53.5t52.5 19.5 q31 0 55.5 -19.5t24.5 -53.5q0 -32 -23 -55t-55 -23q-31 0 -54.5 22t-23.5 56z" />
<glyph unicode="&#x1e41;" horiz-adv-x="1683" d="M164 0v1024h92v-170h4q107 195 313 195q112 0 191.5 -64.5t107.5 -169.5q48 111 137.5 172.5t194.5 61.5q336 0 336 -416v-633h-92v616q0 193 -60.5 271t-191.5 78q-121 0 -209 -104t-88 -261v-600h-92v623q0 342 -260 342q-125 0 -208 -104.5t-83 -270.5v-590h-92z M774 1266q0 34 23.5 53.5t52.5 19.5q31 0 55.5 -19.5t24.5 -53.5q0 -32 -23 -55t-55 -23q-31 0 -54.5 22t-23.5 56z" />
<glyph unicode="&#x1e42;" horiz-adv-x="1706" d="M184 0v1434h92l535 -1155q5 -10 11 -27t13 -34q10 -26 21 -58h6l11 32q1 4 34 95l527 1147h88v-1434h-95v1018q0 37 11 211h-4q-31 -81 -52 -125l-510 -1104h-32l-512 1098q-25 53 -47 135h-5q7 -96 7 -191v-1042h-99zM783 -192q0 34 23.5 53.5t52.5 19.5 q31 0 55.5 -19.5t24.5 -53.5q0 -32 -23 -55t-55 -23q-31 0 -54.5 22t-23.5 56z" />
<glyph unicode="&#x1e43;" horiz-adv-x="1683" d="M164 0v1024h92v-170h4q107 195 313 195q112 0 191.5 -64.5t107.5 -169.5q48 111 137.5 172.5t194.5 61.5q336 0 336 -416v-633h-92v616q0 193 -60.5 271t-191.5 78q-121 0 -209 -104t-88 -261v-600h-92v623q0 342 -260 342q-125 0 -208 -104.5t-83 -270.5v-590h-92z M775 -192q0 34 23.5 53.5t52.5 19.5q31 0 55.5 -19.5t24.5 -53.5q0 -32 -23 -55t-55 -23q-31 0 -54.5 22t-23.5 56z" />
<glyph unicode="&#x1e44;" horiz-adv-x="1452" d="M184 0v1434h76l848 -1149q28 -38 61 -92h5q-5 70 -5 120v1121h99v-1434h-70l-854 1159q-26 35 -46 70l-13 20h-4q2 -26 2 -63v-1186h-99zM655 1616q0 34 23.5 53.5t52.5 19.5q31 0 55.5 -19.5t24.5 -53.5q0 -32 -23 -55t-55 -23q-31 0 -54.5 22t-23.5 56z" />
<glyph unicode="&#x1e45;" d="M164 0v1024h92v-186h4q112 211 350 211q166 0 254 -110.5t88 -315.5v-623h-92v596q0 369 -266 369q-148 0 -243 -108.5t-95 -268.5v-588h-92zM498 1266q0 34 23.5 53.5t52.5 19.5q31 0 55.5 -19.5t24.5 -53.5q0 -32 -23 -55t-55 -23q-31 0 -54.5 22t-23.5 56z" />
<glyph unicode="&#x1e46;" horiz-adv-x="1452" d="M184 0v1434h76l848 -1149q28 -38 61 -92h5q-5 70 -5 120v1121h99v-1434h-70l-854 1159q-26 35 -46 70l-13 20h-4q2 -26 2 -63v-1186h-99zM649 -192q0 34 23.5 53.5t52.5 19.5q31 0 55.5 -19.5t24.5 -53.5q0 -32 -23 -55t-55 -23q-31 0 -54.5 22t-23.5 56z" />
<glyph unicode="&#x1e47;" d="M164 0v1024h92v-186h4q112 211 350 211q166 0 254 -110.5t88 -315.5v-623h-92v596q0 369 -266 369q-148 0 -243 -108.5t-95 -268.5v-588h-92zM483 -192q0 34 23.5 53.5t52.5 19.5q31 0 55.5 -19.5t24.5 -53.5q0 -32 -23 -55t-55 -23q-31 0 -54.5 22t-23.5 56z" />
<glyph unicode="&#x1e48;" horiz-adv-x="1452" d="M184 0v1434h76l848 -1149q28 -38 61 -92h5q-5 70 -5 120v1121h99v-1434h-70l-854 1159q-26 35 -46 70l-13 20h-4q2 -26 2 -63v-1186h-99zM481 -173h508v-84h-508v84z" />
<glyph unicode="&#x1e49;" d="M164 0v1024h92v-186h4q112 211 350 211q166 0 254 -110.5t88 -315.5v-623h-92v596q0 369 -266 369q-148 0 -243 -108.5t-95 -268.5v-588h-92zM314 -173h508v-84h-508v84z" />
<glyph unicode="&#x1e4a;" horiz-adv-x="1452" d="M184 0v1434h76l848 -1149q28 -38 61 -92h5q-5 70 -5 120v1121h99v-1434h-70l-854 1159q-26 35 -46 70l-13 20h-4q2 -26 2 -63v-1186h-99zM475 -481l221 336h45l219 -336h-86l-157 239l-160 -239h-82z" />
<glyph unicode="&#x1e4b;" d="M164 0v1024h92v-186h4q112 211 350 211q166 0 254 -110.5t88 -315.5v-623h-92v596q0 369 -266 369q-148 0 -243 -108.5t-95 -268.5v-588h-92zM316 -481l221 336h45l219 -336h-86l-157 239l-160 -239h-82z" />
<glyph unicode="&#x1e4c;" horiz-adv-x="1559" d="M109 702q0 343 185.5 549.5t506.5 206.5q290 0 469.5 -198.5t179.5 -520.5q0 -356 -184 -560t-492 -204q-304 0 -484.5 202t-180.5 525zM211 713q0 -296 153 -471.5t408 -175.5q266 0 421 173.5t155 483.5q0 304 -151.5 474.5t-412.5 170.5q-250 0 -411.5 -181 t-161.5 -474zM463 1548q0 100 48 160.5t128 60.5q72 0 160 -72q67 -59 117 -59q40 0 68 37t28 108h74q0 -103 -48.5 -163t-130.5 -60q-66 0 -151 76q-64 55 -119 55q-102 0 -102 -143h-72zM646 1830l234 246h104l-248 -246h-90z" />
<glyph unicode="&#x1e4d;" horiz-adv-x="1149" d="M90 506q0 255 136.5 399t359.5 144q219 0 346 -143t127 -396q0 -239 -129.5 -387t-354.5 -148q-224 0 -354.5 147.5t-130.5 383.5zM186 504q0 -201 105 -323t287 -122q185 0 285 120t100 333q0 219 -99.5 336t-281.5 117q-181 0 -288.5 -122t-107.5 -339zM264 1188 q0 100 48 160.5t128 60.5q72 0 160 -72q67 -59 117 -59q40 0 68 37t28 108h74q0 -103 -48.5 -163t-130.5 -60q-66 0 -151 76q-64 55 -119 55q-102 0 -102 -143h-72zM447 1470l234 246h104l-248 -246h-90z" />
<glyph unicode="&#x1e4e;" horiz-adv-x="1559" d="M109 702q0 343 185.5 549.5t506.5 206.5q290 0 469.5 -198.5t179.5 -520.5q0 -356 -184 -560t-492 -204q-304 0 -484.5 202t-180.5 525zM211 713q0 -296 153 -471.5t408 -175.5q266 0 421 173.5t155 483.5q0 304 -151.5 474.5t-412.5 170.5q-250 0 -411.5 -181 t-161.5 -474zM460 1548q0 100 48 160.5t128 60.5q72 0 160 -72q67 -59 117 -59q40 0 68 37t28 108h74q0 -103 -48.5 -163t-130.5 -60q-66 0 -151 76q-64 55 -119 55q-102 0 -102 -143h-72zM534 1939q0 31 22 50t48 19q29 0 52 -19.5t23 -49.5q0 -31 -21 -51.5t-52 -20.5 q-28 0 -50 19.5t-22 52.5zM868 1939q0 31 21.5 50t47.5 19q29 0 52.5 -19.5t23.5 -49.5q0 -31 -21.5 -51.5t-52.5 -20.5q-27 0 -49 19.5t-22 52.5z" />
<glyph unicode="&#x1e4f;" horiz-adv-x="1149" d="M90 506q0 255 136.5 399t359.5 144q219 0 346 -143t127 -396q0 -239 -129.5 -387t-354.5 -148q-224 0 -354.5 147.5t-130.5 383.5zM186 504q0 -201 105 -323t287 -122q185 0 285 120t100 333q0 219 -99.5 336t-281.5 117q-181 0 -288.5 -122t-107.5 -339zM267 1188 q0 100 48 160.5t128 60.5q72 0 160 -72q67 -59 117 -59q40 0 68 37t28 108h74q0 -103 -48.5 -163t-130.5 -60q-66 0 -151 76q-64 55 -119 55q-102 0 -102 -143h-72zM341 1579q0 31 22 50t48 19q29 0 52 -19.5t23 -49.5q0 -31 -21 -51.5t-52 -20.5q-28 0 -50 19.5t-22 52.5z M675 1579q0 31 21.5 50t47.5 19q29 0 52.5 -19.5t23.5 -49.5q0 -31 -21.5 -51.5t-52.5 -20.5q-27 0 -49 19.5t-22 52.5z" />
<glyph unicode="&#x1e50;" horiz-adv-x="1559" d="M109 702q0 343 185.5 549.5t506.5 206.5q290 0 469.5 -198.5t179.5 -520.5q0 -356 -184 -560t-492 -204q-304 0 -484.5 202t-180.5 525zM211 713q0 -296 153 -471.5t408 -175.5q266 0 421 173.5t155 483.5q0 304 -151.5 474.5t-412.5 170.5q-250 0 -411.5 -181 t-161.5 -474zM520 1566v84h508v-84h-508zM538 1994h104l234 -246h-90z" />
<glyph unicode="&#x1e51;" horiz-adv-x="1149" d="M90 506q0 255 136.5 399t359.5 144q219 0 346 -143t127 -396q0 -239 -129.5 -387t-354.5 -148q-224 0 -354.5 147.5t-130.5 383.5zM186 504q0 -201 105 -323t287 -122q185 0 285 120t100 333q0 219 -99.5 336t-281.5 117q-181 0 -288.5 -122t-107.5 -339zM324 1188v84 h508v-84h-508zM342 1616h104l234 -246h-90z" />
<glyph unicode="&#x1e52;" horiz-adv-x="1559" d="M109 702q0 343 185.5 549.5t506.5 206.5q290 0 469.5 -198.5t179.5 -520.5q0 -356 -184 -560t-492 -204q-304 0 -484.5 202t-180.5 525zM211 713q0 -296 153 -471.5t408 -175.5q266 0 421 173.5t155 483.5q0 304 -151.5 474.5t-412.5 170.5q-250 0 -411.5 -181 t-161.5 -474zM520 1566v84h508v-84h-508zM672 1748l234 246h104l-248 -246h-90z" />
<glyph unicode="&#x1e53;" horiz-adv-x="1149" d="M90 506q0 255 136.5 399t359.5 144q219 0 346 -143t127 -396q0 -239 -129.5 -387t-354.5 -148q-224 0 -354.5 147.5t-130.5 383.5zM186 504q0 -201 105 -323t287 -122q185 0 285 120t100 333q0 219 -99.5 336t-281.5 117q-181 0 -288.5 -122t-107.5 -339zM326 1188v84 h508v-84h-508zM478 1370l234 246h104l-248 -246h-90z" />
<glyph unicode="&#x1e54;" horiz-adv-x="1114" d="M184 0v1434h346q221 0 338 -102.5t117 -299.5q0 -200 -130.5 -328.5t-365.5 -128.5h-206v-575h-99zM283 666h204q194 0 295 92.5t101 261.5q0 323 -371 323h-229v-677zM427 1537l234 328h104l-248 -328h-90z" />
<glyph unicode="&#x1e55;" horiz-adv-x="1147" d="M164 -471v1495h92v-211h4q55 113 157.5 174.5t225.5 61.5q195 0 304.5 -134.5t109.5 -365.5q0 -257 -125.5 -415.5t-331.5 -158.5q-230 0 -340 207h-4v-653h-92zM256 434q0 -154 97 -264.5t255 -110.5q157 0 255 134.5t98 353.5q0 192 -90 305t-240 113q-179 0 -277 -120 t-98 -282v-129zM532 1188l234 328h104l-248 -328h-90z" />
<glyph unicode="&#x1e56;" horiz-adv-x="1114" d="M184 0v1434h346q221 0 338 -102.5t117 -299.5q0 -200 -130.5 -328.5t-365.5 -128.5h-206v-575h-99zM283 666h204q194 0 295 92.5t101 261.5q0 323 -371 323h-229v-677zM452 1615q0 34 23.5 53.5t52.5 19.5q31 0 55.5 -19.5t24.5 -53.5q0 -32 -23 -55t-55 -23 q-31 0 -54.5 22t-23.5 56z" />
<glyph unicode="&#x1e57;" horiz-adv-x="1147" d="M164 -471v1495h92v-211h4q55 113 157.5 174.5t225.5 61.5q195 0 304.5 -134.5t109.5 -365.5q0 -257 -125.5 -415.5t-331.5 -158.5q-230 0 -340 207h-4v-653h-92zM256 434q0 -154 97 -264.5t255 -110.5q157 0 255 134.5t98 353.5q0 192 -90 305t-240 113q-179 0 -277 -120 t-98 -282v-129zM519 1266q0 34 23.5 53.5t52.5 19.5q31 0 55.5 -19.5t24.5 -53.5q0 -32 -23 -55t-55 -23q-31 0 -54.5 22t-23.5 56z" />
<glyph unicode="&#x1e58;" horiz-adv-x="1137" d="M184 0v1434h398q190 0 298.5 -102.5t108.5 -270.5q0 -155 -89 -259t-249 -134v-4q85 -34 166 -207l213 -457h-112l-191 420q-59 130 -118 174.5t-148 44.5h-178v-639h-99zM283 729h247q164 0 260.5 86t96.5 236q0 137 -87 214.5t-249 77.5h-268v-614zM467 1615 q0 34 23.5 53.5t52.5 19.5q31 0 55.5 -19.5t24.5 -53.5q0 -32 -23 -55t-55 -23q-31 0 -54.5 22t-23.5 56z" />
<glyph unicode="&#x1e59;" horiz-adv-x="676" d="M164 0v1024h90v-227h4q35 117 111 182t176 65q57 0 102 -18v-98q-46 33 -108 33q-121 0 -203 -125t-82 -355v-481h-90zM311 1266q0 34 23.5 53.5t52.5 19.5q31 0 55.5 -19.5t24.5 -53.5q0 -32 -23 -55t-55 -23q-31 0 -54.5 22t-23.5 56z" />
<glyph unicode="&#x1e5a;" horiz-adv-x="1137" d="M184 0v1434h398q190 0 298.5 -102.5t108.5 -270.5q0 -155 -89 -259t-249 -134v-4q85 -34 166 -207l213 -457h-112l-191 420q-59 130 -118 174.5t-148 44.5h-178v-639h-99zM283 729h247q164 0 260.5 86t96.5 236q0 137 -87 214.5t-249 77.5h-268v-614zM515 -192 q0 34 23.5 53.5t52.5 19.5q31 0 55.5 -19.5t24.5 -53.5q0 -32 -23 -55t-55 -23q-31 0 -54.5 22t-23.5 56z" />
<glyph unicode="&#x1e5b;" horiz-adv-x="676" d="M164 0v1024h90v-227h4q35 117 111 182t176 65q57 0 102 -18v-98q-46 33 -108 33q-121 0 -203 -125t-82 -355v-481h-90zM342 -192q0 34 23.5 53.5t52.5 19.5q31 0 55.5 -19.5t24.5 -53.5q0 -32 -23 -55t-55 -23q-31 0 -54.5 22t-23.5 56z" />
<glyph unicode="&#x1e5c;" horiz-adv-x="1137" d="M184 0v1434h398q190 0 298.5 -102.5t108.5 -270.5q0 -155 -89 -259t-249 -134v-4q85 -34 166 -207l213 -457h-112l-191 420q-59 130 -118 174.5t-148 44.5h-178v-639h-99zM283 729h247q164 0 260.5 86t96.5 236q0 137 -87 214.5t-249 77.5h-268v-614zM294 1537v84h508 v-84h-508zM510 -192q0 34 23.5 53.5t52.5 19.5q31 0 55.5 -19.5t24.5 -53.5q0 -32 -23 -55t-55 -23q-31 0 -54.5 22t-23.5 56z" />
<glyph unicode="&#x1e5d;" horiz-adv-x="676" d="M164 0v1024h90v-227h4q35 117 111 182t176 65q57 0 102 -18v-98q-46 33 -108 33q-121 0 -203 -125t-82 -355v-481h-90zM169 1188v84h508v-84h-508zM308 -192q0 34 23.5 53.5t52.5 19.5q31 0 55.5 -19.5t24.5 -53.5q0 -32 -23 -55t-55 -23q-31 0 -54.5 22t-23.5 56z" />
<glyph unicode="&#x1e5e;" horiz-adv-x="1137" d="M184 0v1434h398q190 0 298.5 -102.5t108.5 -270.5q0 -155 -89 -259t-249 -134v-4q85 -34 166 -207l213 -457h-112l-191 420q-59 130 -118 174.5t-148 44.5h-178v-639h-99zM283 729h247q164 0 260.5 86t96.5 236q0 137 -87 214.5t-249 77.5h-268v-614zM347 -174h508v-84 h-508v84z" />
<glyph unicode="&#x1e5f;" horiz-adv-x="676" d="M129 -172h508v-84h-508v84zM164 0v1024h90v-227h4q35 117 111 182t176 65q57 0 102 -18v-98q-46 33 -108 33q-121 0 -203 -125t-82 -355v-481h-90z" />
<glyph unicode="&#x1e60;" horiz-adv-x="1018" d="M139 51v113q154 -98 312 -98q168 0 255 69.5t87 194.5q0 110 -58.5 175.5t-253.5 178.5q-218 127 -276 212.5t-58 197.5q0 152 118 258t315 106q128 0 256 -43v-104q-126 57 -269 57q-146 0 -231.5 -74t-85.5 -188q0 -110 58.5 -175t252.5 -177q201 -114 267.5 -202.5 t66.5 -203.5q0 -165 -114.5 -269t-323.5 -104q-74 0 -170.5 23t-147.5 53zM471 1615q0 34 23.5 53.5t52.5 19.5q31 0 55.5 -19.5t24.5 -53.5q0 -32 -23 -55t-55 -23q-31 0 -54.5 22t-23.5 56z" />
<glyph unicode="&#x1e61;" horiz-adv-x="795" d="M111 45v111q52 -45 126 -71t128 -26q241 0 241 197q0 68 -53 116t-172 99q-147 64 -206.5 132.5t-59.5 166.5q0 125 95.5 202t235.5 77q132 0 226 -54v-104q-114 74 -236 74q-101 0 -163 -52.5t-62 -136.5q0 -73 39 -118.5t172 -104.5q160 -72 220 -133.5t60 -163.5 q0 -122 -91.5 -201.5t-252.5 -79.5q-148 0 -247 70zM365 1266q0 34 23.5 53.5t52.5 19.5q31 0 55.5 -19.5t24.5 -53.5q0 -32 -23 -55t-55 -23q-31 0 -54.5 22t-23.5 56z" />
<glyph unicode="&#x1e62;" horiz-adv-x="1018" d="M139 51v113q154 -98 312 -98q168 0 255 69.5t87 194.5q0 110 -58.5 175.5t-253.5 178.5q-218 127 -276 212.5t-58 197.5q0 152 118 258t315 106q128 0 256 -43v-104q-126 57 -269 57q-146 0 -231.5 -74t-85.5 -188q0 -110 58.5 -175t252.5 -177q201 -114 267.5 -202.5 t66.5 -203.5q0 -165 -114.5 -269t-323.5 -104q-74 0 -170.5 23t-147.5 53zM416 -192q0 34 23.5 53.5t52.5 19.5q31 0 55.5 -19.5t24.5 -53.5q0 -32 -23 -55t-55 -23q-31 0 -54.5 22t-23.5 56z" />
<glyph unicode="&#x1e63;" horiz-adv-x="795" d="M111 45v111q52 -45 126 -71t128 -26q241 0 241 197q0 68 -53 116t-172 99q-147 64 -206.5 132.5t-59.5 166.5q0 125 95.5 202t235.5 77q132 0 226 -54v-104q-114 74 -236 74q-101 0 -163 -52.5t-62 -136.5q0 -73 39 -118.5t172 -104.5q160 -72 220 -133.5t60 -163.5 q0 -122 -91.5 -201.5t-252.5 -79.5q-148 0 -247 70zM326 -192q0 34 23.5 53.5t52.5 19.5q31 0 55.5 -19.5t24.5 -53.5q0 -32 -23 -55t-55 -23q-31 0 -54.5 22t-23.5 56z" />
<glyph unicode="&#x1e64;" horiz-adv-x="1018" d="M139 51v113q154 -98 312 -98q168 0 255 69.5t87 194.5q0 110 -58.5 175.5t-253.5 178.5q-218 127 -276 212.5t-58 197.5q0 152 118 258t315 106q128 0 256 -43v-104q-126 57 -269 57q-146 0 -231.5 -74t-85.5 -188q0 -110 58.5 -175t252.5 -177q201 -114 267.5 -202.5 t66.5 -203.5q0 -165 -114.5 -269t-323.5 -104q-74 0 -170.5 23t-147.5 53zM353 1832q0 34 23.5 53.5t52.5 19.5q31 0 55.5 -19.5t24.5 -53.5q0 -32 -23 -55t-55 -23q-31 0 -54.5 22t-23.5 56zM490 1566l234 328h104l-248 -328h-90z" />
<glyph unicode="&#x1e65;" horiz-adv-x="795" d="M111 45v111q52 -45 126 -71t128 -26q241 0 241 197q0 68 -53 116t-172 99q-147 64 -206.5 132.5t-59.5 166.5q0 125 95.5 202t235.5 77q132 0 226 -54v-104q-114 74 -236 74q-101 0 -163 -52.5t-62 -136.5q0 -73 39 -118.5t172 -104.5q160 -72 220 -133.5t60 -163.5 q0 -122 -91.5 -201.5t-252.5 -79.5q-148 0 -247 70zM228 1454q0 34 23.5 53.5t52.5 19.5q31 0 55.5 -19.5t24.5 -53.5q0 -32 -23 -55t-55 -23q-31 0 -54.5 22t-23.5 56zM365 1188l234 328h104l-248 -328h-90z" />
<glyph unicode="&#x1e66;" horiz-adv-x="1018" d="M139 51v113q154 -98 312 -98q168 0 255 69.5t87 194.5q0 110 -58.5 175.5t-253.5 178.5q-218 127 -276 212.5t-58 197.5q0 152 118 258t315 106q128 0 256 -43v-104q-126 57 -269 57q-146 0 -231.5 -74t-85.5 -188q0 -110 58.5 -175t252.5 -177q201 -114 267.5 -202.5 t66.5 -203.5q0 -165 -114.5 -269t-323.5 -104q-74 0 -170.5 23t-147.5 53zM301 1872h86l158 -210l160 210h82l-221 -306h-45zM465 1939q0 34 23.5 53.5t52.5 19.5q31 0 55.5 -19.5t24.5 -53.5q0 -32 -23 -55t-55 -23q-31 0 -54.5 22t-23.5 56z" />
<glyph unicode="&#x1e67;" horiz-adv-x="795" d="M111 45v111q52 -45 126 -71t128 -26q241 0 241 197q0 68 -53 116t-172 99q-147 64 -206.5 132.5t-59.5 166.5q0 125 95.5 202t235.5 77q132 0 226 -54v-104q-114 74 -236 74q-101 0 -163 -52.5t-62 -136.5q0 -73 39 -118.5t172 -104.5q160 -72 220 -133.5t60 -163.5 q0 -122 -91.5 -201.5t-252.5 -79.5q-148 0 -247 70zM184 1494h86l158 -210l160 210h82l-221 -306h-45zM348 1561q0 34 23.5 53.5t52.5 19.5q31 0 55.5 -19.5t24.5 -53.5q0 -32 -23 -55t-55 -23q-31 0 -54.5 22t-23.5 56z" />
<glyph unicode="&#x1e68;" horiz-adv-x="1018" d="M139 51v113q154 -98 312 -98q168 0 255 69.5t87 194.5q0 110 -58.5 175.5t-253.5 178.5q-218 127 -276 212.5t-58 197.5q0 152 118 258t315 106q128 0 256 -43v-104q-126 57 -269 57q-146 0 -231.5 -74t-85.5 -188q0 -110 58.5 -175t252.5 -177q201 -114 267.5 -202.5 t66.5 -203.5q0 -165 -114.5 -269t-323.5 -104q-74 0 -170.5 23t-147.5 53zM457 -192q0 34 23.5 53.5t52.5 19.5q31 0 55.5 -19.5t24.5 -53.5q0 -32 -23 -55t-55 -23q-31 0 -54.5 22t-23.5 56zM457 1615q0 34 23.5 53.5t52.5 19.5q31 0 55.5 -19.5t24.5 -53.5q0 -32 -23 -55 t-55 -23q-31 0 -54.5 22t-23.5 56z" />
<glyph unicode="&#x1e69;" horiz-adv-x="795" d="M111 45v111q52 -45 126 -71t128 -26q241 0 241 197q0 68 -53 116t-172 99q-147 64 -206.5 132.5t-59.5 166.5q0 125 95.5 202t235.5 77q132 0 226 -54v-104q-114 74 -236 74q-101 0 -163 -52.5t-62 -136.5q0 -73 39 -118.5t172 -104.5q160 -72 220 -133.5t60 -163.5 q0 -122 -91.5 -201.5t-252.5 -79.5q-148 0 -247 70zM333 -192q0 34 23.5 53.5t52.5 19.5q31 0 55.5 -19.5t24.5 -53.5q0 -32 -23 -55t-55 -23q-31 0 -54.5 22t-23.5 56zM349 1266q0 34 23.5 53.5t52.5 19.5q31 0 55.5 -19.5t24.5 -53.5q0 -32 -23 -55t-55 -23 q-31 0 -54.5 22t-23.5 56z" />
<glyph unicode="&#x1e6a;" horiz-adv-x="1047" d="M61 1343v91h926v-91h-414v-1343h-98v1343h-414zM448 1615q0 34 23.5 53.5t52.5 19.5q31 0 55.5 -19.5t24.5 -53.5q0 -32 -23 -55t-55 -23q-31 0 -54.5 22t-23.5 56z" />
<glyph unicode="&#x1e6b;" horiz-adv-x="608" d="M23 940v84h184v266q22 8 46 16q24 7 46 15v-297h270v-84h-270v-676q0 -106 33.5 -153.5t113.5 -47.5q57 0 123 37v-86q-72 -34 -135 -34q-227 0 -227 272v688h-184zM178 1474q0 34 23.5 53.5t52.5 19.5q31 0 55.5 -19.5t24.5 -53.5q0 -32 -23 -55t-55 -23q-31 0 -54.5 22 t-23.5 56z" />
<glyph unicode="&#x1e6c;" horiz-adv-x="1047" d="M61 1343v91h926v-91h-414v-1343h-98v1343h-414zM446 -192q0 34 23.5 53.5t52.5 19.5q31 0 55.5 -19.5t24.5 -53.5q0 -32 -23 -55t-55 -23q-31 0 -54.5 22t-23.5 56z" />
<glyph unicode="&#x1e6d;" horiz-adv-x="608" d="M23 940v84h184v266q22 8 46 16q24 7 46 15v-297h270v-84h-270v-676q0 -106 33.5 -153.5t113.5 -47.5q57 0 123 37v-86q-72 -34 -135 -34q-227 0 -227 272v688h-184zM282 -192q0 34 23.5 53.5t52.5 19.5q31 0 55.5 -19.5t24.5 -53.5q0 -32 -23 -55t-55 -23q-31 0 -54.5 22 t-23.5 56z" />
<glyph unicode="&#x1e6e;" horiz-adv-x="1047" d="M61 1343v91h926v-91h-414v-1343h-98v1343h-414zM271 -173h508v-84h-508v84z" />
<glyph unicode="&#x1e6f;" horiz-adv-x="608" d="M23 940v84h184v266q22 8 46 16q24 7 46 15v-297h270v-84h-270v-676q0 -106 33.5 -153.5t113.5 -47.5q57 0 123 37v-86q-72 -34 -135 -34q-227 0 -227 272v688h-184zM61 -174h508v-84h-508v84z" />
<glyph unicode="&#x1e70;" horiz-adv-x="1047" d="M61 1343v91h926v-91h-414v-1343h-98v1343h-414zM282 -480l221 336h45l219 -336h-86l-157 239l-160 -239h-82z" />
<glyph unicode="&#x1e71;" horiz-adv-x="608" d="M23 940v84h184v266q22 8 46 16q24 7 46 15v-297h270v-84h-270v-676q0 -106 33.5 -153.5t113.5 -47.5q57 0 123 37v-86q-72 -34 -135 -34q-227 0 -227 272v688h-184zM120 -479l221 336h45l219 -336h-86l-157 239l-160 -239h-82z" />
<glyph unicode="&#x1e72;" horiz-adv-x="1327" d="M166 551v883h98v-869q0 -499 406 -499q393 0 393 485v883h98v-861q0 -598 -510 -598q-485 0 -485 576zM425 -274q0 31 22 50t48 19q29 0 52 -19.5t23 -49.5q0 -31 -21 -51.5t-52 -20.5q-28 0 -50 19.5t-22 52.5zM759 -274q0 31 21.5 50t47.5 19q29 0 52.5 -19.5 t23.5 -49.5q0 -31 -21.5 -51.5t-52.5 -20.5q-27 0 -49 19.5t-22 52.5z" />
<glyph unicode="&#x1e73;" d="M143 432v592h93v-569q0 -208 68.5 -302t215.5 -94q143 0 231.5 105t88.5 280v580h92v-1024h-92v186h-4q-107 -211 -330 -211q-363 0 -363 457zM297 -273q0 31 22 50t48 19q29 0 52 -19.5t23 -49.5q0 -31 -21 -51.5t-52 -20.5q-28 0 -50 19.5t-22 52.5zM631 -273 q0 31 21.5 50t47.5 19q29 0 52.5 -19.5t23.5 -49.5q0 -31 -21.5 -51.5t-52.5 -20.5q-27 0 -49 19.5t-22 52.5z" />
<glyph unicode="&#x1e74;" horiz-adv-x="1327" d="M166 551v883h98v-869q0 -499 406 -499q393 0 393 485v883h98v-861q0 -598 -510 -598q-485 0 -485 576zM351 -367q0 100 48 160.5t128 60.5q72 0 160 -72q67 -59 117 -59q40 0 68 37t28 108h74q0 -103 -48.5 -163t-130.5 -60q-66 0 -151 76q-64 55 -119 55 q-102 0 -102 -143h-72z" />
<glyph unicode="&#x1e75;" d="M143 432v592h93v-569q0 -208 68.5 -302t215.5 -94q143 0 231.5 105t88.5 280v580h92v-1024h-92v186h-4q-107 -211 -330 -211q-363 0 -363 457zM252 -367q0 100 48 160.5t128 60.5q72 0 160 -72q67 -59 117 -59q40 0 68 37t28 108h74q0 -103 -48.5 -163t-130.5 -60 q-66 0 -151 76q-64 55 -119 55q-102 0 -102 -143h-72z" />
<glyph unicode="&#x1e76;" horiz-adv-x="1327" d="M166 551v883h98v-869q0 -499 406 -499q393 0 393 485v883h98v-861q0 -598 -510 -598q-485 0 -485 576zM418 -480l221 336h45l219 -336h-86l-157 239l-160 -239h-82z" />
<glyph unicode="&#x1e77;" d="M143 432v592h93v-569q0 -208 68.5 -302t215.5 -94q143 0 231.5 105t88.5 280v580h92v-1024h-92v186h-4q-107 -211 -330 -211q-363 0 -363 457zM296 -480l221 336h45l219 -336h-86l-157 239l-160 -239h-82z" />
<glyph unicode="&#x1e78;" horiz-adv-x="1327" d="M166 551v883h98v-869q0 -499 406 -499q393 0 393 485v883h98v-861q0 -598 -510 -598q-485 0 -485 576zM360 1548q0 100 48 160.5t128 60.5q72 0 160 -72q67 -59 117 -59q40 0 68 37t28 108h74q0 -103 -48.5 -163t-130.5 -60q-66 0 -151 76q-64 55 -119 55 q-102 0 -102 -143h-72zM543 1830l234 246h104l-248 -246h-90z" />
<glyph unicode="&#x1e79;" d="M143 432v592h93v-569q0 -208 68.5 -302t215.5 -94q143 0 231.5 105t88.5 280v580h92v-1024h-92v186h-4q-107 -211 -330 -211q-363 0 -363 457zM230 1188q0 100 48 160.5t128 60.5q72 0 160 -72q67 -59 117 -59q40 0 68 37t28 108h74q0 -103 -48.5 -163t-130.5 -60 q-66 0 -151 76q-64 55 -119 55q-102 0 -102 -143h-72zM413 1470l234 246h104l-248 -246h-90z" />
<glyph unicode="&#x1e7a;" horiz-adv-x="1327" d="M166 551v883h98v-869q0 -499 406 -499q393 0 393 485v883h98v-861q0 -598 -510 -598q-485 0 -485 576zM408 1566v84h508v-84h-508zM421 1853q0 31 22 50t48 19q29 0 52 -19.5t23 -49.5q0 -31 -21 -51.5t-52 -20.5q-28 0 -50 19.5t-22 52.5zM755 1853q0 31 21.5 50 t47.5 19q29 0 52.5 -19.5t23.5 -49.5q0 -31 -21.5 -51.5t-52.5 -20.5q-27 0 -49 19.5t-22 52.5z" />
<glyph unicode="&#x1e7b;" d="M143 432v592h93v-569q0 -208 68.5 -302t215.5 -94q143 0 231.5 105t88.5 280v580h92v-1024h-92v186h-4q-107 -211 -330 -211q-363 0 -363 457zM283 1188v84h508v-84h-508zM296 1475q0 31 22 50t48 19q29 0 52 -19.5t23 -49.5q0 -31 -21 -51.5t-52 -20.5q-28 0 -50 19.5 t-22 52.5zM630 1475q0 31 21.5 50t47.5 19q29 0 52.5 -19.5t23.5 -49.5q0 -31 -21.5 -51.5t-52.5 -20.5q-27 0 -49 19.5t-22 52.5z" />
<glyph unicode="&#x1e7c;" horiz-adv-x="1237" d="M41 1434h111l415 -1155q26 -72 37 -136h4q10 51 41 138l441 1153h106l-557 -1434h-74zM293 1537q0 100 48 160.5t128 60.5q72 0 160 -72q67 -59 117 -59q40 0 68 37t28 108h74q0 -103 -48.5 -163t-130.5 -60q-66 0 -151 76q-64 55 -119 55q-102 0 -102 -143h-72z" />
<glyph unicode="&#x1e7d;" horiz-adv-x="928" d="M20 1024h103l305 -815q22 -59 31 -107h4q13 63 29 103l315 819h100l-407 -1024h-84zM151 1188q0 100 48 160.5t128 60.5q72 0 160 -72q67 -59 117 -59q40 0 68 37t28 108h74q0 -103 -48.5 -163t-130.5 -60q-66 0 -151 76q-64 55 -119 55q-102 0 -102 -143h-72z" />
<glyph unicode="&#x1e7e;" horiz-adv-x="1237" d="M41 1434h111l415 -1155q26 -72 37 -136h4q10 51 41 138l441 1153h106l-557 -1434h-74zM527 -192q0 34 23.5 53.5t52.5 19.5q31 0 55.5 -19.5t24.5 -53.5q0 -32 -23 -55t-55 -23q-31 0 -54.5 22t-23.5 56z" />
<glyph unicode="&#x1e7f;" horiz-adv-x="928" d="M20 1024h103l305 -815q22 -59 31 -107h4q13 63 29 103l315 819h100l-407 -1024h-84zM382 -192q0 34 23.5 53.5t52.5 19.5q31 0 55.5 -19.5t24.5 -53.5q0 -32 -23 -55t-55 -23q-31 0 -54.5 22t-23.5 56z" />
<glyph unicode="&#x1e80;" horiz-adv-x="1833" d="M51 1434h111l327 -1149q22 -78 31 -127h4q6 37 35 127l354 1149h50l325 -1149q23 -80 31 -127h4q5 28 16 64l336 1212h107l-420 -1434h-82l-319 1079q-24 83 -27 135h-4q-3 -44 -31 -133l-340 -1081h-82zM672 1864h104l234 -328h-90z" />
<glyph unicode="&#x1e81;" horiz-adv-x="1386" d="M37 1024h102l238 -817q9 -32 14 -86h8q2 29 19 86l260 817h63l232 -817q8 -29 14 -86h8q0 29 17 86l243 817h95l-318 -1024h-86l-223 772q-9 32 -16 86h-5q-2 -23 -20 -84l-250 -774h-86zM444 1516h104l234 -328h-90z" />
<glyph unicode="&#x1e82;" horiz-adv-x="1833" d="M51 1434h111l327 -1149q22 -78 31 -127h4q6 37 35 127l354 1149h50l325 -1149q23 -80 31 -127h4q5 28 16 64l336 1212h107l-420 -1434h-82l-319 1079q-24 83 -27 135h-4q-3 -44 -31 -133l-340 -1081h-82zM861 1536l234 328h104l-248 -328h-90z" />
<glyph unicode="&#x1e83;" horiz-adv-x="1386" d="M37 1024h102l238 -817q9 -32 14 -86h8q2 29 19 86l260 817h63l232 -817q8 -29 14 -86h8q0 29 17 86l243 817h95l-318 -1024h-86l-223 772q-9 32 -16 86h-5q-2 -23 -20 -84l-250 -774h-86zM654 1188l234 328h104l-248 -328h-90z" />
<glyph unicode="&#x1e84;" horiz-adv-x="1833" d="M51 1434h111l327 -1149q22 -78 31 -127h4q6 37 35 127l354 1149h50l325 -1149q23 -80 31 -127h4q5 28 16 64l336 1212h107l-420 -1434h-82l-319 1079q-24 83 -27 135h-4q-3 -44 -31 -133l-340 -1081h-82zM690 1609q0 31 22 50t48 19q29 0 52 -19.5t23 -49.5 q0 -31 -21 -51.5t-52 -20.5q-28 0 -50 19.5t-22 52.5zM1024 1609q0 31 21.5 50t47.5 19q29 0 52.5 -19.5t23.5 -49.5q0 -31 -21.5 -51.5t-52.5 -20.5q-27 0 -49 19.5t-22 52.5z" />
<glyph unicode="&#x1e85;" horiz-adv-x="1386" d="M37 1024h102l238 -817q9 -32 14 -86h8q2 29 19 86l260 817h63l232 -817q8 -29 14 -86h8q0 29 17 86l243 817h95l-318 -1024h-86l-223 772q-9 32 -16 86h-5q-2 -23 -20 -84l-250 -774h-86zM466 1260q0 31 22 50t48 19q29 0 52 -19.5t23 -49.5q0 -31 -21 -51.5t-52 -20.5 q-28 0 -50 19.5t-22 52.5zM800 1260q0 31 21.5 50t47.5 19q29 0 52.5 -19.5t23.5 -49.5q0 -31 -21.5 -51.5t-52.5 -20.5q-27 0 -49 19.5t-22 52.5z" />
<glyph unicode="&#x1e86;" horiz-adv-x="1833" d="M51 1434h111l327 -1149q22 -78 31 -127h4q6 37 35 127l354 1149h50l325 -1149q23 -80 31 -127h4q5 28 16 64l336 1212h107l-420 -1434h-82l-319 1079q-24 83 -27 135h-4q-3 -44 -31 -133l-340 -1081h-82zM854 1615q0 34 23.5 53.5t52.5 19.5q31 0 55.5 -19.5t24.5 -53.5 q0 -32 -23 -55t-55 -23q-31 0 -54.5 22t-23.5 56z" />
<glyph unicode="&#x1e87;" horiz-adv-x="1386" d="M37 1024h102l238 -817q9 -32 14 -86h8q2 29 19 86l260 817h63l232 -817q8 -29 14 -86h8q0 29 17 86l243 817h95l-318 -1024h-86l-223 772q-9 32 -16 86h-5q-2 -23 -20 -84l-250 -774h-86zM629 1266q0 34 23.5 53.5t52.5 19.5q31 0 55.5 -19.5t24.5 -53.5q0 -32 -23 -55 t-55 -23q-31 0 -54.5 22t-23.5 56z" />
<glyph unicode="&#x1e88;" horiz-adv-x="1833" d="M51 1434h111l327 -1149q22 -78 31 -127h4q6 37 35 127l354 1149h50l325 -1149q23 -80 31 -127h4q5 28 16 64l336 1212h107l-420 -1434h-82l-319 1079q-24 83 -27 135h-4q-3 -44 -31 -133l-340 -1081h-82zM850 -192q0 34 23.5 53.5t52.5 19.5q31 0 55.5 -19.5t24.5 -53.5 q0 -32 -23 -55t-55 -23q-31 0 -54.5 22t-23.5 56z" />
<glyph unicode="&#x1e89;" horiz-adv-x="1386" d="M37 1024h102l238 -817q9 -32 14 -86h8q2 29 19 86l260 817h63l232 -817q8 -29 14 -86h8q0 29 17 86l243 817h95l-318 -1024h-86l-223 772q-9 32 -16 86h-5q-2 -23 -20 -84l-250 -774h-86zM626 -192q0 34 23.5 53.5t52.5 19.5q31 0 55.5 -19.5t24.5 -53.5q0 -32 -23 -55 t-55 -23q-31 0 -54.5 22t-23.5 56z" />
<glyph unicode="&#x1e8a;" horiz-adv-x="1153" d="M61 0l453 723l-426 711h119l321 -539q25 -42 52 -96h4l53 96l319 539h115l-430 -709l440 -725h-120l-330 547q-31 51 -53 100h-5q-27 -55 -57 -100l-336 -547h-119zM499 1615q0 34 23.5 53.5t52.5 19.5q31 0 55.5 -19.5t24.5 -53.5q0 -32 -23 -55t-55 -23q-31 0 -54.5 22 t-23.5 56z" />
<glyph unicode="&#x1e8b;" horiz-adv-x="862" d="M33 0l342 500l-336 524h108l228 -367q44 -71 53 -88h4l51 84l238 371h108l-348 -522l334 -502h-117l-270 432h-4l-36 -57q-7 -12 -17 -27l-226 -348h-112zM349 1266q0 34 23.5 53.5t52.5 19.5q31 0 55.5 -19.5t24.5 -53.5q0 -32 -23 -55t-55 -23q-31 0 -54.5 22t-23.5 56 z" />
<glyph unicode="&#x1e8c;" horiz-adv-x="1153" d="M61 0l453 723l-426 711h119l321 -539q25 -42 52 -96h4l53 96l319 539h115l-430 -709l440 -725h-120l-330 547q-31 51 -53 100h-5q-27 -55 -57 -100l-336 -547h-119zM342 1609q0 31 22 50t48 19q29 0 52 -19.5t23 -49.5q0 -31 -21 -51.5t-52 -20.5q-28 0 -50 19.5 t-22 52.5zM676 1609q0 31 21.5 50t47.5 19q29 0 52.5 -19.5t23.5 -49.5q0 -31 -21.5 -51.5t-52.5 -20.5q-27 0 -49 19.5t-22 52.5z" />
<glyph unicode="&#x1e8d;" horiz-adv-x="862" d="M33 0l342 500l-336 524h108l228 -367q44 -71 53 -88h4l51 84l238 371h108l-348 -522l334 -502h-117l-270 432h-4l-36 -57q-7 -12 -17 -27l-226 -348h-112zM193 1260q0 31 22 50t48 19q29 0 52 -19.5t23 -49.5q0 -31 -21 -51.5t-52 -20.5q-28 0 -50 19.5t-22 52.5z M527 1260q0 31 21.5 50t47.5 19q29 0 52.5 -19.5t23.5 -49.5q0 -31 -21.5 -51.5t-52.5 -20.5q-27 0 -49 19.5t-22 52.5z" />
<glyph unicode="&#x1e8e;" horiz-adv-x="1106" d="M61 1434h111l334 -691q18 -36 45 -106h4q14 37 49 104l350 693h107l-463 -889v-545h-98v543zM473 1615q0 34 23.5 53.5t52.5 19.5q31 0 55.5 -19.5t24.5 -53.5q0 -32 -23 -55t-55 -23q-31 0 -54.5 22t-23.5 56z" />
<glyph unicode="&#x1e8f;" horiz-adv-x="928" d="M20 1024h103l309 -834q10 -27 14 -41q4 -19 9 -34h4l24 69l330 840h100l-499 -1233q-56 -138 -124 -205t-175 -67q-45 0 -80 14v92q36 -14 84 -14q123 0 194 170l95 227zM381 1266q0 34 23.5 53.5t52.5 19.5q31 0 55.5 -19.5t24.5 -53.5q0 -32 -23 -55t-55 -23 q-31 0 -54.5 22t-23.5 56z" />
<glyph unicode="&#x1e90;" horiz-adv-x="1167" d="M66 0v31l868 1312h-799v91h952v-27l-872 -1317h858v-90h-1007zM348 1537l221 336h45l219 -336h-86l-157 239l-160 -239h-82z" />
<glyph unicode="&#x1e91;" horiz-adv-x="950" d="M57 0v35l680 905h-631v84h787v-25l-686 -915h661v-84h-811zM254 1188l221 336h45l219 -336h-86l-157 239l-160 -239h-82z" />
<glyph unicode="&#x1e92;" horiz-adv-x="1167" d="M66 0v31l868 1312h-799v91h952v-27l-872 -1317h858v-90h-1007zM516 -192q0 34 23.5 53.5t52.5 19.5q31 0 55.5 -19.5t24.5 -53.5q0 -32 -23 -55t-55 -23q-31 0 -54.5 22t-23.5 56z" />
<glyph unicode="&#x1e93;" horiz-adv-x="950" d="M57 0v35l680 905h-631v84h787v-25l-686 -915h661v-84h-811zM417 -192q0 34 23.5 53.5t52.5 19.5q31 0 55.5 -19.5t24.5 -53.5q0 -32 -23 -55t-55 -23q-31 0 -54.5 22t-23.5 56z" />
<glyph unicode="&#x1e94;" horiz-adv-x="1167" d="M66 0v31l868 1312h-799v91h952v-27l-872 -1317h858v-90h-1007zM329 -173h508v-84h-508v84z" />
<glyph unicode="&#x1e95;" horiz-adv-x="950" d="M57 0v35l680 905h-631v84h787v-25l-686 -915h661v-84h-811zM217 -174h508v-84h-508v84z" />
<glyph unicode="&#x1e96;" d="M164 0v1516h92v-676h4q121 209 352 209q166 0 253 -107t87 -307v-635h-92v614q0 182 -66 266.5t-206 84.5q-132 0 -232 -103t-100 -295v-567h-92zM306 -173h508v-84h-508v84z" />
<glyph unicode="&#x1e97;" horiz-adv-x="608" d="M23 940v84h184v266q22 8 46 16q24 7 46 15v-297h270v-84h-270v-676q0 -106 33.5 -153.5t113.5 -47.5q57 0 123 37v-86q-72 -34 -135 -34q-227 0 -227 272v688h-184zM43 1468q0 31 22 50t48 19q29 0 52 -19.5t23 -49.5q0 -31 -21 -51.5t-52 -20.5q-28 0 -50 19.5t-22 52.5 zM377 1468q0 31 21.5 50t47.5 19q29 0 52.5 -19.5t23.5 -49.5q0 -31 -21.5 -51.5t-52.5 -20.5q-27 0 -49 19.5t-22 52.5z" />
<glyph unicode="&#x1e98;" horiz-adv-x="1386" d="M37 1024h102l238 -817q9 -32 14 -86h8q2 29 19 86l260 817h63l232 -817q8 -29 14 -86h8q0 29 17 86l243 817h95l-318 -1024h-86l-223 772q-9 32 -16 86h-5q-2 -23 -20 -84l-250 -774h-86zM503 1372q0 80 57 132t144 52q88 0 144.5 -50.5t56.5 -133.5q0 -80 -58 -132 t-143 -52q-86 0 -143.5 50.5t-57.5 133.5zM577 1372q0 -53 36.5 -85t90.5 -32q57 0 93 32.5t36 84.5q0 57 -37.5 87t-91.5 30q-57 0 -92 -32t-35 -85z" />
<glyph unicode="&#x1e99;" horiz-adv-x="928" d="M20 1024h103l309 -834q10 -27 14 -41q4 -19 9 -34h4l24 69l330 840h100l-499 -1233q-56 -138 -124 -205t-175 -67q-45 0 -80 14v92q36 -14 84 -14q123 0 194 170l95 227zM257 1372q0 80 57 132t144 52q88 0 144.5 -50.5t56.5 -133.5q0 -80 -58 -132t-143 -52 q-86 0 -143.5 50.5t-57.5 133.5zM331 1372q0 -53 36.5 -85t90.5 -32q57 0 93 32.5t36 84.5q0 57 -37.5 87t-91.5 30q-57 0 -92 -32t-35 -85z" />
<glyph unicode="&#x1e9a;" horiz-adv-x="1012" d="M106 264q0 268 355 324l315 47q0 330 -248 330q-169 0 -329 -136v111q57 45 154.5 77t183.5 32q158 0 244.5 -98t86.5 -285v-666h-92v205h-4q-49 -105 -142.5 -167.5t-207.5 -62.5q-146 0 -231 82t-85 207zM203 268q0 -91 60.5 -150t168.5 -59q148 0 246 109.5t98 282.5 v100l-282 -41q-161 -23 -226 -74.5t-65 -167.5zM440 1203v72q24 0 44.5 6.5t36 20t24.5 35t9 50.5q0 28 -9 49t-24.5 34t-36 19.5t-44.5 6.5v72q39 0 75 -11t63 -33.5t43.5 -57t16.5 -80.5t-16.5 -80.5t-43.5 -57t-63 -34t-75 -11.5z" />
<glyph unicode="&#x1e9b;" horiz-adv-x="510" d="M75 1615q0 34 23.5 53.5t52.5 19.5q31 0 55.5 -19.5t24.5 -53.5q0 -32 -23 -55t-55 -23q-31 0 -54.5 22t-23.5 56zM164 0v1202q0 162 81.5 246t203.5 84q65 0 108 -19v-94q-37 29 -112 29q-189 0 -189 -254v-1194h-92z" />
<glyph unicode="&#x1e9c;" horiz-adv-x="565" d="M35 472v82l184 106v280h-184v84h184v178q0 82 22 144t60.5 103t90.5 62t112 21q66 0 108 -19v-94q-38 29 -112 29q-189 0 -189 -254v-481l301 174v-82l-301 -174v-631h-92v578z" />
<glyph unicode="&#x1e9d;" horiz-adv-x="565" d="M35 940v84h184v116h-184v84h184q3 76 26 134t61.5 96.5t89 58t108.5 19.5q66 0 108 -19v-94q-38 29 -112 29q-177 0 -189 -224h271v-84h-271v-1140h-92v940h-184z" />
<glyph unicode="&#x1e9e;" horiz-adv-x="1225" d="M184 0v1033q0 121 35 202t93 129.5t133.5 69t156.5 20.5q86 0 155.5 -23t118.5 -66t75.5 -102.5t26.5 -133.5q0 -134 -74.5 -224t-214.5 -131v-5q100 -12 177 -46.5t130 -87.5t80.5 -122.5t27.5 -152.5q0 -91 -28.5 -162.5t-78.5 -121t-119.5 -75t-151.5 -25.5 q-81 0 -149 14.5t-109 31.5v104q23 -12 54 -22.5t65.5 -19t70.5 -13t69 -4.5q63 0 114 19t87.5 56t56.5 91.5t20 125.5q0 82 -30 147.5t-91 111.5t-154.5 72.5t-221.5 30.5v86q85 11 153 32t116 58t73.5 93t25.5 138q0 117 -75.5 176t-205.5 59q-160 0 -236 -84t-76 -253 v-1026h-99z" />
<glyph unicode="&#x1e9f;" horiz-adv-x="1184" d="M90 438q0 110 40 196t105.5 151t148 110t167.5 73q-39 28 -85 58.5t-85.5 69.5t-66.5 88t-27 114q0 59 28 104.5t78.5 76t119.5 46t150 15.5q97 0 175.5 -21.5t144.5 -50.5v-106q-35 21 -74 38t-80 29.5t-83 19.5t-81 7q-137 0 -208.5 -43.5t-71.5 -122.5 q0 -46 21.5 -83.5t64.5 -74.5t108 -77t152 -92q81 -48 148 -103.5t114.5 -118.5t74 -133.5t26.5 -148.5q0 -107 -36 -196t-102 -153t-160 -99.5t-210 -35.5q-111 0 -202 36t-156.5 98.5t-101.5 147t-36 181.5zM186 446q0 -93 33.5 -165.5t89.5 -121.5t130.5 -74.5 t156.5 -25.5t155 25.5t127.5 75t86.5 121t32 163.5q0 87 -31 156.5t-82 126t-115.5 101.5t-131.5 83q-42 -13 -91.5 -31.5t-99.5 -44.5t-97 -61.5t-83 -82.5t-58 -108t-22 -137z" />
<glyph unicode="&#x1ea0;" horiz-adv-x="1288" d="M59 0l541 1434h94l535 -1434h-111l-164 446h-622l-164 -446h-109zM367 537h553l-242 663q-11 30 -18 59q-7 25 -15 50h-4q-17 -66 -33 -107zM563 -192q0 34 23.5 53.5t52.5 19.5q31 0 55.5 -19.5t24.5 -53.5q0 -32 -23 -55t-55 -23q-31 0 -54.5 22t-23.5 56z" />
<glyph unicode="&#x1ea1;" horiz-adv-x="1012" d="M106 264q0 268 355 324l315 47q0 330 -248 330q-169 0 -329 -136v111q57 45 154.5 77t183.5 32q158 0 244.5 -98t86.5 -285v-666h-92v205h-4q-49 -105 -142.5 -167.5t-207.5 -62.5q-146 0 -231 82t-85 207zM203 268q0 -91 60.5 -150t168.5 -59q148 0 246 109.5t98 282.5 v100l-282 -41q-161 -23 -226 -74.5t-65 -167.5zM457 -192q0 34 23.5 53.5t52.5 19.5q31 0 55.5 -19.5t24.5 -53.5q0 -32 -23 -55t-55 -23q-31 0 -54.5 22t-23.5 56z" />
<glyph unicode="&#x1ea2;" horiz-adv-x="1288" d="M59 0l541 1434h94l535 -1434h-111l-164 446h-622l-164 -446h-109zM367 537h553l-242 663q-11 30 -18 59q-7 25 -15 50h-4q-17 -66 -33 -107zM540 1836v82q19 3 38.5 5t41.5 2q91 0 139.5 -39.5t48.5 -115.5q0 -65 -32.5 -102.5t-104.5 -45.5v-54h-72v115q64 0 93 21.5 t29 63.5q0 38 -26.5 57t-73.5 19q-26 0 -46 -2t-35 -6z" />
<glyph unicode="&#x1ea3;" horiz-adv-x="1012" d="M106 264q0 268 355 324l315 47q0 330 -248 330q-169 0 -329 -136v111q57 45 154.5 77t183.5 32q158 0 244.5 -98t86.5 -285v-666h-92v205h-4q-49 -105 -142.5 -167.5t-207.5 -62.5q-146 0 -231 82t-85 207zM203 268q0 -91 60.5 -150t168.5 -59q148 0 246 109.5t98 282.5 v100l-282 -41q-161 -23 -226 -74.5t-65 -167.5zM415 1486v82q19 3 38.5 5t41.5 2q91 0 139.5 -39.5t48.5 -115.5q0 -65 -32.5 -102.5t-104.5 -45.5v-54h-72v115q64 0 93 21.5t29 63.5q0 38 -26.5 57t-73.5 19q-26 0 -46 -2t-35 -6z" />
<glyph unicode="&#x1ea4;" horiz-adv-x="1288" d="M59 0l541 1434h94l535 -1434h-111l-164 446h-622l-164 -446h-109zM367 537h553l-242 663q-11 30 -18 59q-7 25 -15 50h-4q-17 -66 -33 -107zM401 1537l221 336h45l219 -336h-86l-157 239l-160 -239h-82zM833 1719l234 246h104l-248 -246h-90z" />
<glyph unicode="&#x1ea5;" horiz-adv-x="1012" d="M106 264q0 268 355 324l315 47q0 330 -248 330q-169 0 -329 -136v111q57 45 154.5 77t183.5 32q158 0 244.5 -98t86.5 -285v-666h-92v205h-4q-49 -105 -142.5 -167.5t-207.5 -62.5q-146 0 -231 82t-85 207zM203 268q0 -91 60.5 -150t168.5 -59q148 0 246 109.5t98 282.5 v100l-282 -41q-161 -23 -226 -74.5t-65 -167.5zM303 1188l221 336h45l219 -336h-86l-157 239l-160 -239h-82zM735 1370l234 246h104l-248 -246h-90z" />
<glyph unicode="&#x1ea6;" horiz-adv-x="1288" d="M59 0l541 1434h94l535 -1434h-111l-164 446h-622l-164 -446h-109zM118 1965h104l234 -246h-90zM367 537h553l-242 663q-11 30 -18 59q-7 25 -15 50h-4q-17 -66 -33 -107zM403 1537l219 336h45l221 -336h-82l-160 239l-157 -239h-86z" />
<glyph unicode="&#x1ea7;" horiz-adv-x="1012" d="M20 1616h104l234 -246h-90zM106 264q0 268 355 324l315 47q0 330 -248 330q-169 0 -329 -136v111q57 45 154.5 77t183.5 32q158 0 244.5 -98t86.5 -285v-666h-92v205h-4q-49 -105 -142.5 -167.5t-207.5 -62.5q-146 0 -231 82t-85 207zM203 268q0 -91 60.5 -150t168.5 -59 q148 0 246 109.5t98 282.5v100l-282 -41q-161 -23 -226 -74.5t-65 -167.5zM305 1188l219 336h45l221 -336h-82l-160 239l-157 -239h-86z" />
<glyph unicode="&#x1ea8;" horiz-adv-x="1288" d="M59 0l541 1434h94l535 -1434h-111l-164 446h-622l-164 -446h-109zM367 537h553l-242 663q-11 30 -18 59q-7 25 -15 50h-4q-17 -66 -33 -107zM400 1538l221 336h45l219 -336h-86l-157 239l-160 -239h-82zM824 1974v82q19 3 38.5 5t41.5 2q91 0 139.5 -39.5t48.5 -115.5 q0 -65 -32.5 -102.5t-104.5 -45.5v-54h-72v115q64 0 93 21.5t29 63.5q0 38 -26.5 57t-73.5 19q-26 0 -46 -2t-35 -6z" />
<glyph unicode="&#x1ea9;" horiz-adv-x="1012" d="M106 264q0 268 355 324l315 47q0 330 -248 330q-169 0 -329 -136v111q57 45 154.5 77t183.5 32q158 0 244.5 -98t86.5 -285v-666h-92v205h-4q-49 -105 -142.5 -167.5t-207.5 -62.5q-146 0 -231 82t-85 207zM203 268q0 -91 60.5 -150t168.5 -59q148 0 246 109.5t98 282.5 v100l-282 -41q-161 -23 -226 -74.5t-65 -167.5zM276 1188l221 336h45l219 -336h-86l-157 239l-160 -239h-82zM700 1624v82q19 3 38.5 5t41.5 2q91 0 139.5 -39.5t48.5 -115.5q0 -65 -32.5 -102.5t-104.5 -45.5v-54h-72v115q64 0 93 21.5t29 63.5q0 38 -26.5 57t-73.5 19 q-26 0 -46 -2t-35 -6z" />
<glyph unicode="&#x1eaa;" horiz-adv-x="1288" d="M59 0l541 1434h94l535 -1434h-111l-164 446h-622l-164 -446h-109zM331 1876q0 100 48 160.5t128 60.5q72 0 160 -72q67 -59 117 -59q40 0 68 37t28 108h74q0 -103 -48.5 -163t-130.5 -60q-66 0 -151 76q-64 55 -119 55q-102 0 -102 -143h-72zM367 537h553l-242 663 q-11 30 -18 59q-7 25 -15 50h-4q-17 -66 -33 -107zM397 1535l221 296h45l219 -296h-86l-157 199l-160 -199h-82z" />
<glyph unicode="&#x1eab;" horiz-adv-x="1012" d="M106 264q0 268 355 324l315 47q0 330 -248 330q-169 0 -329 -136v111q57 45 154.5 77t183.5 32q158 0 244.5 -98t86.5 -285v-666h-92v205h-4q-49 -105 -142.5 -167.5t-207.5 -62.5q-146 0 -231 82t-85 207zM203 268q0 -91 60.5 -150t168.5 -59q148 0 246 109.5t98 282.5 v100l-282 -41q-161 -23 -226 -74.5t-65 -167.5zM225 1529q0 100 48 160.5t128 60.5q72 0 160 -72q67 -59 117 -59q40 0 68 37t28 108h74q0 -103 -48.5 -163t-130.5 -60q-66 0 -151 76q-64 55 -119 55q-102 0 -102 -143h-72zM291 1188l221 296h45l219 -296h-86l-157 199 l-160 -199h-82z" />
<glyph unicode="&#x1eac;" horiz-adv-x="1288" d="M59 0l541 1434h94l535 -1434h-111l-164 446h-622l-164 -446h-109zM367 537h553l-242 663q-11 30 -18 59q-7 25 -15 50h-4q-17 -66 -33 -107zM402 1537l221 336h45l219 -336h-86l-157 239l-160 -239h-82zM564 -192q0 34 23.5 53.5t52.5 19.5q31 0 55.5 -19.5t24.5 -53.5 q0 -32 -23 -55t-55 -23q-31 0 -54.5 22t-23.5 56z" />
<glyph unicode="&#x1ead;" horiz-adv-x="1012" d="M106 264q0 268 355 324l315 47q0 330 -248 330q-169 0 -329 -136v111q57 45 154.5 77t183.5 32q158 0 244.5 -98t86.5 -285v-666h-92v205h-4q-49 -105 -142.5 -167.5t-207.5 -62.5q-146 0 -231 82t-85 207zM203 268q0 -91 60.5 -150t168.5 -59q148 0 246 109.5t98 282.5 v100l-282 -41q-161 -23 -226 -74.5t-65 -167.5zM280 1188l221 336h45l219 -336h-86l-157 239l-160 -239h-82zM457 -192q0 34 23.5 53.5t52.5 19.5q31 0 55.5 -19.5t24.5 -53.5q0 -32 -23 -55t-55 -23q-31 0 -54.5 22t-23.5 56z" />
<glyph unicode="&#x1eae;" horiz-adv-x="1288" d="M59 0l541 1434h94l535 -1434h-111l-164 446h-622l-164 -446h-109zM367 537h553l-242 663q-11 30 -18 59q-7 25 -15 50h-4q-17 -66 -33 -107zM375 1770h84q6 -75 55.5 -117t126.5 -42q68 0 120.5 43.5t61.5 115.5h88q-16 -108 -89.5 -171.5t-182.5 -63.5q-110 0 -182.5 62 t-81.5 173zM553 1796l234 246h104l-248 -246h-90z" />
<glyph unicode="&#x1eaf;" horiz-adv-x="1012" d="M106 264q0 268 355 324l315 47q0 330 -248 330q-169 0 -329 -136v111q57 45 154.5 77t183.5 32q158 0 244.5 -98t86.5 -285v-666h-92v205h-4q-49 -105 -142.5 -167.5t-207.5 -62.5q-146 0 -231 82t-85 207zM203 268q0 -91 60.5 -150t168.5 -59q148 0 246 109.5t98 282.5 v100l-282 -41q-161 -23 -226 -74.5t-65 -167.5zM255 1423h84q6 -75 55.5 -117t126.5 -42q68 0 120.5 43.5t61.5 115.5h88q-16 -108 -89.5 -171.5t-182.5 -63.5q-110 0 -182.5 62t-81.5 173zM433 1449l234 246h104l-248 -246h-90z" />
<glyph unicode="&#x1eb0;" horiz-adv-x="1288" d="M59 0l541 1434h94l535 -1434h-111l-164 446h-622l-164 -446h-109zM367 537h553l-242 663q-11 30 -18 59q-7 25 -15 50h-4q-17 -66 -33 -107zM369 1771h88q9 -72 61.5 -115.5t120.5 -43.5q77 0 126.5 42t55.5 117h84q-9 -111 -81.5 -173t-182.5 -62q-109 0 -182.5 63.5 t-89.5 171.5zM389 2043h104l234 -246h-90z" />
<glyph unicode="&#x1eb1;" horiz-adv-x="1012" d="M106 264q0 268 355 324l315 47q0 330 -248 330q-169 0 -329 -136v111q57 45 154.5 77t183.5 32q158 0 244.5 -98t86.5 -285v-666h-92v205h-4q-49 -105 -142.5 -167.5t-207.5 -62.5q-146 0 -231 82t-85 207zM203 268q0 -91 60.5 -150t168.5 -59q148 0 246 109.5t98 282.5 v100l-282 -41q-161 -23 -226 -74.5t-65 -167.5zM258 1423h88q9 -72 61.5 -115.5t120.5 -43.5q77 0 126.5 42t55.5 117h84q-9 -111 -81.5 -173t-182.5 -62q-109 0 -182.5 63.5t-89.5 171.5zM278 1695h104l234 -246h-90z" />
<glyph unicode="&#x1eb2;" horiz-adv-x="1288" d="M59 0l541 1434h94l535 -1434h-111l-164 446h-622l-164 -446h-109zM367 537h553l-242 663q-11 30 -18 59q-7 25 -15 50h-4q-17 -66 -33 -107zM375 1770h88q9 -72 61.5 -115.5t120.5 -43.5q77 0 126.5 42t55.5 117h84q-9 -111 -81.5 -173t-182.5 -62q-109 0 -182.5 63.5 t-89.5 171.5zM530 2041v82q19 3 38.5 5t41.5 2q91 0 139.5 -39.5t48.5 -115.5q0 -65 -32.5 -102.5t-104.5 -45.5v-54h-72v115q64 0 93 21.5t29 63.5q0 38 -26.5 57t-73.5 19q-26 0 -46 -2t-35 -6z" />
<glyph unicode="&#x1eb3;" horiz-adv-x="1012" d="M106 264q0 268 355 324l315 47q0 330 -248 330q-169 0 -329 -136v111q57 45 154.5 77t183.5 32q158 0 244.5 -98t86.5 -285v-666h-92v205h-4q-49 -105 -142.5 -167.5t-207.5 -62.5q-146 0 -231 82t-85 207zM203 268q0 -91 60.5 -150t168.5 -59q148 0 246 109.5t98 282.5 v100l-282 -41q-161 -23 -226 -74.5t-65 -167.5zM250 1423h88q9 -72 61.5 -115.5t120.5 -43.5q77 0 126.5 42t55.5 117h84q-9 -111 -81.5 -173t-182.5 -62q-109 0 -182.5 63.5t-89.5 171.5zM405 1694v82q19 3 38.5 5t41.5 2q91 0 139.5 -39.5t48.5 -115.5q0 -65 -32.5 -102.5 t-104.5 -45.5v-54h-72v115q64 0 93 21.5t29 63.5q0 38 -26.5 57t-73.5 19q-26 0 -46 -2t-35 -6z" />
<glyph unicode="&#x1eb4;" horiz-adv-x="1288" d="M59 0l541 1434h94l535 -1434h-111l-164 446h-622l-164 -446h-109zM331 1876q0 100 48 160.5t128 60.5q72 0 160 -72q67 -59 117 -59q40 0 68 37t28 108h74q0 -103 -48.5 -163t-130.5 -60q-66 0 -151 76q-64 55 -119 55q-102 0 -102 -143h-72zM367 537h553l-242 663 q-11 30 -18 59q-7 25 -15 50h-4q-17 -66 -33 -107zM377 1770h84q6 -75 55.5 -117t126.5 -42q68 0 120.5 43.5t61.5 115.5h88q-16 -108 -89.5 -171.5t-182.5 -63.5q-110 0 -182.5 62t-81.5 173z" />
<glyph unicode="&#x1eb5;" horiz-adv-x="1012" d="M106 264q0 268 355 324l315 47q0 330 -248 330q-169 0 -329 -136v111q57 45 154.5 77t183.5 32q158 0 244.5 -98t86.5 -285v-666h-92v205h-4q-49 -105 -142.5 -167.5t-207.5 -62.5q-146 0 -231 82t-85 207zM203 268q0 -91 60.5 -150t168.5 -59q148 0 246 109.5t98 282.5 v100l-282 -41q-161 -23 -226 -74.5t-65 -167.5zM220 1529q0 100 48 160.5t128 60.5q72 0 160 -72q67 -59 117 -59q40 0 68 37t28 108h74q0 -103 -48.5 -163t-130.5 -60q-66 0 -151 76q-64 55 -119 55q-102 0 -102 -143h-72zM261 1423h88q9 -72 61.5 -115.5t120.5 -43.5 q77 0 126.5 42t55.5 117h84q-9 -111 -81.5 -173t-182.5 -62q-109 0 -182.5 63.5t-89.5 171.5z" />
<glyph unicode="&#x1eb6;" horiz-adv-x="1288" d="M59 0l541 1434h94l535 -1434h-111l-164 446h-622l-164 -446h-109zM367 537h553l-242 663q-11 30 -18 59q-7 25 -15 50h-4q-17 -66 -33 -107zM375 1771h84q6 -75 55.5 -117t126.5 -42q68 0 120.5 43.5t61.5 115.5h88q-16 -108 -89.5 -171.5t-182.5 -63.5q-110 0 -182.5 62 t-81.5 173zM566 -192q0 34 23.5 53.5t52.5 19.5q31 0 55.5 -19.5t24.5 -53.5q0 -32 -23 -55t-55 -23q-31 0 -54.5 22t-23.5 56z" />
<glyph unicode="&#x1eb7;" horiz-adv-x="1012" d="M106 264q0 268 355 324l315 47q0 330 -248 330q-169 0 -329 -136v111q57 45 154.5 77t183.5 32q158 0 244.5 -98t86.5 -285v-666h-92v205h-4q-49 -105 -142.5 -167.5t-207.5 -62.5q-146 0 -231 82t-85 207zM203 268q0 -91 60.5 -150t168.5 -59q148 0 246 109.5t98 282.5 v100l-282 -41q-161 -23 -226 -74.5t-65 -167.5zM237 1423h84q6 -75 55.5 -117t126.5 -42q68 0 120.5 43.5t61.5 115.5h88q-16 -108 -89.5 -171.5t-182.5 -63.5q-110 0 -182.5 62t-81.5 173zM437 -192q0 34 23.5 53.5t52.5 19.5q31 0 55.5 -19.5t24.5 -53.5q0 -32 -23 -55 t-55 -23q-31 0 -54.5 22t-23.5 56z" />
<glyph unicode="&#x1eb8;" horiz-adv-x="1024" d="M184 0v1434h670v-91h-571v-575h530v-90h-530v-588h604v-90h-703zM476 -192q0 34 23.5 53.5t52.5 19.5q31 0 55.5 -19.5t24.5 -53.5q0 -32 -23 -55t-55 -23q-31 0 -54.5 22t-23.5 56z" />
<glyph unicode="&#x1eb9;" horiz-adv-x="1034" d="M90 518q0 224 127.5 377.5t331.5 153.5q191 0 293 -134t102 -366v-41h-758q0 -211 97.5 -330t267.5 -119q172 0 336 127v-98q-159 -113 -355 -113q-198 0 -320 142t-122 401zM190 592h658q-6 177 -85 275t-218 98q-144 0 -238.5 -96.5t-116.5 -276.5zM475 -192 q0 34 23.5 53.5t52.5 19.5q31 0 55.5 -19.5t24.5 -53.5q0 -32 -23 -55t-55 -23q-31 0 -54.5 22t-23.5 56z" />
<glyph unicode="&#x1eba;" horiz-adv-x="1024" d="M184 0v1434h670v-91h-571v-575h530v-90h-530v-588h604v-90h-703zM420 1834v82q19 3 38.5 5t41.5 2q91 0 139.5 -39.5t48.5 -115.5q0 -65 -32.5 -102.5t-104.5 -45.5v-54h-72v115q64 0 93 21.5t29 63.5q0 38 -26.5 57t-73.5 19q-26 0 -46 -2t-35 -6z" />
<glyph unicode="&#x1ebb;" horiz-adv-x="1034" d="M90 518q0 224 127.5 377.5t331.5 153.5q191 0 293 -134t102 -366v-41h-758q0 -211 97.5 -330t267.5 -119q172 0 336 127v-98q-159 -113 -355 -113q-198 0 -320 142t-122 401zM190 592h658q-6 177 -85 275t-218 98q-144 0 -238.5 -96.5t-116.5 -276.5zM432 1486v82 q19 3 38.5 5t41.5 2q91 0 139.5 -39.5t48.5 -115.5q0 -65 -32.5 -102.5t-104.5 -45.5v-54h-72v115q64 0 93 21.5t29 63.5q0 38 -26.5 57t-73.5 19q-26 0 -46 -2t-35 -6z" />
<glyph unicode="&#x1ebc;" horiz-adv-x="1024" d="M184 0v1434h670v-91h-571v-575h530v-90h-530v-588h604v-90h-703zM217 1536q0 100 48 160.5t128 60.5q72 0 160 -72q67 -59 117 -59q40 0 68 37t28 108h74q0 -103 -48.5 -163t-130.5 -60q-66 0 -151 76q-64 55 -119 55q-102 0 -102 -143h-72z" />
<glyph unicode="&#x1ebd;" horiz-adv-x="1034" d="M90 518q0 224 127.5 377.5t331.5 153.5q191 0 293 -134t102 -366v-41h-758q0 -211 97.5 -330t267.5 -119q172 0 336 127v-98q-159 -113 -355 -113q-198 0 -320 142t-122 401zM190 592h658q-6 177 -85 275t-218 98q-144 0 -238.5 -96.5t-116.5 -276.5zM221 1188 q0 100 48 160.5t128 60.5q72 0 160 -72q67 -59 117 -59q40 0 68 37t28 108h74q0 -103 -48.5 -163t-130.5 -60q-66 0 -151 76q-64 55 -119 55q-102 0 -102 -143h-72z" />
<glyph unicode="&#x1ebe;" horiz-adv-x="1024" d="M184 0v1434h670v-91h-571v-575h530v-90h-530v-588h604v-90h-703zM292 1535l221 336h45l219 -336h-86l-157 239l-160 -239h-82zM724 1717l234 246h104l-248 -246h-90z" />
<glyph unicode="&#x1ebf;" horiz-adv-x="1034" d="M90 518q0 224 127.5 377.5t331.5 153.5q191 0 293 -134t102 -366v-41h-758q0 -211 97.5 -330t267.5 -119q172 0 336 127v-98q-159 -113 -355 -113q-198 0 -320 142t-122 401zM190 592h658q-6 177 -85 275t-218 98q-144 0 -238.5 -96.5t-116.5 -276.5zM291 1188l221 336 h45l219 -336h-86l-157 239l-160 -239h-82zM723 1370l234 246h104l-248 -246h-90z" />
<glyph unicode="&#x1ec0;" horiz-adv-x="1024" d="M18 1965h104l234 -246h-90zM184 0v1434h670v-91h-571v-575h530v-90h-530v-588h604v-90h-703zM303 1537l219 336h45l221 -336h-82l-160 239l-157 -239h-86z" />
<glyph unicode="&#x1ec1;" horiz-adv-x="1034" d="M16 1616h104l234 -246h-90zM90 518q0 224 127.5 377.5t331.5 153.5q191 0 293 -134t102 -366v-41h-758q0 -211 97.5 -330t267.5 -119q172 0 336 127v-98q-159 -113 -355 -113q-198 0 -320 142t-122 401zM190 592h658q-6 177 -85 275t-218 98q-144 0 -238.5 -96.5 t-116.5 -276.5zM301 1188l219 336h45l221 -336h-82l-160 239l-157 -239h-86z" />
<glyph unicode="&#x1ec2;" horiz-adv-x="1024" d="M184 0v1434h670v-91h-571v-575h530v-90h-530v-588h604v-90h-703zM291 1536l221 336h45l219 -336h-86l-157 239l-160 -239h-82zM715 1972v82q19 3 38.5 5t41.5 2q91 0 139.5 -39.5t48.5 -115.5q0 -65 -32.5 -102.5t-104.5 -45.5v-54h-72v115q64 0 93 21.5t29 63.5 q0 38 -26.5 57t-73.5 19q-26 0 -46 -2t-35 -6z" />
<glyph unicode="&#x1ec3;" horiz-adv-x="1034" d="M90 518q0 224 127.5 377.5t331.5 153.5q191 0 293 -134t102 -366v-41h-758q0 -211 97.5 -330t267.5 -119q172 0 336 127v-98q-159 -113 -355 -113q-198 0 -320 142t-122 401zM190 592h658q-6 177 -85 275t-218 98q-144 0 -238.5 -96.5t-116.5 -276.5zM299 1188l221 336 h45l219 -336h-86l-157 239l-160 -239h-82zM723 1624v82q19 3 38.5 5t41.5 2q91 0 139.5 -39.5t48.5 -115.5q0 -65 -32.5 -102.5t-104.5 -45.5v-54h-72v115q64 0 93 21.5t29 63.5q0 38 -26.5 57t-73.5 19q-26 0 -46 -2t-35 -6z" />
<glyph unicode="&#x1ec4;" horiz-adv-x="1024" d="M184 0v1434h670v-91h-571v-575h530v-90h-530v-588h604v-90h-703zM216 1877q0 100 48 160.5t128 60.5q72 0 160 -72q67 -59 117 -59q40 0 68 37t28 108h74q0 -103 -48.5 -163t-130.5 -60q-66 0 -151 76q-64 55 -119 55q-102 0 -102 -143h-72zM282 1536l221 296h45 l219 -296h-86l-157 199l-160 -199h-82z" />
<glyph unicode="&#x1ec5;" horiz-adv-x="1034" d="M90 518q0 224 127.5 377.5t331.5 153.5q191 0 293 -134t102 -366v-41h-758q0 -211 97.5 -330t267.5 -119q172 0 336 127v-98q-159 -113 -355 -113q-198 0 -320 142t-122 401zM190 592h658q-6 177 -85 275t-218 98q-144 0 -238.5 -96.5t-116.5 -276.5zM219 1529 q0 100 48 160.5t128 60.5q72 0 160 -72q67 -59 117 -59q40 0 68 37t28 108h74q0 -103 -48.5 -163t-130.5 -60q-66 0 -151 76q-64 55 -119 55q-102 0 -102 -143h-72zM285 1188l221 296h45l219 -296h-86l-157 199l-160 -199h-82z" />
<glyph unicode="&#x1ec6;" horiz-adv-x="1024" d="M184 0v1434h670v-91h-571v-575h530v-90h-530v-588h604v-90h-703zM290 1537l221 336h45l219 -336h-86l-157 239l-160 -239h-82zM467 -192q0 34 23.5 53.5t52.5 19.5q31 0 55.5 -19.5t24.5 -53.5q0 -32 -23 -55t-55 -23q-31 0 -54.5 22t-23.5 56z" />
<glyph unicode="&#x1ec7;" horiz-adv-x="1034" d="M90 518q0 224 127.5 377.5t331.5 153.5q191 0 293 -134t102 -366v-41h-758q0 -211 97.5 -330t267.5 -119q172 0 336 127v-98q-159 -113 -355 -113q-198 0 -320 142t-122 401zM190 592h658q-6 177 -85 275t-218 98q-144 0 -238.5 -96.5t-116.5 -276.5zM299 1188l221 336 h45l219 -336h-86l-157 239l-160 -239h-82zM482 -192q0 34 23.5 53.5t52.5 19.5q31 0 55.5 -19.5t24.5 -53.5q0 -32 -23 -55t-55 -23q-31 0 -54.5 22t-23.5 56z" />
<glyph unicode="&#x1ec8;" horiz-adv-x="467" d="M105 1834v82q19 3 38.5 5t41.5 2q91 0 139.5 -39.5t48.5 -115.5q0 -65 -32.5 -102.5t-104.5 -45.5v-54h-72v115q64 0 93 21.5t29 63.5q0 38 -26.5 57t-73.5 19q-26 0 -46 -2t-35 -6zM184 0v1434h99v-1434h-99z" />
<glyph unicode="&#x1ec9;" horiz-adv-x="420" d="M97 1486v82q19 3 38.5 5t41.5 2q91 0 139.5 -39.5t48.5 -115.5q0 -65 -32.5 -102.5t-104.5 -45.5v-54h-72v115q64 0 93 21.5t29 63.5q0 38 -26.5 57t-73.5 19q-26 0 -46 -2t-35 -6zM164 0v1024h92v-1024h-92z" />
<glyph unicode="&#x1eca;" horiz-adv-x="467" d="M155 -192q0 34 23.5 53.5t52.5 19.5q31 0 55.5 -19.5t24.5 -53.5q0 -32 -23 -55t-55 -23q-31 0 -54.5 22t-23.5 56zM184 0v1434h99v-1434h-99z" />
<glyph unicode="&#x1ecb;" horiz-adv-x="420" d="M133 -192q0 34 23.5 53.5t52.5 19.5q31 0 55.5 -19.5t24.5 -53.5q0 -32 -23 -55t-55 -23q-31 0 -54.5 22t-23.5 56zM133 1360q0 33 23.5 53.5t52.5 20.5q31 0 54.5 -20t23.5 -54q0 -32 -23 -55t-55 -23q-30 0 -53 22t-23 56zM164 0v1024h92v-1024h-92z" />
<glyph unicode="&#x1ecc;" horiz-adv-x="1559" d="M109 702q0 343 185.5 549.5t506.5 206.5q290 0 469.5 -198.5t179.5 -520.5q0 -356 -184 -560t-492 -204q-304 0 -484.5 202t-180.5 525zM211 713q0 -296 153 -471.5t408 -175.5q266 0 421 173.5t155 483.5q0 304 -151.5 474.5t-412.5 170.5q-250 0 -411.5 -181 t-161.5 -474zM701 -192q0 34 23.5 53.5t52.5 19.5q31 0 55.5 -19.5t24.5 -53.5q0 -32 -23 -55t-55 -23q-31 0 -54.5 22t-23.5 56z" />
<glyph unicode="&#x1ecd;" horiz-adv-x="1149" d="M90 506q0 255 136.5 399t359.5 144q219 0 346 -143t127 -396q0 -239 -129.5 -387t-354.5 -148q-224 0 -354.5 147.5t-130.5 383.5zM186 504q0 -201 105 -323t287 -122q185 0 285 120t100 333q0 219 -99.5 336t-281.5 117q-181 0 -288.5 -122t-107.5 -339zM503 -192 q0 34 23.5 53.5t52.5 19.5q31 0 55.5 -19.5t24.5 -53.5q0 -32 -23 -55t-55 -23q-31 0 -54.5 22t-23.5 56z" />
<glyph unicode="&#x1ece;" horiz-adv-x="1559" d="M109 702q0 343 185.5 549.5t506.5 206.5q290 0 469.5 -198.5t179.5 -520.5q0 -356 -184 -560t-492 -204q-304 0 -484.5 202t-180.5 525zM211 713q0 -296 153 -471.5t408 -175.5q266 0 421 173.5t155 483.5q0 304 -151.5 474.5t-412.5 170.5q-250 0 -411.5 -181 t-161.5 -474zM673 1834v82q19 3 38.5 5t41.5 2q91 0 139.5 -39.5t48.5 -115.5q0 -65 -32.5 -102.5t-104.5 -45.5v-54h-72v115q64 0 93 21.5t29 63.5q0 38 -26.5 57t-73.5 19q-26 0 -46 -2t-35 -6z" />
<glyph unicode="&#x1ecf;" horiz-adv-x="1149" d="M90 506q0 255 136.5 399t359.5 144q219 0 346 -143t127 -396q0 -239 -129.5 -387t-354.5 -148q-224 0 -354.5 147.5t-130.5 383.5zM186 504q0 -201 105 -323t287 -122q185 0 285 120t100 333q0 219 -99.5 336t-281.5 117q-181 0 -288.5 -122t-107.5 -339zM494 1486v82 q19 3 38.5 5t41.5 2q91 0 139.5 -39.5t48.5 -115.5q0 -65 -32.5 -102.5t-104.5 -45.5v-54h-72v115q64 0 93 21.5t29 63.5q0 38 -26.5 57t-73.5 19q-26 0 -46 -2t-35 -6z" />
<glyph unicode="&#x1ed0;" horiz-adv-x="1559" d="M109 702q0 343 185.5 549.5t506.5 206.5q290 0 469.5 -198.5t179.5 -520.5q0 -356 -184 -560t-492 -204q-304 0 -484.5 202t-180.5 525zM211 713q0 -296 153 -471.5t408 -175.5q266 0 421 173.5t155 483.5q0 304 -151.5 474.5t-412.5 170.5q-250 0 -411.5 -181 t-161.5 -474zM544 1537l221 336h45l219 -336h-86l-157 239l-160 -239h-82zM976 1719l234 246h104l-248 -246h-90z" />
<glyph unicode="&#x1ed1;" horiz-adv-x="1149" d="M90 506q0 255 136.5 399t359.5 144q219 0 346 -143t127 -396q0 -239 -129.5 -387t-354.5 -148q-224 0 -354.5 147.5t-130.5 383.5zM186 504q0 -201 105 -323t287 -122q185 0 285 120t100 333q0 219 -99.5 336t-281.5 117q-181 0 -288.5 -122t-107.5 -339zM373 1188 l221 336h45l219 -336h-86l-157 239l-160 -239h-82zM805 1370l234 246h104l-248 -246h-90z" />
<glyph unicode="&#x1ed2;" horiz-adv-x="1559" d="M109 702q0 343 185.5 549.5t506.5 206.5q290 0 469.5 -198.5t179.5 -520.5q0 -356 -184 -560t-492 -204q-304 0 -484.5 202t-180.5 525zM211 713q0 -296 153 -471.5t408 -175.5q266 0 421 173.5t155 483.5q0 304 -151.5 474.5t-412.5 170.5q-250 0 -411.5 -181 t-161.5 -474zM257 1965h104l234 -246h-90zM542 1537l219 336h45l221 -336h-82l-160 239l-157 -239h-86z" />
<glyph unicode="&#x1ed3;" horiz-adv-x="1149" d="M90 506q0 255 136.5 399t359.5 144q219 0 346 -143t127 -396q0 -239 -129.5 -387t-354.5 -148q-224 0 -354.5 147.5t-130.5 383.5zM92 1616h104l234 -246h-90zM186 504q0 -201 105 -323t287 -122q185 0 285 120t100 333q0 219 -99.5 336t-281.5 117q-181 0 -288.5 -122 t-107.5 -339zM377 1188l219 336h45l221 -336h-82l-160 239l-157 -239h-86z" />
<glyph unicode="&#x1ed4;" horiz-adv-x="1559" d="M109 702q0 343 185.5 549.5t506.5 206.5q290 0 469.5 -198.5t179.5 -520.5q0 -356 -184 -560t-492 -204q-304 0 -484.5 202t-180.5 525zM211 713q0 -296 153 -471.5t408 -175.5q266 0 421 173.5t155 483.5q0 304 -151.5 474.5t-412.5 170.5q-250 0 -411.5 -181 t-161.5 -474zM523 1536l221 336h45l219 -336h-86l-157 239l-160 -239h-82zM947 1972v82q19 3 38.5 5t41.5 2q91 0 139.5 -39.5t48.5 -115.5q0 -65 -32.5 -102.5t-104.5 -45.5v-54h-72v115q64 0 93 21.5t29 63.5q0 38 -26.5 57t-73.5 19q-26 0 -46 -2t-35 -6z" />
<glyph unicode="&#x1ed5;" horiz-adv-x="1149" d="M90 506q0 255 136.5 399t359.5 144q219 0 346 -143t127 -396q0 -239 -129.5 -387t-354.5 -148q-224 0 -354.5 147.5t-130.5 383.5zM186 504q0 -201 105 -323t287 -122q185 0 285 120t100 333q0 219 -99.5 336t-281.5 117q-181 0 -288.5 -122t-107.5 -339zM376 1188 l221 336h45l219 -336h-86l-157 239l-160 -239h-82zM800 1624v82q19 3 38.5 5t41.5 2q91 0 139.5 -39.5t48.5 -115.5q0 -65 -32.5 -102.5t-104.5 -45.5v-54h-72v115q64 0 93 21.5t29 63.5q0 38 -26.5 57t-73.5 19q-26 0 -46 -2t-35 -6z" />
<glyph unicode="&#x1ed6;" horiz-adv-x="1559" d="M109 702q0 343 185.5 549.5t506.5 206.5q290 0 469.5 -198.5t179.5 -520.5q0 -356 -184 -560t-492 -204q-304 0 -484.5 202t-180.5 525zM211 713q0 -296 153 -471.5t408 -175.5q266 0 421 173.5t155 483.5q0 304 -151.5 474.5t-412.5 170.5q-250 0 -411.5 -181 t-161.5 -474zM475 1877q0 100 48 160.5t128 60.5q72 0 160 -72q67 -59 117 -59q40 0 68 37t28 108h74q0 -103 -48.5 -163t-130.5 -60q-66 0 -151 76q-64 55 -119 55q-102 0 -102 -143h-72zM541 1536l221 296h45l219 -296h-86l-157 199l-160 -199h-82z" />
<glyph unicode="&#x1ed7;" horiz-adv-x="1149" d="M90 506q0 255 136.5 399t359.5 144q219 0 346 -143t127 -396q0 -239 -129.5 -387t-354.5 -148q-224 0 -354.5 147.5t-130.5 383.5zM186 504q0 -201 105 -323t287 -122q185 0 285 120t100 333q0 219 -99.5 336t-281.5 117q-181 0 -288.5 -122t-107.5 -339zM290 1529 q0 100 48 160.5t128 60.5q72 0 160 -72q67 -59 117 -59q40 0 68 37t28 108h74q0 -103 -48.5 -163t-130.5 -60q-66 0 -151 76q-64 55 -119 55q-102 0 -102 -143h-72zM356 1188l221 296h45l219 -296h-86l-157 199l-160 -199h-82z" />
<glyph unicode="&#x1ed8;" horiz-adv-x="1559" d="M109 702q0 343 185.5 549.5t506.5 206.5q290 0 469.5 -198.5t179.5 -520.5q0 -356 -184 -560t-492 -204q-304 0 -484.5 202t-180.5 525zM211 713q0 -296 153 -471.5t408 -175.5q266 0 421 173.5t155 483.5q0 304 -151.5 474.5t-412.5 170.5q-250 0 -411.5 -181 t-161.5 -474zM549 1537l221 336h45l219 -336h-86l-157 239l-160 -239h-82zM695 -192q0 34 23.5 53.5t52.5 19.5q31 0 55.5 -19.5t24.5 -53.5q0 -32 -23 -55t-55 -23q-31 0 -54.5 22t-23.5 56z" />
<glyph unicode="&#x1ed9;" horiz-adv-x="1149" d="M90 506q0 255 136.5 399t359.5 144q219 0 346 -143t127 -396q0 -239 -129.5 -387t-354.5 -148q-224 0 -354.5 147.5t-130.5 383.5zM186 504q0 -201 105 -323t287 -122q185 0 285 120t100 333q0 219 -99.5 336t-281.5 117q-181 0 -288.5 -122t-107.5 -339zM376 1188 l221 336h45l219 -336h-86l-157 239l-160 -239h-82zM517 -192q0 34 23.5 53.5t52.5 19.5q31 0 55.5 -19.5t24.5 -53.5q0 -32 -23 -55t-55 -23q-31 0 -54.5 22t-23.5 56z" />
</font>
</defs>
</svg>
