<?xml version="1.0" standalone="no"?>
<!DOCTYPE svg PUBLIC "-//W3C//DTD SVG 1.1//EN" "http://www.w3.org/Graphics/SVG/1.1/DTD/svg11.dtd" >
<svg xmlns="http://www.w3.org/2000/svg">
<metadata></metadata>
<defs>
<font id="segoe_uisemibold" horiz-adv-x="1195" >
<font-face units-per-em="2048" ascent="1638" descent="-410" />
<missing-glyph horiz-adv-x="563" />
<glyph horiz-adv-x="2048" />
<glyph horiz-adv-x="2048" />
<glyph unicode="&#xd;" horiz-adv-x="154" />
<glyph unicode=" "  horiz-adv-x="563" />
<glyph unicode="&#x09;" horiz-adv-x="563" />
<glyph unicode="&#xa0;" horiz-adv-x="563" />
<glyph unicode="!" horiz-adv-x="622" d="M167 112q0 57 42 97t102 40q58 0 100.5 -40t42.5 -97q0 -55 -42.5 -93.5t-100.5 -38.5q-60 0 -102 38.5t-42 93.5zM187 1434h235l-19 -1012h-190z" />
<glyph unicode="&#x22;" horiz-adv-x="896" d="M177 995v447h182v-447h-182zM536 995v447h184v-447h-184z" />
<glyph unicode="#" horiz-adv-x="1211" d="M34 493l28 140h232l55 276h-244l29 140h244l80 385h161l-79 -385h242l82 385h158l-80 -385h228l-31 -140h-227l-58 -276h248l-35 -140h-242l-82 -370h-159l80 370h-242l-78 -370h-159l78 370h-229zM450 633h245l59 276h-244z" />
<glyph unicode="$" horiz-adv-x="1137" d="M144 1048q0 149 106 257.5t269 130.5v180h123v-176q210 -6 290 -56v-214q-109 80 -290 86v-461q220 -102 301 -198t81 -217q0 -147 -101 -246t-281 -126v-217h-123v209q-222 0 -361 86v223q61 -53 165.5 -89t195.5 -36v445q-236 109 -305.5 201t-69.5 218zM356 1068 q0 -74 36 -121t127 -95v399q-75 -15 -119 -64t-44 -119zM642 190q170 36 170 177q0 118 -170 208v-385z" />
<glyph unicode="%" horiz-adv-x="1721" d="M84 1072q0 178 95.5 280.5t257.5 102.5q157 0 243.5 -95t86.5 -267t-97 -275.5t-254 -103.5q-152 0 -242 97.5t-90 260.5zM253 1079q0 -108 46.5 -168t127.5 -60t127 62.5t46 173.5q0 108 -45.5 168t-124.5 60q-82 0 -129.5 -63t-47.5 -173zM324 -10l919 1444h144 l-920 -1444h-143zM926 336q0 178 95.5 280.5t257.5 102.5q157 0 243.5 -95t86.5 -267t-97 -275.5t-254 -103.5q-152 0 -242 97.5t-90 260.5zM1095 343q0 -108 46.5 -168t127.5 -60t127 62.5t46 173.5q0 108 -45.5 168t-124.5 60q-82 0 -129.5 -63t-47.5 -173z" />
<glyph unicode="&#x26;" horiz-adv-x="1465" d="M101 366q0 247 328 416q-151 187 -151 332q0 75 29.5 138t82.5 108.5t126.5 71.5t160.5 26q83 0 150.5 -23t115.5 -64t74 -97.5t26 -122.5q0 -65 -16.5 -117.5t-53 -98.5t-96 -88t-145.5 -84q79 -85 159.5 -169t163.5 -169q21 32 38.5 72t30 84t19.5 91t7 92h203 q0 -275 -174 -481q45 -48 113.5 -118t161.5 -166h-295l-131 139q-43 -38 -95.5 -68.5t-111 -51.5t-121.5 -32t-127 -11q-108 0 -195 28t-148.5 79.5t-95 123.5t-33.5 160zM334 384q0 -53 19.5 -95.5t53.5 -72.5t80.5 -46t100.5 -16q188 0 319 114q-117 121 -366 390 q-110 -57 -158.5 -122t-48.5 -152zM492 1117q0 -92 131 -238q211 108 211 254q0 33 -12.5 62t-33.5 50.5t-49 34t-60 12.5q-42 0 -76.5 -12.5t-59 -36t-38 -55.5t-13.5 -71z" />
<glyph unicode="'" horiz-adv-x="529" d="M173 995v447h183v-447h-183z" />
<glyph unicode="(" horiz-adv-x="680" d="M148 547q0 521 316 887h197q-310 -380 -310 -885q0 -501 309 -875h-196q-316 354 -316 873z" />
<glyph unicode=")" horiz-adv-x="680" d="M20 1434h198q317 -366 317 -887q0 -519 -318 -873h-196q310 374 310 875q0 505 -311 885z" />
<glyph unicode="*" horiz-adv-x="889" d="M73 1081l57 160l257 -103l-32 296h182l-32 -296l257 103l56 -160l-274 -47l192 -229l-142 -98l-148 260l-148 -260l-143 98l193 229z" />
<glyph unicode="+" horiz-adv-x="1422" d="M235 510v165h395v396h165v-396h395v-165h-395v-395h-165v395h-395z" />
<glyph unicode="," horiz-adv-x="494" d="M39 -260l110 499h219l-155 -499h-174z" />
<glyph unicode="-" horiz-adv-x="823" d="M144 474v171h546v-171h-546z" />
<glyph unicode="." horiz-adv-x="494" d="M103 112q0 56 42 96t102 40q61 0 103.5 -40t42.5 -96q0 -55 -42.5 -94.5t-103.5 -39.5q-60 0 -102 39.5t-42 94.5z" />
<glyph unicode="/" horiz-adv-x="847" d="M-37 -238l690 1672h214l-693 -1672h-211z" />
<glyph unicode="0" horiz-adv-x="1137" d="M78 688q0 380 131 575t378 195q473 0 473 -735q0 -364 -133.5 -555.5t-373.5 -191.5q-224 0 -349.5 183t-125.5 529zM315 698q0 -538 256 -538q252 0 252 547q0 566 -247 566q-261 0 -261 -575z" />
<glyph unicode="1" horiz-adv-x="824" d="M82 1050v198q58 19 112 40t106.5 47t106 58t110.5 73h98v-1466h-232v1182q-63 -45 -135.5 -76.5t-165.5 -55.5z" />
<glyph unicode="2" horiz-adv-x="1137" d="M98 0v111q0 68 19 127.5t51 112t75 99t92 90t100 84t100 81.5q46 39 84 76.5t65 77.5t42 84.5t15 96.5q0 57 -17.5 99.5t-49 71t-74.5 43t-94 14.5q-88 0 -179 -41t-175 -123v223q44 33 89 57.5t93 41t101 24.5t113 8q97 0 176 -25.5t135 -75t86.5 -123.5t30.5 -170 q0 -87 -21.5 -156.5t-61 -129.5t-95.5 -114t-125 -111q-58 -47 -115.5 -91.5t-103.5 -87t-74.5 -85t-28.5 -85.5v-5h647v-199h-900z" />
<glyph unicode="3" horiz-adv-x="1137" d="M123 53v218q140 -111 316 -111q143 0 228.5 65t85.5 176q0 244 -373 244h-111v186h106q331 0 331 230q0 212 -258 212q-144 0 -271 -103v206q146 82 345 82q191 0 306 -96t115 -246q0 -283 -288 -364v-4q155 -15 245 -108.5t90 -233.5q0 -193 -145 -311.5t-382 -118.5 q-213 0 -340 77z" />
<glyph unicode="4" horiz-adv-x="1180" d="M52 315v195q88 99 180.5 214.5t178 236t158.5 241.5t123 232h234v-926h213v-193h-213v-315h-225v315h-649zM286 508h415v602q-109 -196 -215.5 -342t-199.5 -260z" />
<glyph unicode="5" horiz-adv-x="1137" d="M155 33v223q141 -95 286 -95q146 0 235 74.5t89 198.5q0 122 -90.5 190t-259.5 68q-58 0 -235 -12l51 754h706v-198h-513l-24 -359q69 4 125 4q228 0 352.5 -117t124.5 -320q0 -213 -142.5 -341.5t-391.5 -128.5q-210 0 -313 59z" />
<glyph unicode="6" horiz-adv-x="1143" d="M102 635q0 199 47.5 353t130.5 258t195 158t242 54q81 0 147.5 -11t106.5 -30v-209q-51 26 -109 44t-133 18q-84 0 -155 -34t-122.5 -99.5t-81 -162t-30.5 -222.5h6q46 71 124.5 112t184.5 41q94 0 169.5 -30.5t129 -88t82.5 -140t29 -185.5q0 -108 -35.5 -197 t-98.5 -153.5t-149.5 -100t-187.5 -35.5q-108 0 -198.5 42t-156 125t-101.5 206.5t-36 286.5zM350 469q0 -51 14.5 -104.5t44.5 -97.5t76.5 -72.5t110.5 -28.5q57 0 101 21t73.5 58t45 87.5t15.5 109.5q0 62 -14.5 113t-44 87.5t-74 56.5t-104.5 20t-105.5 -21.5 t-76.5 -56.5t-46.5 -80t-15.5 -92z" />
<glyph unicode="7" horiz-adv-x="1098" d="M70 1236v198h958v-116q-90 -165 -170 -326.5t-145 -324.5t-113 -328.5t-74 -338.5h-243q24 154 68.5 307.5t104.5 307t134.5 308.5t158.5 313h-679z" />
<glyph unicode="8" horiz-adv-x="1137" d="M91 400q0 62 15.5 120t46.5 107t78 88t110 63q-93 52 -148 133.5t-55 180.5q0 79 32.5 146t90 116t135.5 76.5t170 27.5q93 0 171.5 -28t136 -77t89.5 -116t32 -145q0 -99 -55 -180.5t-146 -133.5q62 -24 109.5 -62.5t79.5 -87.5t48 -107t16 -121q0 -94 -35 -172 t-98 -133.5t-151 -86.5t-194 -31q-105 0 -192.5 31t-151 86.5t-99 133.5t-35.5 172zM317 420q0 -61 18 -110t51 -83t79.5 -52t103.5 -18q55 0 101 18.5t79.5 53t52.5 83t19 108.5q0 55 -18 103.5t-51 84.5t-79.5 57t-103.5 21q-54 0 -100.5 -19.5t-80 -55t-52.5 -84.5 t-19 -107zM366 1068q0 -45 16 -83.5t43 -67t63.5 -44.5t78.5 -16t78.5 16.5t64 45t43.5 67t16 82.5q0 45 -15.5 84t-42.5 67t-64 44t-80 16q-45 0 -82 -16.5t-63.5 -45.5t-41 -67.5t-14.5 -81.5z" />
<glyph unicode="9" horiz-adv-x="1143" d="M86 969q0 112 37 202.5t102 154t153 98t191 34.5q97 0 183.5 -36.5t152 -116t104 -205.5t38.5 -305q0 -215 -46.5 -370t-128 -255t-191 -147.5t-235.5 -47.5q-41 0 -82.5 5t-79 13t-68 17.5t-50.5 18.5v209q21 -13 52 -26.5t67.5 -24t76 -17t76.5 -6.5q85 0 154.5 33 t118.5 98t75.5 161.5t26.5 223.5h-4q-18 -32 -47.5 -60.5t-67.5 -50t-84.5 -34.5t-99.5 -13q-90 0 -167.5 31.5t-134.5 89.5t-89.5 141t-32.5 185zM319 993q0 -68 18.5 -120t51.5 -87.5t79.5 -54t102.5 -18.5q50 0 92.5 18.5t74 50t49.5 74.5t18 92q0 72 -18.5 131 t-51.5 101t-78.5 65t-99.5 23q-48 0 -91.5 -19.5t-76 -55.5t-51.5 -87t-19 -113z" />
<glyph unicode=":" horiz-adv-x="494" d="M103 112q0 56 42 96t102 40q61 0 103.5 -40t42.5 -96q0 -55 -42.5 -94.5t-103.5 -39.5q-60 0 -102 39.5t-42 94.5zM103 903q0 56 42 96t102 40q61 0 103.5 -40t42.5 -96q0 -55 -42.5 -94.5t-103.5 -39.5q-60 0 -102 39.5t-42 94.5z" />
<glyph unicode=";" horiz-adv-x="494" d="M39 -264l109 503h220l-152 -503h-177zM107 908q0 56 40.5 95t99.5 39q57 0 98 -39t41 -95t-41 -96.5t-98 -40.5q-59 0 -99.5 40.5t-40.5 96.5z" />
<glyph unicode="&#x3c;" horiz-adv-x="1422" d="M266 527v106l893 466v-190l-653 -324v-4l653 -294v-189z" />
<glyph unicode="=" horiz-adv-x="1422" d="M235 295v164h955v-164h-955zM235 724v165h955v-165h-955z" />
<glyph unicode="&#x3e;" horiz-adv-x="1422" d="M266 104v189l654 291v6l-654 324v190l893 -465v-106z" />
<glyph unicode="?" horiz-adv-x="909" d="M99 1131v231q164 96 340 96q81 0 153 -21t126 -62t85 -102t31 -142q0 -77 -26 -137t-65.5 -110.5t-85 -89.5t-85 -78t-65.5 -81t-26 -93q0 -43 11 -78t22 -59h-211q-9 25 -16 65t-7 79q0 61 24.5 110.5t61 92.5t79 83t79 78t61 80t24.5 92q0 45 -18 78.5t-49.5 56 t-72 33.5t-86.5 11q-149 0 -284 -133zM274 115q0 57 42 94q43 40 101 40q57 0 100 -40q42 -37 42 -94q0 -56 -42 -94q-44 -39 -100 -39q-57 0 -101 39q-42 38 -42 94z" />
<glyph unicode="@" horiz-adv-x="1955" d="M155 606q0 366 238 607t608 241q347 0 574.5 -202t227.5 -527q0 -238 -123.5 -390.5t-301.5 -152.5q-230 0 -231 215h-5q-72 -215 -282 -215q-134 0 -216 100.5t-82 270.5q0 225 112.5 374t296.5 149q70 0 125 -38.5t71 -92.5h3q3 28 15 115h166q-47 -528 -47 -538 q0 -198 103 -198q94 0 156 110.5t62 286.5q0 260 -167.5 424.5t-464.5 164.5q-285 0 -472 -199t-187 -498q0 -295 180 -476t485 -181q240 0 411 82v-154q-175 -74 -437 -74q-368 0 -593 220t-225 576zM743 557q0 -108 45.5 -170.5t121.5 -62.5q110 0 174 113.5t64 300.5 q0 196 -160 196q-110 0 -177.5 -108t-67.5 -269z" />
<glyph unicode="A" horiz-adv-x="1375" d="M17 0l537 1434h268l533 -1434h-261l-129 365h-564l-124 -365h-260zM463 559h439l-199 572q-9 28 -19 90h-4q-9 -57 -20 -90z" />
<glyph unicode="B" horiz-adv-x="1237" d="M177 0v1434h455q208 0 329.5 -91t121.5 -237q0 -122 -69 -212t-191 -128v-4q148 -17 236.5 -109.5t88.5 -240.5q0 -184 -145 -298t-366 -114h-460zM414 190h203q133 0 205.5 61.5t72.5 169.5q0 223 -309 223h-172v-454zM414 835h154q124 0 194.5 58.5t70.5 165.5 q0 184 -246 184h-173v-408z" />
<glyph unicode="C" horiz-adv-x="1272" d="M86 690q0 344 211.5 556t534.5 212q208 0 345 -59v-236q-145 86 -320 86q-233 0 -377.5 -149t-144.5 -398q0 -237 135 -377.5t355 -140.5q203 0 352 96v-220q-162 -84 -403 -84q-312 0 -500 197t-188 517z" />
<glyph unicode="D" horiz-adv-x="1469" d="M177 0v1434h414q793 0 793 -699q0 -332 -220 -533.5t-590 -201.5h-397zM414 201h190q251 0 390.5 138t139.5 390q0 503 -521 503h-199v-1031z" />
<glyph unicode="E" horiz-adv-x="1060" d="M177 0v1434h773v-202h-535v-406h493v-201h-493v-424h567v-201h-805z" />
<glyph unicode="F" horiz-adv-x="1029" d="M177 0v1434h774v-202h-536v-431h494v-201h-494v-600h-238z" />
<glyph unicode="G" horiz-adv-x="1428" d="M85 698q0 333 215.5 546.5t547.5 213.5q239 0 402 -70v-245q-165 110 -393 110q-229 0 -375.5 -151t-146.5 -391q0 -247 126 -388.5t342 -141.5q148 0 256 57v341h-302v200h539v-681q-224 -122 -499 -122q-318 0 -515 198t-197 524z" />
<glyph unicode="H" horiz-adv-x="1506" d="M177 0v1434h238v-603h675v603h239v-1434h-239v622h-675v-622h-238z" />
<glyph unicode="I" horiz-adv-x="597" d="M176 0v1434h245v-1434h-245z" />
<glyph unicode="J" horiz-adv-x="812" d="M25 -1v224q57 -39 147 -39q238 0 238 368v882h238v-920q0 -255 -126 -396.5t-336 -141.5q-98 0 -161 23z" />
<glyph unicode="K" horiz-adv-x="1251" d="M177 0v1434h238v-674h4q12 22 34 49l481 625h285l-563 -688l606 -746h-310l-499 656q-28 37 -34 50h-4v-706h-238z" />
<glyph unicode="L" horiz-adv-x="1001" d="M177 0v1434h238v-1233h556v-201h-794z" />
<glyph unicode="M" horiz-adv-x="1893" d="M177 0v1434h335l377 -955q43 -110 56 -164h5q37 113 60 168l384 951h323v-1434h-236v928q0 114 14 279h-4q-22 -94 -39 -135l-428 -1072h-164l-429 1064q-18 47 -38 143h-4q8 -86 8 -281v-926h-220z" />
<glyph unicode="N" horiz-adv-x="1571" d="M177 0v1434h277l662 -1029q42 -64 54 -88h4q-10 57 -10 193v924h229v-1434h-260l-685 1054q-26 40 -43 83h-6q8 -46 8 -197v-940h-230z" />
<glyph unicode="O" horiz-adv-x="1548" d="M85 700q0 346 190 552t516 206q302 0 486.5 -200t184.5 -523q0 -351 -189 -555t-505 -204q-310 0 -496.5 201t-186.5 523zM335 715q0 -239 120 -385t314 -146q206 0 325 139t119 389q0 257 -115.5 397t-318.5 140q-197 0 -320.5 -147t-123.5 -387z" />
<glyph unicode="P" horiz-adv-x="1197" d="M177 0v1434h435q247 0 383 -115t136 -324t-142 -342t-384 -133h-191v-520h-237zM414 714h154q153 0 233 71t80 200q0 253 -294 253h-173v-524z" />
<glyph unicode="Q" horiz-adv-x="1548" d="M85 700q0 172 49.5 312t141 239t222.5 153t293 54q150 0 274 -53t212 -148.5t136.5 -228.5t48.5 -293q0 -212 -71 -371.5t-200 -256.5l416 -300h-362l-256 199q-51 -14 -106 -22t-115 -8q-155 0 -281 53t-215 148.5t-138 228.5t-49 294zM335 715q0 -119 31.5 -217 t88.5 -167.5t137 -108t177 -38.5q103 0 185 36t139.5 103.5t88.5 165.5t31 223q0 128 -30 228t-86 168.5t-136.5 104.5t-181.5 36q-98 0 -179.5 -38.5t-140.5 -109t-91.5 -168.5t-32.5 -218z" />
<glyph unicode="R" horiz-adv-x="1275" d="M177 0v1434h472q101 0 186 -24t148 -72.5t98.5 -121t35.5 -169.5q0 -76 -22.5 -139.5t-64 -113t-100 -84.5t-131.5 -54v-4q39 -22 68 -48.5t55 -54.5t51.5 -63.5t56.5 -82.5l255 -403h-278l-229 384q-31 53 -60.5 90.5t-60 61.5t-66.5 35t-81 11h-96v-582h-237zM414 775 h198q55 0 101.5 17t80.5 49t53 78t19 103q0 103 -65 161t-187 58h-200v-466z" />
<glyph unicode="S" horiz-adv-x="1115" d="M110 1064q0 101 45.5 175.5t120 123t169.5 72t194 23.5q225 0 328 -51v-235q-122 88 -314 88q-53 0 -105.5 -10t-94 -33t-67.5 -59t-26 -87q0 -48 20 -83t58.5 -64t94 -56.5t128.5 -59.5q75 -39 141.5 -82t117 -95t80 -115.5t29.5 -144.5q0 -109 -44 -184t-118.5 -122 t-171.5 -68t-205 -21q-36 0 -88.5 5.5t-107.5 16t-104 25.5t-79 34v245q33 -30 78.5 -54t96.5 -40.5t102 -25.5t94 -9q150 0 223.5 50t73.5 145q0 51 -24.5 88.5t-68.5 68.5t-103.5 59.5t-127.5 59.5q-73 39 -136 79t-109.5 88.5t-73 109.5t-26.5 143z" />
<glyph unicode="T" horiz-adv-x="1130" d="M36 1232v202h1061v-202h-412v-1232h-238v1232h-411z" />
<glyph unicode="U" horiz-adv-x="1440" d="M160 557v877h238v-828q0 -422 328 -422q316 0 316 407v843h238v-854q0 -604 -572 -604q-548 0 -548 581z" />
<glyph unicode="V" horiz-adv-x="1314" d="M14 1434h260l354 -1088q17 -52 26 -121h4q7 57 29 123l362 1086h252l-515 -1434h-266z" />
<glyph unicode="W" horiz-adv-x="1978" d="M22 1434h261l260 -1050q16 -66 20 -138h5q4 51 28 138l294 1050h245l272 -1058q14 -54 21 -128h4q3 50 23 132l255 1054h246l-393 -1434h-269l-273 1003q-17 64 -21 140h-4q-5 -71 -24 -138l-274 -1005h-275z" />
<glyph unicode="X" horiz-adv-x="1268" d="M17 0l470 721l-432 713h291l259 -484q25 -48 45 -96h3q29 63 50 100l269 480h268l-442 -711l451 -723h-285l-294 526q-13 24 -29 68h-4q-9 -22 -30 -68l-303 -526h-287z" />
<glyph unicode="Y" horiz-adv-x="1182" d="M10 1434h271l282 -615q5 -11 30 -83h3q9 32 33 83l295 615h252l-470 -913v-521h-238v516z" />
<glyph unicode="Z" horiz-adv-x="1202" d="M36 0v109l789 1123h-728v202h1058v-104l-786 -1129h776v-201h-1109z" />
<glyph unicode="[" horiz-adv-x="680" d="M208 -326v1760h413v-156h-216v-1448h216v-156h-413z" />
<glyph unicode="\" horiz-adv-x="829" d="M-13 1434h210l672 -1674h-206z" />
<glyph unicode="]" horiz-adv-x="680" d="M61 -170h216v1448h-216v156h413v-1760h-413v156z" />
<glyph unicode="^" horiz-adv-x="1422" d="M218 618l425 840h109l456 -840h-192l-312 604h-6l-291 -604h-189z" />
<glyph unicode="_" horiz-adv-x="850" d="M0 -178h850v-119h-850v119z" />
<glyph unicode="`" horiz-adv-x="591" d="M92 1532h214l221 -328h-173z" />
<glyph unicode="a" horiz-adv-x="1069" d="M75 275q0 290 334 338l304 43q0 219 -208 219q-183 0 -330 -126v203q162 96 374 96q388 0 388 -382v-666h-225v160h-4q-106 -184 -311 -184q-151 0 -236.5 82t-85.5 217zM297 300q0 -65 46.5 -106.5t124.5 -41.5q106 0 175.5 74.5t69.5 187.5v89l-215 -30 q-100 -13 -150.5 -48.5t-50.5 -124.5z" />
<glyph unicode="b" horiz-adv-x="1234" d="M151 0v1516h232v-672h4q119 204 348 204q194 0 303.5 -137.5t109.5 -368.5q0 -257 -123 -411.5t-336 -154.5q-200 0 -302 172h-4v-148h-232zM381 428q0 -112 71.5 -190t181.5 -78q129 0 202.5 100.5t73.5 280.5q0 151 -68.5 236.5t-185.5 85.5q-124 0 -199.5 -88 t-75.5 -220v-127z" />
<glyph unicode="c" horiz-adv-x="963" d="M85 488q0 253 150.5 406.5t402.5 153.5q140 0 247 -49v-216q-107 80 -228 80q-147 0 -241 -99.5t-94 -260.5q0 -159 88.5 -251t237.5 -92q125 0 236 89v-202q-123 -71 -291 -71q-228 0 -368 142.5t-140 369.5z" />
<glyph unicode="d" horiz-adv-x="1234" d="M85 488q0 254 125.5 407t334.5 153q207 0 301 -166h4v634h232v-1516h-232v174h-4q-112 -198 -345 -198q-189 0 -302.5 137.5t-113.5 374.5zM322 497q0 -156 71.5 -246.5t192.5 -90.5q119 0 193 87.5t74 220.5v134q0 109 -71 185t-181 76q-130 0 -204.5 -97t-74.5 -269z " />
<glyph unicode="e" horiz-adv-x="1088" d="M85 508q0 239 141.5 389.5t351.5 150.5t325 -135t115 -375v-89h-698q4 -142 87.5 -219t229.5 -77q164 0 301 98v-187q-140 -88 -370 -88q-226 0 -354.5 139.5t-128.5 392.5zM320 613h474q-1 125 -59 194.5t-160 69.5q-100 0 -169.5 -73t-85.5 -191z" />
<glyph unicode="f" horiz-adv-x="706" d="M48 842v182h175v166q0 162 106 255.5t265 93.5q86 0 136 -19v-193q-47 27 -107 27q-169 0 -169 -191v-139h238v-182h-237v-842h-232v842h-175z" />
<glyph unicode="g" horiz-adv-x="1234" d="M85 479q0 261 123 415t338 154q203 0 301 -166h4v142h232v-942q0 -564 -567 -564q-200 0 -349 67v212q168 -96 319 -96q365 0 365 359v112h-4q-115 -196 -346 -196q-187 0 -301.5 136.5t-114.5 366.5zM322 493q0 -151 71.5 -241.5t189.5 -90.5q120 0 195 86.5t75 221.5 v133q0 108 -71.5 184.5t-178.5 76.5q-132 0 -206.5 -97.5t-74.5 -272.5z" />
<glyph unicode="h" horiz-adv-x="1192" d="M151 0v1516h233v-662h4q116 194 332 194q341 0 341 -417v-631h-232v560q0 304 -203 304q-102 0 -172 -88t-70 -225v-551h-233z" />
<glyph unicode="i" horiz-adv-x="535" d="M130 1370q0 57 40.5 95t97.5 38q59 0 100 -38t41 -95q0 -54 -41 -92.5t-100 -38.5q-57 0 -97.5 37t-40.5 94zM151 0v1024h232v-1024h-232z" />
<glyph unicode="j" horiz-adv-x="535" d="M-168 -251q65 -45 123 -45q196 0 196 346v974h232v-981q0 -252 -106 -388.5t-303 -136.5q-73 0 -142 32v199zM131 1370q0 57 40.5 95t97.5 38q58 0 99 -38t41 -95q0 -54 -41 -92.5t-99 -38.5q-57 0 -97.5 37t-40.5 94z" />
<glyph unicode="k" horiz-adv-x="1075" d="M151 0v1516h233v-961h4l376 469h279l-423 -494l460 -530h-294l-398 492h-4v-492h-233z" />
<glyph unicode="l" horiz-adv-x="535" d="M151 0v1516h233v-1516h-233z" />
<glyph unicode="m" horiz-adv-x="1814" d="M151 0v1024h232v-162h4q111 186 323 186q106 0 185.5 -58.5t108.5 -153.5q114 212 340 212q338 0 338 -417v-631h-232v558q0 161 -45.5 233t-153.5 72q-91 0 -154.5 -91t-63.5 -218v-554h-233v577q0 286 -202 286q-94 0 -154.5 -86t-60.5 -223v-554h-232z" />
<glyph unicode="n" d="M151 0v1024h233v-170h4q115 194 332 194q167 0 255 -108.5t88 -313.5v-626h-232v577q0 287 -203 287q-106 0 -175 -79.5t-69 -200.5v-584h-233z" />
<glyph unicode="o" horiz-adv-x="1223" d="M85 500q0 258 147.5 403t397.5 145q240 0 374 -141t134 -391q0 -245 -144.5 -392.5t-388.5 -147.5q-237 0 -378.5 143.5t-141.5 380.5zM322 506q0 -161 80 -253.5t214 -92.5q137 0 210.5 91t73.5 259q0 169 -73.5 261t-210.5 92q-136 0 -215 -95t-79 -262z" />
<glyph unicode="p" horiz-adv-x="1234" d="M151 -471v1495h232v-180h4q119 204 348 204q195 0 304 -137t109 -368q0 -256 -123 -410t-336 -154q-196 0 -302 172h-4v-622h-232zM381 428q0 -112 71.5 -190t181.5 -78q129 0 202.5 100.5t73.5 280.5q0 151 -68.5 236.5t-185.5 85.5q-124 0 -199.5 -88t-75.5 -220v-127z " />
<glyph unicode="q" horiz-adv-x="1234" d="M85 488q0 255 125.5 407.5t337.5 152.5q206 0 298 -166h4v142h232v-1495h-232v647h-4q-105 -200 -343 -200q-189 0 -303.5 137.5t-114.5 374.5zM322 494q0 -156 72 -245t186 -89q125 0 199 87t74 219v132q0 111 -71.5 188t-181.5 77q-129 0 -203.5 -96.5t-74.5 -272.5z " />
<glyph unicode="r" horiz-adv-x="758" d="M151 0v1024h232v-211h4q34 108 104.5 168.5t157.5 60.5q63 0 96 -19v-220q-42 33 -121 33q-103 0 -172 -93t-69 -253v-490h-232z" />
<glyph unicode="s" horiz-adv-x="883" d="M87 32v215q130 -99 287 -99q210 0 210 124q0 35 -18 59.5t-48.5 43.5t-72 34t-92.5 34q-63 25 -113.5 53t-84 63.5t-50.5 80.5t-17 105q0 74 35 130.5t94 95t134 58t155 19.5q142 0 254 -43v-203q-108 74 -248 74q-44 0 -79.5 -9t-60.5 -25t-39 -38.5t-14 -49.5 q0 -33 14 -56t41.5 -40.5t66 -32t88.5 -31.5q66 -27 118.5 -55t89.5 -63.5t57 -82t20 -110.5q0 -78 -36 -136t-96 -96t-138.5 -56.5t-165.5 -18.5q-168 0 -291 56z" />
<glyph unicode="t" horiz-adv-x="740" d="M43 842v182h171v237l232 66v-303h245v-182h-245v-512q0 -91 33 -130t110 -39q59 0 102 34v-184q-68 -34 -179 -34q-298 0 -298 286v579h-171z" />
<glyph unicode="u" d="M131 412v612h232v-588q0 -276 213 -276q103 0 169.5 76t66.5 199v589h232v-1024h-232v162h-4q-101 -186 -314 -186q-363 0 -363 436z" />
<glyph unicode="v" horiz-adv-x="1039" d="M9 1024h252l227 -716q26 -79 32 -138h3q9 74 28 134l238 720h244l-396 -1024h-251z" />
<glyph unicode="w" horiz-adv-x="1549" d="M20 1024h240l186 -738q9 -33 12 -88h7q3 42 16 90l207 736h218l184 -741q9 -35 13 -88h7q2 37 15 88l182 741h221l-302 -1024h-243l-186 694q-11 40 -14 90h-4q-2 -34 -18 -88l-202 -696h-238z" />
<glyph unicode="x" horiz-adv-x="1026" d="M17 0l348 502l-330 522h270l177 -333q20 -37 39 -76h3l229 409h254l-341 -518l337 -506h-269l-180 317q-17 29 -40 74h-4q-4 -9 -42 -74l-183 -317h-268z" />
<glyph unicode="y" horiz-adv-x="1041" d="M6 1024h257l244 -744q4 -14 18 -74h5q5 23 18 72l256 746h234l-462 -1188q-144 -318 -404 -318q-73 0 -122 13v193q55 -18 100 -18q130 0 194 128l69 168z" />
<glyph unicode="z" horiz-adv-x="951" d="M29 0v87l565 756h-511v181h824v-97l-553 -746h551v-181h-876z" />
<glyph unicode="{" horiz-adv-x="680" d="M96 481v146q156 10 156 212v287q0 304 356 308v-155q-159 -4 -159 -191v-282q0 -202 -199 -249v-3q199 -44 199 -247v-279q0 -107 35.5 -152.5t123.5 -47.5v-154q-356 4 -356 304v295q0 198 -156 208z" />
<glyph unicode="|" horiz-adv-x="570" d="M189 -482v2048h194v-2048h-194z" />
<glyph unicode="}" horiz-adv-x="680" d="M74 -172q87 2 123.5 48t36.5 152v279q0 203 197 247v3q-197 47 -197 249v282q0 187 -160 191v155q354 -4 354 -308v-287q0 -202 155 -212v-146q-155 -10 -155 -208v-295q0 -300 -354 -304v154z" />
<glyph unicode="~" horiz-adv-x="1422" d="M203 421q5 155 79.5 245t201.5 90q113 0 236 -76q132 -91 197 -91q61 0 98 47t39 123h166q-7 -159 -80.5 -246.5t-199.5 -87.5q-109 0 -266 98q-97 67 -159 67q-140 0 -146 -169h-166z" />
<glyph unicode="&#xa2;" horiz-adv-x="1137" d="M177 649q0 219 123 366.5t331 184.5v214h141v-203q113 -2 203 -52v-213q-93 67 -203 74v-690q112 12 203 86v-208q-88 -58 -203 -68v-189h-141v191q-208 22 -331 161t-123 346zM403 669q0 -132 61 -219t167 -111v670q-107 -27 -167.5 -117.5t-60.5 -222.5z" />
<glyph unicode="&#xa3;" horiz-adv-x="1137" d="M123 0v176q206 62 206 281v168h-185v175h185v245q0 181 115.5 297t299.5 116q124 0 226 -41v-201q-95 57 -201 57q-218 0 -218 -267v-206h284v-175h-284v-138q0 -215 -193 -301h697v-186h-932z" />
<glyph unicode="&#xa5;" horiz-adv-x="1137" d="M55 1434h250l231 -494q26 -56 43 -107h4q12 40 45 113l229 488h236l-355 -650h270v-161h-321v-183h321v-161h-321v-279h-228v279h-331v161h331v183h-331v161h275z" />
<glyph unicode="&#xa8;" horiz-adv-x="892" d="M107 1320q0 49 35.5 82t86.5 33t88.5 -33.5t37.5 -81.5q0 -49 -36 -83t-86 -34q-52 0 -89 34.5t-37 82.5zM526 1320q0 49 35 82t85 33q53 0 89.5 -33.5t36.5 -81.5q0 -49 -35 -83t-88 -34q-50 0 -86.5 33t-36.5 84z" />
<glyph unicode="&#xa9;" horiz-adv-x="1808" d="M148 717q0 309 221.5 527.5t535.5 218.5q313 0 534.5 -218.5t221.5 -527.5t-221.5 -527.5t-534.5 -218.5q-314 0 -535.5 218.5t-221.5 527.5zM256 717q0 -268 190 -457.5t459 -189.5t458.5 189.5t189.5 457.5t-189.5 457.5t-458.5 189.5t-459 -189.5t-190 -457.5z M450 693q0 241 143.5 384.5t373.5 143.5q132 0 235 -51v-190q-88 72 -234 72q-144 0 -237.5 -93t-93.5 -249q0 -152 95.5 -244t242.5 -92q135 0 231 78v-177q-113 -65 -268 -65q-207 0 -347.5 138t-140.5 345z" />
<glyph unicode="&#xab;" horiz-adv-x="1105" d="M74 536l313 344h211l-317 -344l318 -336h-212zM507 536l311 344h214l-318 -344l318 -336h-214z" />
<glyph unicode="&#xad;" horiz-adv-x="823" d="M144 474v171h546v-171h-546z" />
<glyph unicode="&#xae;" horiz-adv-x="1808" d="M298 853q0 247 177.5 424t428.5 177q250 0 428 -177t178 -424q0 -248 -178 -423t-428 -175q-251 0 -428.5 175t-177.5 423zM406 852q0 -206 146.5 -351.5t352.5 -145.5q207 0 352 145.5t145 351.5t-145 354t-352 148q-206 0 -352.5 -148t-146.5 -354zM655 483v752h226 q141 0 217 -55t76 -150q0 -77 -46.5 -131.5t-137.5 -73.5v-3q63 -13 125 -139l99 -200h-177l-73 174q-56 130 -121 130h-44v-304h-144zM799 901h82q139 0 139 108q0 55 -37.5 80.5t-117.5 25.5h-66v-214z" />
<glyph unicode="&#xb4;" horiz-adv-x="597" d="M110 1218l242 328h216l-286 -328h-172z" />
<glyph unicode="&#xb8;" horiz-adv-x="429" d="M51 -328q44 -6 71 -6q133 0 133 82q0 74 -121 74q-10 0 -39 -4v182h136v-94q87 0 138 -40.5t51 -113.5q0 -194 -288 -194q-47 0 -81 3v111z" />
<glyph unicode="&#xbb;" horiz-adv-x="1105" d="M74 200l320 338l-320 342h214l312 -342l-312 -338h-214zM509 200l315 338l-315 342h211l313 -342l-313 -338h-211z" />
<glyph unicode="&#xc2;" horiz-adv-x="1375" d="M17 0l537 1434h268l533 -1434h-261l-129 365h-564l-124 -365h-260zM361 1566l224 328h184l225 -328h-160l-161 211l-157 -211h-155zM463 559h439l-199 572q-9 28 -19 90h-4q-9 -57 -20 -90z" />
<glyph unicode="&#xc7;" horiz-adv-x="1272" d="M86 690q0 344 211.5 556t534.5 212q208 0 345 -59v-236q-145 86 -320 86q-233 0 -377.5 -149t-144.5 -398q0 -237 135 -377.5t355 -140.5q203 0 352 96v-220q-162 -84 -403 -84q-312 0 -500 197t-188 517zM615 -328q44 -6 71 -6q133 0 133 82q0 74 -121 74q-10 0 -39 -4 v182h136v-94q87 0 138 -40.5t51 -113.5q0 -194 -288 -194q-47 0 -81 3v111z" />
<glyph unicode="&#xce;" horiz-adv-x="597" d="M-13 1567l224 328h184l225 -328h-160l-161 211l-157 -211h-155zM176 0v1434h245v-1434h-245z" />
<glyph unicode="&#xd6;" horiz-adv-x="1548" d="M85 700q0 346 190 552t516 206q302 0 486.5 -200t184.5 -523q0 -351 -189 -555t-505 -204q-310 0 -496.5 201t-186.5 523zM335 715q0 -239 120 -385t314 -146q206 0 325 139t119 389q0 257 -115.5 397t-318.5 140q-197 0 -320.5 -147t-123.5 -387zM441 1681q0 49 35.5 82 t86.5 33t88.5 -33.5t37.5 -81.5q0 -49 -36 -83t-86 -34q-52 0 -89 34.5t-37 82.5zM860 1681q0 49 35 82t85 33q53 0 89.5 -33.5t36.5 -81.5q0 -49 -35 -83t-88 -34q-50 0 -86.5 33t-36.5 84z" />
<glyph unicode="&#xdb;" horiz-adv-x="1440" d="M160 557v877h238v-828q0 -422 328 -422q316 0 316 407v843h238v-854q0 -604 -572 -604q-548 0 -548 581zM404 1567l224 328h184l225 -328h-160l-161 211l-157 -211h-155z" />
<glyph unicode="&#xdc;" horiz-adv-x="1440" d="M160 557v877h238v-828q0 -422 328 -422q316 0 316 407v843h238v-854q0 -604 -572 -604q-548 0 -548 581zM385 1683q0 49 35.5 82t86.5 33t88.5 -33.5t37.5 -81.5q0 -49 -36 -83t-86 -34q-52 0 -89 34.5t-37 82.5zM804 1683q0 49 35 82t85 33q53 0 89.5 -33.5t36.5 -81.5 q0 -49 -35 -83t-88 -34q-50 0 -86.5 33t-36.5 84z" />
<glyph unicode="&#xe2;" horiz-adv-x="1069" d="M75 275q0 290 334 338l304 43q0 219 -208 219q-183 0 -330 -126v203q162 96 374 96q388 0 388 -382v-666h-225v160h-4q-106 -184 -311 -184q-151 0 -236.5 82t-85.5 217zM221 1204l224 328h184l225 -328h-160l-161 211l-157 -211h-155zM297 300q0 -65 46.5 -106.5 t124.5 -41.5q106 0 175.5 74.5t69.5 187.5v89l-215 -30q-100 -13 -150.5 -48.5t-50.5 -124.5z" />
<glyph unicode="&#xe7;" horiz-adv-x="963" d="M85 488q0 253 150.5 406.5t402.5 153.5q140 0 247 -49v-216q-107 80 -228 80q-147 0 -241 -99.5t-94 -260.5q0 -159 88.5 -251t237.5 -92q125 0 236 89v-202q-123 -71 -291 -71q-228 0 -368 142.5t-140 369.5zM432 -328q44 -6 71 -6q133 0 133 82q0 74 -121 74 q-10 0 -39 -4v182h136v-94q87 0 138 -40.5t51 -113.5q0 -194 -288 -194q-47 0 -81 3v111z" />
<glyph unicode="&#xee;" horiz-adv-x="535" d="M-51 1204l224 328h184l225 -328h-160l-161 211l-157 -211h-155zM151 0v1024h233v-1024h-233z" />
<glyph unicode="&#xf6;" horiz-adv-x="1223" d="M85 500q0 258 147.5 403t397.5 145q240 0 374 -141t134 -391q0 -245 -144.5 -392.5t-388.5 -147.5q-237 0 -378.5 143.5t-141.5 380.5zM280 1320q0 49 35.5 82t86.5 33t88.5 -33.5t37.5 -81.5q0 -49 -36 -83t-86 -34q-52 0 -89 34.5t-37 82.5zM322 506q0 -161 80 -253.5 t214 -92.5q137 0 210.5 91t73.5 259q0 169 -73.5 261t-210.5 92q-136 0 -215 -95t-79 -262zM699 1320q0 49 35 82t85 33q53 0 89.5 -33.5t36.5 -81.5q0 -49 -35 -83t-88 -34q-50 0 -86.5 33t-36.5 84z" />
<glyph unicode="&#xfb;" d="M131 412v612h232v-588q0 -276 213 -276q103 0 169.5 76t66.5 199v589h232v-1024h-232v162h-4q-101 -186 -314 -186q-363 0 -363 436zM272 1204l224 328h184l225 -328h-160l-161 211l-157 -211h-155z" />
<glyph unicode="&#xfc;" d="M131 412v612h232v-588q0 -276 213 -276q103 0 169.5 76t66.5 199v589h232v-1024h-232v162h-4q-101 -186 -314 -186q-363 0 -363 436zM260 1320q0 49 35.5 82t86.5 33t88.5 -33.5t37.5 -81.5q0 -49 -36 -83t-86 -34q-52 0 -89 34.5t-37 82.5zM679 1320q0 49 35 82t85 33 q53 0 89.5 -33.5t36.5 -81.5q0 -49 -35 -83t-88 -34q-50 0 -86.5 33t-36.5 84z" />
<glyph unicode="&#x100;" horiz-adv-x="1375" d="M17 0l537 1434h268l533 -1434h-261l-129 365h-564l-124 -365h-260zM414 1567v137h543v-137h-543zM463 559h439l-199 572q-9 28 -19 90h-4q-9 -57 -20 -90z" />
<glyph unicode="&#x101;" horiz-adv-x="1069" d="M75 275q0 290 334 338l304 43q0 219 -208 219q-183 0 -330 -126v203q162 96 374 96q388 0 388 -382v-666h-225v160h-4q-106 -184 -311 -184q-151 0 -236.5 82t-85.5 217zM285 1204v137h543v-137h-543zM297 300q0 -65 46.5 -106.5t124.5 -41.5q106 0 175.5 74.5 t69.5 187.5v89l-215 -30q-100 -13 -150.5 -48.5t-50.5 -124.5z" />
<glyph unicode="&#x102;" horiz-adv-x="1375" d="M17 0l537 1434h268l533 -1434h-261l-129 365h-564l-124 -365h-260zM382 1843h136q12 -146 166 -146q65 0 111 39.5t56 106.5h137q-11 -124 -97.5 -200t-209.5 -76q-130 0 -211.5 75.5t-87.5 200.5zM463 559h439l-199 572q-9 28 -19 90h-4q-9 -57 -20 -90z" />
<glyph unicode="&#x103;" horiz-adv-x="1069" d="M75 275q0 290 334 338l304 43q0 219 -208 219q-183 0 -330 -126v203q162 96 374 96q388 0 388 -382v-666h-225v160h-4q-106 -184 -311 -184q-151 0 -236.5 82t-85.5 217zM245 1480h136q12 -146 166 -146q65 0 111 39.5t56 106.5h137q-11 -124 -97.5 -200t-209.5 -76 q-130 0 -211.5 75.5t-87.5 200.5zM297 300q0 -65 46.5 -106.5t124.5 -41.5q106 0 175.5 74.5t69.5 187.5v89l-215 -30q-100 -13 -150.5 -48.5t-50.5 -124.5z" />
<glyph unicode="&#x104;" horiz-adv-x="1375" d="M17 0l537 1434h268l533 -1434h-261l-129 365h-564l-124 -365h-260zM463 559h439l-199 572q-9 28 -19 90h-4q-9 -57 -20 -90zM931 -250q0 122 161 250h135q-151 -137 -151 -216q0 -68 65 -68q36 0 68 13v-121q-38 -16 -105 -16q-78 0 -125.5 42t-47.5 116z" />
<glyph unicode="&#x105;" horiz-adv-x="1069" d="M75 275q0 290 334 338l304 43q0 219 -208 219q-183 0 -330 -126v203q162 96 374 96q388 0 388 -382v-666h-225v160h-4q-106 -184 -311 -184q-151 0 -236.5 82t-85.5 217zM297 300q0 -65 46.5 -106.5t124.5 -41.5q106 0 175.5 74.5t69.5 187.5v89l-215 -30 q-100 -13 -150.5 -48.5t-50.5 -124.5zM549 -250q0 122 161 250h135q-151 -137 -151 -216q0 -68 65 -68q36 0 68 13v-121q-38 -16 -105 -16q-78 0 -125.5 42t-47.5 116z" />
<glyph unicode="&#x106;" horiz-adv-x="1272" d="M86 690q0 344 211.5 556t534.5 212q208 0 345 -59v-236q-145 86 -320 86q-233 0 -377.5 -149t-144.5 -398q0 -237 135 -377.5t355 -140.5q203 0 352 96v-220q-162 -84 -403 -84q-312 0 -500 197t-188 517zM621 1580l242 328h216l-286 -328h-172z" />
<glyph unicode="&#x107;" horiz-adv-x="963" d="M85 488q0 253 150.5 406.5t402.5 153.5q140 0 247 -49v-216q-107 80 -228 80q-147 0 -241 -99.5t-94 -260.5q0 -159 88.5 -251t237.5 -92q125 0 236 89v-202q-123 -71 -291 -71q-228 0 -368 142.5t-140 369.5zM418 1218l242 328h216l-286 -328h-172z" />
<glyph unicode="&#x108;" horiz-adv-x="1272" d="M86 690q0 344 211.5 556t534.5 212q208 0 345 -59v-236q-145 86 -320 86q-233 0 -377.5 -149t-144.5 -398q0 -237 135 -377.5t355 -140.5q203 0 352 96v-220q-162 -84 -403 -84q-312 0 -500 197t-188 517zM464 1567l224 328h184l225 -328h-160l-161 211l-157 -211h-155z " />
<glyph unicode="&#x109;" horiz-adv-x="963" d="M85 488q0 253 150.5 406.5t402.5 153.5q140 0 247 -49v-216q-107 80 -228 80q-147 0 -241 -99.5t-94 -260.5q0 -159 88.5 -251t237.5 -92q125 0 236 89v-202q-123 -71 -291 -71q-228 0 -368 142.5t-140 369.5zM257 1204l224 328h184l225 -328h-160l-161 211l-157 -211 h-155z" />
<glyph unicode="&#x10a;" horiz-adv-x="1272" d="M86 690q0 344 211.5 556t534.5 212q208 0 345 -59v-236q-145 86 -320 86q-233 0 -377.5 -149t-144.5 -398q0 -237 135 -377.5t355 -140.5q203 0 352 96v-220q-162 -84 -403 -84q-312 0 -500 197t-188 517zM667 1682q0 48 36 81t87 33t87 -32.5t36 -81.5q0 -48 -36 -82 t-87 -34q-50 0 -86.5 33.5t-36.5 82.5z" />
<glyph unicode="&#x10b;" horiz-adv-x="963" d="M85 488q0 253 150.5 406.5t402.5 153.5q140 0 247 -49v-216q-107 80 -228 80q-147 0 -241 -99.5t-94 -260.5q0 -159 88.5 -251t237.5 -92q125 0 236 89v-202q-123 -71 -291 -71q-228 0 -368 142.5t-140 369.5zM477 1319q0 48 36 81t87 33t87 -32.5t36 -81.5 q0 -48 -36 -82t-87 -34q-50 0 -86.5 33.5t-36.5 82.5z" />
<glyph unicode="&#x10c;" horiz-adv-x="1272" d="M86 690q0 344 211.5 556t534.5 212q208 0 345 -59v-236q-145 86 -320 86q-233 0 -377.5 -149t-144.5 -398q0 -237 135 -377.5t355 -140.5q203 0 352 96v-220q-162 -84 -403 -84q-312 0 -500 197t-188 517zM469 1893h155l160 -210l161 210h157l-224 -327h-185z" />
<glyph unicode="&#x10d;" horiz-adv-x="963" d="M85 488q0 253 150.5 406.5t402.5 153.5q140 0 247 -49v-216q-107 80 -228 80q-147 0 -241 -99.5t-94 -260.5q0 -159 88.5 -251t237.5 -92q125 0 236 89v-202q-123 -71 -291 -71q-228 0 -368 142.5t-140 369.5zM265 1531h155l160 -210l161 210h157l-224 -327h-185z" />
<glyph unicode="&#x10e;" horiz-adv-x="1469" d="M177 0v1434h414q793 0 793 -699q0 -332 -220 -533.5t-590 -201.5h-397zM380 1893h155l160 -210l161 210h157l-224 -327h-185zM414 201h190q251 0 390.5 138t139.5 390q0 503 -521 503h-199v-1031z" />
<glyph unicode="&#x10f;" horiz-adv-x="1442" d="M85 488q0 254 125.5 407t334.5 153q207 0 301 -166h4v634h232v-1516h-232v174h-4q-112 -198 -345 -198q-189 0 -302.5 137.5t-113.5 374.5zM322 497q0 -156 71.5 -246.5t192.5 -90.5q119 0 193 87.5t74 220.5v134q0 109 -71 185t-181 76q-130 0 -204.5 -97t-74.5 -269z M1191 1214l105 302h217l-167 -302h-155z" />
<glyph unicode="&#x110;" horiz-adv-x="1469" d="M15 616v205h162v613h414q793 0 793 -699q0 -334 -220 -534.5t-590 -200.5h-397v616h-162zM414 201h190q251 0 390.5 138t139.5 392q0 501 -521 501h-199v-411h307v-205h-307v-415z" />
<glyph unicode="&#x111;" horiz-adv-x="1246" d="M85 488q0 254 127.5 407t340.5 153q199 0 293 -155h4v295h-331v166h331v162h232v-162h139v-166h-139v-1188h-232v159h-4q-107 -183 -330 -183q-196 0 -313.5 137.5t-117.5 374.5zM322 496q0 -156 71.5 -246t192.5 -90q118 0 192.5 88.5t74.5 223.5v124q0 112 -72 189.5 t-182 77.5q-129 0 -203 -97.5t-74 -269.5z" />
<glyph unicode="&#x112;" horiz-adv-x="1060" d="M177 0v1434h773v-202h-535v-406h493v-201h-493v-424h567v-201h-805zM298 1566v137h543v-137h-543z" />
<glyph unicode="&#x113;" horiz-adv-x="1088" d="M85 508q0 239 141.5 389.5t351.5 150.5t325 -135t115 -375v-89h-698q4 -142 87.5 -219t229.5 -77q164 0 301 98v-187q-140 -88 -370 -88q-226 0 -354.5 139.5t-128.5 392.5zM298 1204v137h543v-137h-543zM320 613h474q-1 125 -59 194.5t-160 69.5q-100 0 -169.5 -73 t-85.5 -191z" />
<glyph unicode="&#x114;" horiz-adv-x="1060" d="M177 0v1434h773v-202h-535v-406h493v-201h-493v-424h567v-201h-805zM266 1843h136q12 -146 166 -146q65 0 111 39.5t56 106.5h137q-11 -124 -97.5 -200t-209.5 -76q-130 0 -211.5 75.5t-87.5 200.5z" />
<glyph unicode="&#x115;" horiz-adv-x="1088" d="M85 508q0 239 141.5 389.5t351.5 150.5t325 -135t115 -375v-89h-698q4 -142 87.5 -219t229.5 -77q164 0 301 98v-187q-140 -88 -370 -88q-226 0 -354.5 139.5t-128.5 392.5zM261 1480h136q12 -146 166 -146q65 0 111 39.5t56 106.5h137q-11 -124 -97.5 -200t-209.5 -76 q-130 0 -211.5 75.5t-87.5 200.5zM320 613h474q-1 125 -59 194.5t-160 69.5q-100 0 -169.5 -73t-85.5 -191z" />
<glyph unicode="&#x116;" horiz-adv-x="1060" d="M177 0v1434h773v-202h-535v-406h493v-201h-493v-424h567v-201h-805zM443 1682q0 48 36 81t87 33t87 -32.5t36 -81.5q0 -48 -36 -82t-87 -34q-50 0 -86.5 33.5t-36.5 82.5z" />
<glyph unicode="&#x117;" horiz-adv-x="1088" d="M85 508q0 239 141.5 389.5t351.5 150.5t325 -135t115 -375v-89h-698q4 -142 87.5 -219t229.5 -77q164 0 301 98v-187q-140 -88 -370 -88q-226 0 -354.5 139.5t-128.5 392.5zM320 613h474q-1 125 -59 194.5t-160 69.5q-100 0 -169.5 -73t-85.5 -191zM461 1319q0 48 36 81 t87 33t87 -32.5t36 -81.5q0 -48 -36 -82t-87 -34q-50 0 -86.5 33.5t-36.5 82.5z" />
<glyph unicode="&#x118;" horiz-adv-x="1060" d="M177 0v1434h773v-202h-535v-406h493v-201h-493v-424h567v-201h-805zM596 -250q0 122 161 250h135q-151 -137 -151 -216q0 -68 65 -68q36 0 68 13v-121q-38 -16 -105 -16q-78 0 -125.5 42t-47.5 116z" />
<glyph unicode="&#x119;" horiz-adv-x="1088" d="M85 508q0 239 141.5 389.5t351.5 150.5t325 -135t115 -375v-89h-698q4 -142 87.5 -219t229.5 -77q164 0 301 98v-187q-140 -88 -370 -88q-226 0 -354.5 139.5t-128.5 392.5zM320 613h474q-1 125 -59 194.5t-160 69.5q-100 0 -169.5 -73t-85.5 -191zM486 -250 q0 122 161 250h135q-151 -137 -151 -216q0 -68 65 -68q36 0 68 13v-121q-38 -16 -105 -16q-78 0 -125.5 42t-47.5 116z" />
<glyph unicode="&#x11a;" horiz-adv-x="1060" d="M177 0v1434h773v-202h-535v-406h493v-201h-493v-424h567v-201h-805zM258 1893h155l160 -210l161 210h157l-224 -327h-185z" />
<glyph unicode="&#x11b;" horiz-adv-x="1088" d="M85 508q0 239 141.5 389.5t351.5 150.5t325 -135t115 -375v-89h-698q4 -142 87.5 -219t229.5 -77q164 0 301 98v-187q-140 -88 -370 -88q-226 0 -354.5 139.5t-128.5 392.5zM251 1531h155l160 -210l161 210h157l-224 -327h-185zM320 613h474q-1 125 -59 194.5t-160 69.5 q-100 0 -169.5 -73t-85.5 -191z" />
<glyph unicode="&#x11c;" horiz-adv-x="1428" d="M85 698q0 333 215.5 546.5t547.5 213.5q239 0 402 -70v-245q-165 110 -393 110q-229 0 -375.5 -151t-146.5 -391q0 -247 126 -388.5t342 -141.5q148 0 256 57v341h-302v200h539v-681q-224 -122 -499 -122q-318 0 -515 198t-197 524zM488 1567l224 328h184l225 -328h-160 l-161 211l-157 -211h-155z" />
<glyph unicode="&#x11d;" horiz-adv-x="1234" d="M85 479q0 261 123 415t338 154q203 0 301 -166h4v142h232v-942q0 -564 -567 -564q-200 0 -349 67v212q168 -96 319 -96q365 0 365 359v112h-4q-115 -196 -346 -196q-187 0 -301.5 136.5t-114.5 366.5zM289 1204l224 328h184l225 -328h-160l-161 211l-157 -211h-155z M322 493q0 -151 71.5 -241.5t189.5 -90.5q120 0 195 86.5t75 221.5v133q0 108 -71.5 184.5t-178.5 76.5q-132 0 -206.5 -97.5t-74.5 -272.5z" />
<glyph unicode="&#x11e;" horiz-adv-x="1428" d="M85 698q0 333 215.5 546.5t547.5 213.5q239 0 402 -70v-245q-165 110 -393 110q-229 0 -375.5 -151t-146.5 -391q0 -247 126 -388.5t342 -141.5q148 0 256 57v341h-302v200h539v-681q-224 -122 -499 -122q-318 0 -515 198t-197 524zM496 1842h136q12 -146 166 -146 q65 0 111 39.5t56 106.5h137q-11 -124 -97.5 -200t-209.5 -76q-130 0 -211.5 75.5t-87.5 200.5z" />
<glyph unicode="&#x11f;" horiz-adv-x="1234" d="M85 479q0 261 123 415t338 154q203 0 301 -166h4v142h232v-942q0 -564 -567 -564q-200 0 -349 67v212q168 -96 319 -96q365 0 365 359v112h-4q-115 -196 -346 -196q-187 0 -301.5 136.5t-114.5 366.5zM308 1480h136q12 -146 166 -146q65 0 111 39.5t56 106.5h137 q-11 -124 -97.5 -200t-209.5 -76q-130 0 -211.5 75.5t-87.5 200.5zM322 493q0 -151 71.5 -241.5t189.5 -90.5q120 0 195 86.5t75 221.5v133q0 108 -71.5 184.5t-178.5 76.5q-132 0 -206.5 -97.5t-74.5 -272.5z" />
<glyph unicode="&#x120;" horiz-adv-x="1428" d="M85 698q0 333 215.5 546.5t547.5 213.5q239 0 402 -70v-245q-165 110 -393 110q-229 0 -375.5 -151t-146.5 -391q0 -247 126 -388.5t342 -141.5q148 0 256 57v341h-302v200h539v-681q-224 -122 -499 -122q-318 0 -515 198t-197 524zM683 1682q0 48 36 81t87 33t87 -32.5 t36 -81.5q0 -48 -36 -82t-87 -34q-50 0 -86.5 33.5t-36.5 82.5z" />
<glyph unicode="&#x121;" horiz-adv-x="1234" d="M85 479q0 261 123 415t338 154q203 0 301 -166h4v142h232v-942q0 -564 -567 -564q-200 0 -349 67v212q168 -96 319 -96q365 0 365 359v112h-4q-115 -196 -346 -196q-187 0 -301.5 136.5t-114.5 366.5zM322 493q0 -151 71.5 -241.5t189.5 -90.5q120 0 195 86.5t75 221.5 v133q0 108 -71.5 184.5t-178.5 76.5q-132 0 -206.5 -97.5t-74.5 -272.5zM477 1319q0 48 36 81t87 33t87 -32.5t36 -81.5q0 -48 -36 -82t-87 -34q-50 0 -86.5 33.5t-36.5 82.5z" />
<glyph unicode="&#x122;" horiz-adv-x="1428" d="M85 698q0 333 215.5 546.5t547.5 213.5q239 0 402 -70v-245q-165 110 -393 110q-229 0 -375.5 -151t-146.5 -391q0 -247 126 -388.5t342 -141.5q148 0 256 57v341h-302v200h539v-681q-224 -122 -499 -122q-318 0 -515 198t-197 524zM602 -420l105 302h217l-167 -302h-155 z" />
<glyph unicode="&#x123;" horiz-adv-x="1234" d="M85 479q0 261 123 415t338 154q203 0 301 -166h4v142h232v-942q0 -564 -567 -564q-200 0 -349 67v212q168 -96 319 -96q365 0 365 359v112h-4q-115 -196 -346 -196q-187 0 -301.5 136.5t-114.5 366.5zM322 493q0 -151 71.5 -241.5t189.5 -90.5q120 0 195 86.5t75 221.5 v133q0 108 -71.5 184.5t-178.5 76.5q-132 0 -206.5 -97.5t-74.5 -272.5zM465 1203l167 302h155l-105 -302h-217z" />
<glyph unicode="&#x124;" horiz-adv-x="1506" d="M177 0v1434h238v-603h675v603h239v-1434h-239v622h-675v-622h-238zM434 1566l224 328h184l225 -328h-160l-161 211l-157 -211h-155z" />
<glyph unicode="&#x125;" horiz-adv-x="1192" d="M151 0v1516h233v-662h4q116 194 332 194q341 0 341 -417v-631h-232v560q0 304 -203 304q-102 0 -172 -88t-70 -225v-551h-233zM323 1611l224 328h184l225 -328h-160l-161 211l-157 -211h-155z" />
<glyph unicode="&#x126;" horiz-adv-x="1506" d="M15 1023v176h162v235h237v-235h676v235h238v-235h162v-176h-162v-1023h-238v622h-676v-622h-237v1023h-162zM414 830h676v193h-676v-193z" />
<glyph unicode="&#x127;" horiz-adv-x="1205" d="M29 1192v145h139v179h232v-179h331v-145h-331v-340h4q117 186 327 186q168 0 256.5 -107.5t88.5 -310.5v-620h-230v567q0 284 -205 284q-102 0 -171.5 -78.5t-69.5 -201.5v-571h-232v1192h-139z" />
<glyph unicode="&#x128;" horiz-adv-x="597" d="M-41 1547q0 119 51 190.5t143 71.5q68 0 157 -51q72 -44 125 -44q81 0 81 114h119q0 -116 -51.5 -189.5t-139.5 -73.5q-72 0 -165 48q-78 45 -121 45q-84 0 -84 -111h-115zM176 0v1434h245v-1434h-245z" />
<glyph unicode="&#x129;" horiz-adv-x="535" d="M-75 1194q0 119 51 190.5t143 71.5q68 0 157 -51q72 -44 125 -44q81 0 81 114h119q0 -116 -51.5 -189.5t-139.5 -73.5q-72 0 -165 48q-78 45 -121 45q-84 0 -84 -111h-115zM151 0v1024h233v-1024h-233z" />
<glyph unicode="&#x12a;" horiz-adv-x="597" d="M26 1566v137h543v-137h-543zM176 0v1434h245v-1434h-245z" />
<glyph unicode="&#x12b;" horiz-adv-x="535" d="M-9 1204v137h543v-137h-543zM151 0v1024h233v-1024h-233z" />
<glyph unicode="&#x12c;" horiz-adv-x="597" d="M-5 1842h136q12 -146 166 -146q65 0 111 39.5t56 106.5h137q-11 -124 -97.5 -200t-209.5 -76q-130 0 -211.5 75.5t-87.5 200.5zM176 0v1434h245v-1434h-245z" />
<glyph unicode="&#x12d;" horiz-adv-x="535" d="M-40 1480h136q12 -146 166 -146q65 0 111 39.5t56 106.5h137q-11 -124 -97.5 -200t-209.5 -76q-130 0 -211.5 75.5t-87.5 200.5zM151 0v1024h233v-1024h-233z" />
<glyph unicode="&#x12e;" horiz-adv-x="597" d="M157 -250q0 122 161 250h135q-151 -137 -151 -216q0 -68 65 -68q36 0 68 13v-121q-38 -16 -105 -16q-78 0 -125.5 42t-47.5 116zM176 0v1434h245v-1434h-245z" />
<glyph unicode="&#x12f;" horiz-adv-x="535" d="M87 -250q0 122 161 250h135q-151 -137 -151 -216q0 -68 65 -68q36 0 68 13v-121q-38 -16 -105 -16q-78 0 -125.5 42t-47.5 116zM130 1370q0 57 40.5 95t97.5 38q59 0 100 -38t41 -95q0 -54 -41 -92.5t-100 -38.5q-57 0 -97.5 37t-40.5 94zM151 0v1024h232v-1024h-232z " />
<glyph unicode="&#x130;" horiz-adv-x="597" d="M172 1682q0 48 36 81t87 33t87 -32.5t36 -81.5q0 -48 -36 -82t-87 -34q-50 0 -86.5 33.5t-36.5 82.5zM176 0v1434h245v-1434h-245z" />
<glyph unicode="&#x131;" horiz-adv-x="535" d="M151 0v1024h233v-1024h-233z" />
<glyph unicode="&#x132;" horiz-adv-x="1404" d="M176 0v1434h245v-1434h-245zM618 -1v224q57 -39 147 -39q238 0 238 368v882h238v-920q0 -255 -126 -396.5t-336 -141.5q-98 0 -161 23z" />
<glyph unicode="&#x133;" horiz-adv-x="1115" d="M130 1370q0 57 40.5 95t97.5 38q59 0 100 -38t41 -95q0 -54 -41 -92.5t-100 -38.5q-57 0 -97.5 37t-40.5 94zM151 0v1024h232v-1024h-232zM412 -251q65 -45 123 -45q196 0 196 346v974h232v-981q0 -252 -106 -388.5t-303 -136.5q-73 0 -142 32v199zM711 1370 q0 57 40.5 95t97.5 38q58 0 99 -38t41 -95q0 -54 -41 -92.5t-99 -38.5q-57 0 -97.5 37t-40.5 94z" />
<glyph unicode="&#x134;" horiz-adv-x="812" d="M25 -1v224q57 -39 147 -39q238 0 238 368v882h238v-920q0 -255 -126 -396.5t-336 -141.5q-98 0 -161 23zM212 1566l224 328h184l225 -328h-160l-161 211l-157 -211h-155z" />
<glyph unicode="&#x135;" horiz-adv-x="535" d="M-168 -254q68 -42 129 -42q190 0 190 302v1018h232v-993q0 -246 -106 -379t-303 -133q-73 0 -142 31v196zM-50 1204l224 328h184l225 -328h-160l-161 211l-157 -211h-155z" />
<glyph unicode="&#x136;" horiz-adv-x="1251" d="M177 0v1434h238v-674h4q12 22 34 49l481 625h285l-563 -688l606 -746h-310l-499 656q-28 37 -34 50h-4v-706h-238zM460 -420l105 302h217l-167 -302h-155z" />
<glyph unicode="&#x137;" horiz-adv-x="1075" d="M151 0v1516h233v-961h4l376 469h279l-423 -494l460 -530h-294l-398 492h-4v-492h-233zM376 -420l105 302h217l-167 -302h-155z" />
<glyph unicode="&#x138;" horiz-adv-x="1075" d="M151 0v1024h233v-471h4l376 471h284l-426 -488l459 -536h-295l-398 499h-4v-499h-233z" />
<glyph unicode="&#x139;" horiz-adv-x="1001" d="M177 0v1434h238v-1233h556v-201h-794zM430 1580l242 328h216l-286 -328h-172z" />
<glyph unicode="&#x13a;" horiz-adv-x="535" d="M139 1664l242 328h216l-286 -328h-172zM151 0v1516h233v-1516h-233z" />
<glyph unicode="&#x13b;" horiz-adv-x="1001" d="M177 0v1434h238v-1233h556v-201h-794zM429 -328q44 -6 71 -6q133 0 133 82q0 74 -121 74q-10 0 -39 -4v182h136v-94q87 0 138 -40.5t51 -113.5q0 -194 -288 -194q-47 0 -81 3v111z" />
<glyph unicode="&#x13c;" horiz-adv-x="535" d="M132 -328q44 -6 71 -6q133 0 133 82q0 74 -121 74q-10 0 -39 -4v182h136v-94q87 0 138 -40.5t51 -113.5q0 -194 -288 -194q-47 0 -81 3v111zM151 0v1516h233v-1516h-233z" />
<glyph unicode="&#x13d;" horiz-adv-x="1001" d="M177 0v1434h238v-1233h556v-201h-794zM650 1133l105 302h217l-167 -302h-155z" />
<glyph unicode="&#x13e;" horiz-adv-x="682" d="M151 0v1516h233v-1516h-233zM479 1210l105 302h217l-167 -302h-155z" />
<glyph unicode="&#x13f;" horiz-adv-x="1001" d="M177 0v1434h238v-1233h556v-201h-794zM653 776q0 48 36 81t87 33t87 -32.5t36 -81.5q0 -48 -36 -82t-87 -34q-50 0 -86.5 33.5t-36.5 82.5z" />
<glyph unicode="&#x140;" horiz-adv-x="754" d="M151 0v1516h233v-1516h-233zM508 749q0 48 36 81t87 33t87 -32.5t36 -81.5q0 -48 -36 -82t-87 -34q-50 0 -86.5 33.5t-36.5 82.5z" />
<glyph unicode="&#x141;" horiz-adv-x="1001" d="M19 419v202l158 91v722h238v-594l308 179v-203l-308 -177v-438h556v-201h-794v511z" />
<glyph unicode="&#x142;" horiz-adv-x="598" d="M25 427v202l152 103v784h232v-635l157 105v-201l-157 -106v-679h-232v530z" />
<glyph unicode="&#x143;" horiz-adv-x="1571" d="M177 0v1434h277l662 -1029q42 -64 54 -88h4q-10 57 -10 193v924h229v-1434h-260l-685 1054q-26 40 -43 83h-6q8 -46 8 -197v-940h-230zM652 1580l242 328h216l-286 -328h-172z" />
<glyph unicode="&#x144;" d="M151 0v1024h233v-170h4q115 194 332 194q167 0 255 -108.5t88 -313.5v-626h-232v577q0 287 -203 287q-106 0 -175 -79.5t-69 -200.5v-584h-233zM450 1218l242 328h216l-286 -328h-172z" />
<glyph unicode="&#x145;" horiz-adv-x="1571" d="M177 0v1434h277l662 -1029q42 -64 54 -88h4q-10 57 -10 193v924h229v-1434h-260l-685 1054q-26 40 -43 83h-6q8 -46 8 -197v-940h-230zM602 -420l105 302h217l-167 -302h-155z" />
<glyph unicode="&#x146;" d="M151 0v1024h233v-170h4q115 194 332 194q167 0 255 -108.5t88 -313.5v-626h-232v577q0 287 -203 287q-106 0 -175 -79.5t-69 -200.5v-584h-233zM419 -420l105 302h217l-167 -302h-155z" />
<glyph unicode="&#x147;" horiz-adv-x="1571" d="M177 0v1434h277l662 -1029q42 -64 54 -88h4q-10 57 -10 193v924h229v-1434h-260l-685 1054q-26 40 -43 83h-6q8 -46 8 -197v-940h-230zM468 1893h155l160 -210l161 210h157l-224 -327h-185z" />
<glyph unicode="&#x148;" d="M151 0v1024h233v-170h4q115 194 332 194q167 0 255 -108.5t88 -313.5v-626h-232v577q0 287 -203 287q-106 0 -175 -79.5t-69 -200.5v-584h-233zM302 1531h155l160 -210l161 210h157l-224 -327h-185z" />
<glyph unicode="&#x149;" horiz-adv-x="1241" d="M-77 1017l113 445h203l-163 -445h-153zM197 0v1024h233v-170h4q115 194 332 194q167 0 255 -108.5t88 -313.5v-626h-232v577q0 287 -203 287q-106 0 -175 -79.5t-69 -200.5v-584h-233z" />
<glyph unicode="&#x14a;" horiz-adv-x="1571" d="M177 0v1434h276l662 -979q2 -2 53 -96h4q-9 66 -9 202v873h229v-1357q0 -499 -378 -499q-93 0 -167 32v203q77 -41 140 -41q174 0 174 229l-715 1053q-21 30 -43 83h-6q9 -49 9 -182v-955h-229z" />
<glyph unicode="&#x14b;" d="M151 0v1024h233v-170h4q116 194 332 194q344 0 344 -415v-590q0 -465 -381 -465q-85 0 -154 31v202q72 -41 131 -41q172 0 172 254v539q0 301 -208 301q-103 0 -171.5 -79.5t-68.5 -200.5v-584h-233z" />
<glyph unicode="&#x14c;" horiz-adv-x="1548" d="M85 700q0 346 190 552t516 206q302 0 486.5 -200t184.5 -523q0 -351 -189 -555t-505 -204q-310 0 -496.5 201t-186.5 523zM335 715q0 -239 120 -385t314 -146q206 0 325 139t119 389q0 257 -115.5 397t-318.5 140q-197 0 -320.5 -147t-123.5 -387zM505 1566v137h543v-137 h-543z" />
<glyph unicode="&#x14d;" horiz-adv-x="1223" d="M85 500q0 258 147.5 403t397.5 145q240 0 374 -141t134 -391q0 -245 -144.5 -392.5t-388.5 -147.5q-237 0 -378.5 143.5t-141.5 380.5zM322 506q0 -161 80 -253.5t214 -92.5q137 0 210.5 91t73.5 259q0 169 -73.5 261t-210.5 92q-136 0 -215 -95t-79 -262zM345 1204v137 h543v-137h-543z" />
<glyph unicode="&#x14e;" horiz-adv-x="1548" d="M85 700q0 346 190 552t516 206q302 0 486.5 -200t184.5 -523q0 -351 -189 -555t-505 -204q-310 0 -496.5 201t-186.5 523zM335 715q0 -239 120 -385t314 -146q206 0 325 139t119 389q0 257 -115.5 397t-318.5 140q-197 0 -320.5 -147t-123.5 -387zM476 1843h136 q12 -146 166 -146q65 0 111 39.5t56 106.5h137q-11 -124 -97.5 -200t-209.5 -76q-130 0 -211.5 75.5t-87.5 200.5z" />
<glyph unicode="&#x14f;" horiz-adv-x="1223" d="M85 500q0 258 147.5 403t397.5 145q240 0 374 -141t134 -391q0 -245 -144.5 -392.5t-388.5 -147.5q-237 0 -378.5 143.5t-141.5 380.5zM319 1480h136q12 -146 166 -146q65 0 111 39.5t56 106.5h137q-11 -124 -97.5 -200t-209.5 -76q-130 0 -211.5 75.5t-87.5 200.5z M322 506q0 -161 80 -253.5t214 -92.5q137 0 210.5 91t73.5 259q0 169 -73.5 261t-210.5 92q-136 0 -215 -95t-79 -262z" />
<glyph unicode="&#x150;" horiz-adv-x="1548" d="M85 700q0 346 190 552t516 206q302 0 486.5 -200t184.5 -523q0 -351 -189 -555t-505 -204q-310 0 -496.5 201t-186.5 523zM335 715q0 -239 120 -385t314 -146q206 0 325 139t119 389q0 257 -115.5 397t-318.5 140q-197 0 -320.5 -147t-123.5 -387zM497 1567l208 318h183 l-243 -318h-148zM798 1567l211 318h185l-248 -318h-148z" />
<glyph unicode="&#x151;" horiz-adv-x="1223" d="M85 500q0 258 147.5 403t397.5 145q240 0 374 -141t134 -391q0 -245 -144.5 -392.5t-388.5 -147.5q-237 0 -378.5 143.5t-141.5 380.5zM322 506q0 -161 80 -253.5t214 -92.5q137 0 210.5 91t73.5 259q0 169 -73.5 261t-210.5 92q-136 0 -215 -95t-79 -262zM331 1204 l208 318h183l-243 -318h-148zM632 1204l211 318h185l-248 -318h-148z" />
<glyph unicode="&#x152;" horiz-adv-x="1915" d="M85 700q0 346 192 552t522 206q92 0 182 -10q114 -14 116 -14h703v-202h-535v-408h496v-202h-496v-421h567v-201h-735q-17 0 -141 -14q-100 -10 -186 -10q-316 0 -500.5 201t-184.5 523zM336 715q0 -233 121.5 -382t318.5 -149q105 0 247 41v985q-144 39 -241 39 q-199 0 -322.5 -150t-123.5 -384z" />
<glyph unicode="&#x153;" horiz-adv-x="1897" d="M85 498q0 258 145 404t390 146q287 0 393 -208h4q122 208 394 208q198 0 308.5 -136.5t110.5 -371.5v-92h-700q3 -142 85.5 -219t225.5 -77q169 0 308 98v-187q-134 -87 -353 -87q-272 0 -385 214h-4q-130 -213 -413 -213q-234 0 -371.5 142.5t-137.5 378.5zM322 502 q0 -158 79.5 -249.5t213.5 -91.5q136 0 210.5 90.5t74.5 256.5q0 171 -74 263t-209 92q-136 0 -215.5 -96t-79.5 -265zM1131 612h474q-2 125 -59.5 194.5t-157.5 69.5q-102 0 -172.5 -75t-84.5 -189z" />
<glyph unicode="&#x154;" horiz-adv-x="1275" d="M177 0v1434h472q101 0 186 -24t148 -72.5t98.5 -121t35.5 -169.5q0 -76 -22.5 -139.5t-64 -113t-100 -84.5t-131.5 -54v-4q39 -22 68 -48.5t55 -54.5t51.5 -63.5t56.5 -82.5l255 -403h-278l-229 384q-31 53 -60.5 90.5t-60 61.5t-66.5 35t-81 11h-96v-582h-237zM414 775 h198q55 0 101.5 17t80.5 49t53 78t19 103q0 103 -65 161t-187 58h-200v-466zM475 1580l242 328h216l-286 -328h-172z" />
<glyph unicode="&#x155;" horiz-adv-x="758" d="M151 0v1024h232v-211h4q34 108 104.5 168.5t157.5 60.5q63 0 96 -19v-220q-42 33 -121 33q-103 0 -172 -93t-69 -253v-490h-232zM279 1218l242 328h216l-286 -328h-172z" />
<glyph unicode="&#x156;" horiz-adv-x="1275" d="M177 0v1434h472q101 0 186 -24t148 -72.5t98.5 -121t35.5 -169.5q0 -76 -22.5 -139.5t-64 -113t-100 -84.5t-131.5 -54v-4q39 -22 68 -48.5t55 -54.5t51.5 -63.5t56.5 -82.5l255 -403h-278l-229 384q-31 53 -60.5 90.5t-60 61.5t-66.5 35t-81 11h-96v-582h-237zM414 775 h198q55 0 101.5 17t80.5 49t53 78t19 103q0 103 -65 161t-187 58h-200v-466zM479 -420l105 302h217l-167 -302h-155z" />
<glyph unicode="&#x157;" horiz-adv-x="758" d="M151 0v1024h232v-211h4q34 108 104.5 168.5t157.5 60.5q63 0 96 -19v-220q-42 33 -121 33q-103 0 -172 -93t-69 -253v-490h-232zM240 -420l105 302h217l-167 -302h-155z" />
<glyph unicode="&#x158;" horiz-adv-x="1275" d="M177 0v1434h472q101 0 186 -24t148 -72.5t98.5 -121t35.5 -169.5q0 -76 -22.5 -139.5t-64 -113t-100 -84.5t-131.5 -54v-4q39 -22 68 -48.5t55 -54.5t51.5 -63.5t56.5 -82.5l255 -403h-278l-229 384q-31 53 -60.5 90.5t-60 61.5t-66.5 35t-81 11h-96v-582h-237zM305 1893 h155l160 -210l161 210h157l-224 -327h-185zM414 775h198q55 0 101.5 17t80.5 49t53 78t19 103q0 103 -65 161t-187 58h-200v-466z" />
<glyph unicode="&#x159;" horiz-adv-x="758" d="M113 1531h155l160 -210l161 210h157l-224 -327h-185zM151 0v1024h232v-211h4q34 108 104.5 168.5t157.5 60.5q63 0 96 -19v-220q-42 33 -121 33q-103 0 -172 -93t-69 -253v-490h-232z" />
<glyph unicode="&#x15a;" horiz-adv-x="1115" d="M110 1064q0 101 45.5 175.5t120 123t169.5 72t194 23.5q225 0 328 -51v-235q-122 88 -314 88q-53 0 -105.5 -10t-94 -33t-67.5 -59t-26 -87q0 -48 20 -83t58.5 -64t94 -56.5t128.5 -59.5q75 -39 141.5 -82t117 -95t80 -115.5t29.5 -144.5q0 -109 -44 -184t-118.5 -122 t-171.5 -68t-205 -21q-36 0 -88.5 5.5t-107.5 16t-104 25.5t-79 34v245q33 -30 78.5 -54t96.5 -40.5t102 -25.5t94 -9q150 0 223.5 50t73.5 145q0 51 -24.5 88.5t-68.5 68.5t-103.5 59.5t-127.5 59.5q-73 39 -136 79t-109.5 88.5t-73 109.5t-26.5 143zM400 1580l242 328h216 l-286 -328h-172z" />
<glyph unicode="&#x15b;" horiz-adv-x="883" d="M87 32v215q130 -99 287 -99q210 0 210 124q0 35 -18 59.5t-48.5 43.5t-72 34t-92.5 34q-63 25 -113.5 53t-84 63.5t-50.5 80.5t-17 105q0 74 35 130.5t94 95t134 58t155 19.5q142 0 254 -43v-203q-108 74 -248 74q-44 0 -79.5 -9t-60.5 -25t-39 -38.5t-14 -49.5 q0 -33 14 -56t41.5 -40.5t66 -32t88.5 -31.5q66 -27 118.5 -55t89.5 -63.5t57 -82t20 -110.5q0 -78 -36 -136t-96 -96t-138.5 -56.5t-165.5 -18.5q-168 0 -291 56zM303 1218l242 328h216l-286 -328h-172z" />
<glyph unicode="&#x15c;" horiz-adv-x="1115" d="M110 1064q0 101 45.5 175.5t120 123t169.5 72t194 23.5q225 0 328 -51v-235q-122 88 -314 88q-53 0 -105.5 -10t-94 -33t-67.5 -59t-26 -87q0 -48 20 -83t58.5 -64t94 -56.5t128.5 -59.5q75 -39 141.5 -82t117 -95t80 -115.5t29.5 -144.5q0 -109 -44 -184t-118.5 -122 t-171.5 -68t-205 -21q-36 0 -88.5 5.5t-107.5 16t-104 25.5t-79 34v245q33 -30 78.5 -54t96.5 -40.5t102 -25.5t94 -9q150 0 223.5 50t73.5 145q0 51 -24.5 88.5t-68.5 68.5t-103.5 59.5t-127.5 59.5q-73 39 -136 79t-109.5 88.5t-73 109.5t-26.5 143zM253 1566l224 328h184 l225 -328h-160l-161 211l-157 -211h-155z" />
<glyph unicode="&#x15d;" horiz-adv-x="883" d="M87 32v215q130 -99 287 -99q210 0 210 124q0 35 -18 59.5t-48.5 43.5t-72 34t-92.5 34q-63 25 -113.5 53t-84 63.5t-50.5 80.5t-17 105q0 74 35 130.5t94 95t134 58t155 19.5q142 0 254 -43v-203q-108 74 -248 74q-44 0 -79.5 -9t-60.5 -25t-39 -38.5t-14 -49.5 q0 -33 14 -56t41.5 -40.5t66 -32t88.5 -31.5q66 -27 118.5 -55t89.5 -63.5t57 -82t20 -110.5q0 -78 -36 -136t-96 -96t-138.5 -56.5t-165.5 -18.5q-168 0 -291 56zM129 1204l224 328h184l225 -328h-160l-161 211l-157 -211h-155z" />
<glyph unicode="&#x15e;" horiz-adv-x="1115" d="M110 1064q0 101 45.5 175.5t120 123t169.5 72t194 23.5q225 0 328 -51v-235q-122 88 -314 88q-53 0 -105.5 -10t-94 -33t-67.5 -59t-26 -87q0 -48 20 -83t58.5 -64t94 -56.5t128.5 -59.5q75 -39 141.5 -82t117 -95t80 -115.5t29.5 -144.5q0 -109 -44 -184t-118.5 -122 t-171.5 -68t-205 -21q-36 0 -88.5 5.5t-107.5 16t-104 25.5t-79 34v245q33 -30 78.5 -54t96.5 -40.5t102 -25.5t94 -9q150 0 223.5 50t73.5 145q0 51 -24.5 88.5t-68.5 68.5t-103.5 59.5t-127.5 59.5q-73 39 -136 79t-109.5 88.5t-73 109.5t-26.5 143zM421 -328q44 -6 71 -6 q133 0 133 82q0 74 -121 74q-10 0 -39 -4v182h136v-94q87 0 138 -40.5t51 -113.5q0 -194 -288 -194q-47 0 -81 3v111z" />
<glyph unicode="&#x15f;" horiz-adv-x="883" d="M87 32v215q130 -99 287 -99q210 0 210 124q0 35 -18 59.5t-48.5 43.5t-72 34t-92.5 34q-63 25 -113.5 53t-84 63.5t-50.5 80.5t-17 105q0 74 35 130.5t94 95t134 58t155 19.5q142 0 254 -43v-203q-108 74 -248 74q-44 0 -79.5 -9t-60.5 -25t-39 -38.5t-14 -49.5 q0 -33 14 -56t41.5 -40.5t66 -32t88.5 -31.5q66 -27 118.5 -55t89.5 -63.5t57 -82t20 -110.5q0 -78 -36 -136t-96 -96t-138.5 -56.5t-165.5 -18.5q-168 0 -291 56zM296 -328q44 -6 71 -6q133 0 133 82q0 74 -121 74q-10 0 -39 -4v182h136v-94q87 0 138 -40.5t51 -113.5 q0 -194 -288 -194q-47 0 -81 3v111z" />
<glyph unicode="&#x160;" horiz-adv-x="1115" d="M110 1064q0 101 45.5 175.5t120 123t169.5 72t194 23.5q225 0 328 -51v-235q-122 88 -314 88q-53 0 -105.5 -10t-94 -33t-67.5 -59t-26 -87q0 -48 20 -83t58.5 -64t94 -56.5t128.5 -59.5q75 -39 141.5 -82t117 -95t80 -115.5t29.5 -144.5q0 -109 -44 -184t-118.5 -122 t-171.5 -68t-205 -21q-36 0 -88.5 5.5t-107.5 16t-104 25.5t-79 34v245q33 -30 78.5 -54t96.5 -40.5t102 -25.5t94 -9q150 0 223.5 50t73.5 145q0 51 -24.5 88.5t-68.5 68.5t-103.5 59.5t-127.5 59.5q-73 39 -136 79t-109.5 88.5t-73 109.5t-26.5 143zM258 1881h155 l160 -210l161 210h157l-224 -327h-185z" />
<glyph unicode="&#x161;" horiz-adv-x="883" d="M87 32v215q130 -99 287 -99q210 0 210 124q0 35 -18 59.5t-48.5 43.5t-72 34t-92.5 34q-63 25 -113.5 53t-84 63.5t-50.5 80.5t-17 105q0 74 35 130.5t94 95t134 58t155 19.5q142 0 254 -43v-203q-108 74 -248 74q-44 0 -79.5 -9t-60.5 -25t-39 -38.5t-14 -49.5 q0 -33 14 -56t41.5 -40.5t66 -32t88.5 -31.5q66 -27 118.5 -55t89.5 -63.5t57 -82t20 -110.5q0 -78 -36 -136t-96 -96t-138.5 -56.5t-165.5 -18.5q-168 0 -291 56zM159 1531h155l160 -210l161 210h157l-224 -327h-185z" />
<glyph unicode="&#x162;" horiz-adv-x="1130" d="M36 1232v202h1061v-202h-412v-1232h-238v1232h-411zM424 -328q44 -6 71 -6q133 0 133 82q0 74 -121 74q-10 0 -39 -4v182h136v-94q87 0 138 -40.5t51 -113.5q0 -194 -288 -194q-47 0 -81 3v111z" />
<glyph unicode="&#x163;" horiz-adv-x="740" d="M43 842v182h171v237l232 66v-303h245v-182h-245v-512q0 -91 33 -130t110 -39q59 0 102 34v-184q-68 -34 -179 -34q-298 0 -298 286v579h-171zM331 -328q44 -6 71 -6q133 0 133 82q0 74 -121 74q-10 0 -39 -4v182h136v-94q87 0 138 -40.5t51 -113.5q0 -194 -288 -194 q-47 0 -81 3v111z" />
<glyph unicode="&#x164;" horiz-adv-x="1130" d="M36 1232v202h1061v-202h-412v-1232h-238v1232h-411zM250 1893h155l160 -210l161 210h157l-224 -327h-185z" />
<glyph unicode="&#x165;" horiz-adv-x="846" d="M43 842v182h171v237l232 66v-303h245v-182h-245v-512q0 -91 33 -130t110 -39q59 0 102 34v-184q-68 -34 -179 -34q-298 0 -298 286v579h-171zM637 1132l105 302h217l-167 -302h-155z" />
<glyph unicode="&#x166;" horiz-adv-x="1130" d="M36 1232v202h1061v-202h-412v-432h242v-205h-242v-595h-238v595h-244v205h244v432h-411z" />
<glyph unicode="&#x167;" horiz-adv-x="740" d="M42 842v182h171v234q0 2 113 36l119 36v-306h245v-182h-245v-177h235v-166h-235v-169q0 -91 32 -130t108 -39q59 0 105 32v-183q-68 -33 -179 -33q-298 0 -298 286v236h-155v166h155v177h-171z" />
<glyph unicode="&#x168;" horiz-adv-x="1440" d="M160 557v877h238v-828q0 -422 328 -422q316 0 316 407v843h238v-854q0 -604 -572 -604q-548 0 -548 581zM383 1534q0 119 51 190.5t143 71.5q68 0 157 -51q72 -44 125 -44q81 0 81 114h119q0 -116 -51.5 -189.5t-139.5 -73.5q-72 0 -165 48q-78 45 -121 45 q-84 0 -84 -111h-115z" />
<glyph unicode="&#x169;" d="M131 412v612h232v-588q0 -276 213 -276q103 0 169.5 76t66.5 199v589h232v-1024h-232v162h-4q-101 -186 -314 -186q-363 0 -363 436zM253 1194q0 119 51 190.5t143 71.5q68 0 157 -51q72 -44 125 -44q81 0 81 114h119q0 -116 -51.5 -189.5t-139.5 -73.5q-72 0 -165 48 q-78 45 -121 45q-84 0 -84 -111h-115z" />
<glyph unicode="&#x16a;" horiz-adv-x="1440" d="M160 557v877h238v-828q0 -422 328 -422q316 0 316 407v843h238v-854q0 -604 -572 -604q-548 0 -548 581zM446 1566v137h543v-137h-543z" />
<glyph unicode="&#x16b;" d="M131 412v612h232v-588q0 -276 213 -276q103 0 169.5 76t66.5 199v589h232v-1024h-232v162h-4q-101 -186 -314 -186q-363 0 -363 436zM317 1204v137h543v-137h-543z" />
<glyph unicode="&#x16c;" horiz-adv-x="1440" d="M160 557v877h238v-828q0 -422 328 -422q316 0 316 407v843h238v-854q0 -604 -572 -604q-548 0 -548 581zM414 1842h136q12 -146 166 -146q65 0 111 39.5t56 106.5h137q-11 -124 -97.5 -200t-209.5 -76q-130 0 -211.5 75.5t-87.5 200.5z" />
<glyph unicode="&#x16d;" d="M131 412v612h232v-588q0 -276 213 -276q103 0 169.5 76t66.5 199v589h232v-1024h-232v162h-4q-101 -186 -314 -186q-363 0 -363 436zM285 1480h136q12 -146 166 -146q65 0 111 39.5t56 106.5h137q-11 -124 -97.5 -200t-209.5 -76q-130 0 -211.5 75.5t-87.5 200.5z" />
<glyph unicode="&#x16e;" horiz-adv-x="1440" d="M160 557v877h238v-828q0 -422 328 -422q316 0 316 407v843h238v-854q0 -604 -572 -604q-548 0 -548 581zM488 1762q0 98 63 156t161 58q96 0 157.5 -58.5t61.5 -149.5q0 -87 -65.5 -144.5t-160.5 -57.5q-94 0 -155.5 54t-61.5 142zM601 1772q0 -104 104 -104 q48 0 79.5 29.5t31.5 74.5t-31.5 74.5t-79.5 29.5q-45 0 -74.5 -30t-29.5 -74z" />
<glyph unicode="&#x16f;" d="M131 412v612h232v-588q0 -276 213 -276q103 0 169.5 76t66.5 199v589h232v-1024h-232v162h-4q-101 -186 -314 -186q-363 0 -363 436zM369 1376q0 98 63 156t161 58q96 0 157.5 -58.5t61.5 -149.5q0 -87 -65.5 -144.5t-160.5 -57.5q-94 0 -155.5 54t-61.5 142zM482 1386 q0 -104 104 -104q48 0 79.5 29.5t31.5 74.5t-31.5 74.5t-79.5 29.5q-45 0 -74.5 -30t-29.5 -74z" />
<glyph unicode="&#x170;" horiz-adv-x="1440" d="M160 557v877h238v-828q0 -422 328 -422q316 0 316 407v843h238v-854q0 -604 -572 -604q-548 0 -548 581zM463 1566l208 318h183l-243 -318h-148zM764 1566l211 318h185l-248 -318h-148z" />
<glyph unicode="&#x171;" d="M131 412v612h232v-588q0 -276 213 -276q103 0 169.5 76t66.5 199v589h232v-1024h-232v162h-4q-101 -186 -314 -186q-363 0 -363 436zM315 1204l208 318h183l-243 -318h-148zM616 1204l211 318h185l-248 -318h-148z" />
<glyph unicode="&#x172;" horiz-adv-x="1440" d="M160 557v877h238v-828q0 -422 328 -422q316 0 316 407v843h238v-854q0 -604 -572 -604q-548 0 -548 581zM599 -250q0 122 161 250h135q-151 -137 -151 -216q0 -68 65 -68q36 0 68 13v-121q-38 -16 -105 -16q-78 0 -125.5 42t-47.5 116z" />
<glyph unicode="&#x173;" d="M131 412v612h232v-588q0 -276 213 -276q103 0 169.5 76t66.5 199v589h232v-1024h-232v162h-4q-101 -186 -314 -186q-363 0 -363 436zM653 -250q0 122 161 250h135q-151 -137 -151 -216q0 -68 65 -68q36 0 68 13v-121q-38 -16 -105 -16q-78 0 -125.5 42t-47.5 116z" />
<glyph unicode="&#x174;" horiz-adv-x="1978" d="M22 1434h261l260 -1050q16 -66 20 -138h5q4 51 28 138l294 1050h245l272 -1058q14 -54 21 -128h4q3 50 23 132l255 1054h246l-393 -1434h-269l-273 1003q-17 64 -21 140h-4q-5 -71 -24 -138l-274 -1005h-275zM684 1566l224 328h184l225 -328h-160l-161 211l-157 -211 h-155z" />
<glyph unicode="&#x175;" horiz-adv-x="1549" d="M20 1024h240l186 -738q9 -33 12 -88h7q3 42 16 90l207 736h218l184 -741q9 -35 13 -88h7q2 37 15 88l182 741h221l-302 -1024h-243l-186 694q-11 40 -14 90h-4q-2 -34 -18 -88l-202 -696h-238zM467 1204l224 328h184l225 -328h-160l-161 211l-157 -211h-155z" />
<glyph unicode="&#x176;" horiz-adv-x="1182" d="M10 1434h271l282 -615q5 -11 30 -83h3q9 32 33 83l295 615h252l-470 -913v-521h-238v516zM277 1566l224 328h184l225 -328h-160l-161 211l-157 -211h-155z" />
<glyph unicode="&#x177;" horiz-adv-x="1041" d="M6 1024h257l244 -744q4 -14 18 -74h5q5 23 18 72l256 746h234l-462 -1188q-144 -318 -404 -318q-73 0 -122 13v193q55 -18 100 -18q130 0 194 128l69 168zM214 1204l224 328h184l225 -328h-160l-161 211l-157 -211h-155z" />
<glyph unicode="&#x178;" horiz-adv-x="1182" d="M10 1434h271l282 -615q5 -11 30 -83h3q9 32 33 83l295 615h252l-470 -913v-521h-238v516zM260 1682q0 49 35.5 82t86.5 33t88.5 -33.5t37.5 -81.5q0 -49 -36 -83t-86 -34q-52 0 -89 34.5t-37 82.5zM679 1682q0 49 35 82t85 33q53 0 89.5 -33.5t36.5 -81.5q0 -49 -35 -83 t-88 -34q-50 0 -86.5 33t-36.5 84z" />
<glyph unicode="&#x179;" horiz-adv-x="1202" d="M36 0v109l789 1123h-728v202h1058v-104l-786 -1129h776v-201h-1109zM482 1581l242 328h216l-286 -328h-172z" />
<glyph unicode="&#x17a;" horiz-adv-x="951" d="M29 0v87l565 756h-511v181h824v-97l-553 -746h551v-181h-876zM357 1218l242 328h216l-286 -328h-172z" />
<glyph unicode="&#x17b;" horiz-adv-x="1202" d="M36 0v109l789 1123h-728v202h1058v-104l-786 -1129h776v-201h-1109zM491 1681q0 48 36 81t87 33t87 -32.5t36 -81.5q0 -48 -36 -82t-87 -34q-50 0 -86.5 33.5t-36.5 82.5z" />
<glyph unicode="&#x17c;" horiz-adv-x="951" d="M29 0v87l565 756h-511v181h824v-97l-553 -746h551v-181h-876zM373 1319q0 48 36 81t87 33t87 -32.5t36 -81.5q0 -48 -36 -82t-87 -34q-50 0 -86.5 33.5t-36.5 82.5z" />
<glyph unicode="&#x17d;" horiz-adv-x="1202" d="M36 0v109l789 1123h-728v202h1058v-104l-786 -1129h776v-201h-1109zM307 1878h155l160 -210l161 210h157l-224 -327h-185z" />
<glyph unicode="&#x17e;" horiz-adv-x="951" d="M29 0v87l565 756h-511v181h824v-97l-553 -746h551v-181h-876zM189 1531h155l160 -210l161 210h157l-224 -327h-185z" />
<glyph unicode="&#x17f;" horiz-adv-x="548" d="M151 0v1172q0 168 103 267q103 100 267 100q82 0 137 -19v-192q-54 26 -112 26q-162 0 -162 -194v-1160h-233z" />
<glyph unicode="&#x180;" horiz-adv-x="1234" d="M10 1189v169h141v158h231v-158h241v-169h-241v-334h4q116 191 339 191q197 0 310 -136t113 -369q0 -257 -122 -410.5t-336 -153.5q-197 0 -304 157h-4v-134h-231v1189h-141zM380 430q0 -113 71 -191.5t181 -78.5q129 0 203.5 100t74.5 276q0 153 -69 240t-188 87 q-123 0 -198 -87.5t-75 -219.5v-126z" />
<glyph unicode="&#x181;" horiz-adv-x="1421" d="M-67 1067q0 158 113 262.5t300 104.5h461q211 0 335 -92t124 -240q0 -120 -69.5 -208t-192.5 -125v-4q148 -17 237 -108.5t89 -237.5q0 -187 -139.5 -303t-352.5 -116h-478v1243h-26q-89 0 -137.5 -48.5t-48.5 -129.5q0 -62 21 -120h-215q-21 56 -21 122zM598 190h204 q132 0 205 62t73 170q0 222 -296 222h-186v-454zM598 835h158q121 0 190 58t69 164q0 186 -245 186h-172v-408z" />
<glyph unicode="&#x182;" horiz-adv-x="1236" d="M177 0v1434h836v-204h-598v-391h278q218 0 339.5 -104t121.5 -295q0 -204 -130.5 -322t-355.5 -118h-491zM415 190h215q131 0 202 62t71 173q0 225 -277 225h-211v-460z" />
<glyph unicode="&#x183;" horiz-adv-x="1234" d="M151 0v1516h856v-170h-625v-491h4q118 193 345 193q195 0 306 -137t111 -370q0 -256 -124 -410.5t-340 -154.5q-193 0 -298 158h-4v-134h-231zM380 429q0 -112 70.5 -190.5t181.5 -78.5q128 0 203 100.5t75 275.5q0 150 -69 238.5t-188 88.5q-121 0 -197 -89.5 t-76 -224.5v-120z" />
<glyph unicode="&#x184;" horiz-adv-x="1242" d="M10 1231v25l381 202h24v-620h275q220 0 342 -103t122 -295q0 -204 -130.5 -322t-355.5 -118h-491v1085zM415 189h215q131 0 201.5 62.5t70.5 173.5q0 226 -267 226h-220v-462z" />
<glyph unicode="&#x185;" horiz-adv-x="1234" d="M-14 1287v28l372 200h24v-660h4q119 190 347 190q194 0 304.5 -136t110.5 -368q0 -255 -124.5 -409t-341.5 -154q-192 0 -296 156h-4v-134h-231v1146zM380 430q0 -113 71 -191.5t181 -78.5q129 0 203.5 100t74.5 276q0 153 -69 240t-188 87q-123 0 -198 -87.5t-75 -219.5 v-126z" />
<glyph unicode="&#x186;" horiz-adv-x="1274" d="M98 32v238q151 -86 334 -86q226 0 367 149t141 396q0 239 -132.5 379.5t-348.5 140.5q-209 0 -361 -94v223q162 80 404 80q311 0 499 -196.5t188 -515.5q0 -345 -209.5 -557.5t-535.5 -212.5q-209 0 -346 56z" />
<glyph unicode="&#x187;" horiz-adv-x="1274" d="M85 688q0 344 208.5 557t530.5 213q87 0 176 -24q3 93 79 160.5t194 67.5q57 0 113 -20v-189q-48 23 -89 23q-127 0 -127 -167q0 -59 14 -145l-9 -6q-167 91 -353 91q-216 0 -351.5 -149t-135.5 -396q0 -238 132.5 -379t347.5 -141q209 0 362 94v-222q-162 -80 -403 -80 q-313 0 -501 196.5t-188 515.5z" />
<glyph unicode="&#x188;" horiz-adv-x="968" d="M85 489q0 240 148 399.5t384 159.5q65 0 122 -15q2 87 70.5 147.5t171.5 60.5q47 0 102 -19v-173q-40 21 -77 21q-119 0 -119 -155q0 -78 9 -121l-8 -5q-136 74 -251 74q-140 0 -227.5 -98t-87.5 -261q0 -160 86.5 -252t232.5 -92q129 0 243 82v-200q-123 -66 -293 -66 q-229 0 -367.5 142.5t-138.5 370.5z" />
<glyph unicode="&#x189;" horiz-adv-x="1469" d="M15 616v205h162v613h414q793 0 793 -699q0 -334 -220 -534.5t-590 -200.5h-397v616h-162zM414 201h190q251 0 390.5 138t139.5 392q0 501 -521 501h-199v-411h307v-205h-307v-415z" />
<glyph unicode="&#x18a;" horiz-adv-x="1653" d="M-69 1079q0 153 113.5 254t301.5 101h418q803 0 803 -699q0 -332 -209 -533.5t-561 -201.5h-437v1232h-26q-89 0 -137.5 -47t-48.5 -125q0 -60 21 -115h-215q-23 62 -23 134zM598 201h190q251 0 390 138t139 392q0 501 -520 501h-199v-1031z" />
<glyph unicode="&#x18b;" horiz-adv-x="1236" d="M82 400q0 200 135.5 319t364.5 119h238v391h-599v205h837v-1434h-502q-230 0 -352 103t-122 297zM333 413q0 -226 268 -226h219v463h-212q-275 0 -275 -237z" />
<glyph unicode="&#x18c;" horiz-adv-x="1234" d="M85 488q0 254 127.5 407t340.5 153q202 0 294 -155h4v453h-625v170h856v-1516h-231v159h-4q-109 -183 -336 -183q-194 0 -310 137.5t-116 374.5zM322 496q0 -156 71.5 -246t192.5 -90q119 0 193 86.5t74 217.5v132q0 112 -72 189.5t-182 77.5q-129 0 -203 -97.5 t-74 -269.5z" />
<glyph unicode="&#x18d;" horiz-adv-x="1230" d="M85 557q0 212 151 351.5t388 139.5q231 0 375.5 -134t144.5 -336q0 -273 -348 -482q108 -81 146 -142t38 -139q0 -126 -115.5 -211t-298.5 -85q-184 0 -337 79v223q153 -112 328 -112q188 0 188 112q0 46 -43 87.5t-238 147.5q-205 122 -292 241t-87 260zM322 571 q0 -95 57 -177.5t244 -193.5q163 96 223.5 183.5t60.5 187.5q0 134 -79.5 213t-212.5 79q-132 0 -212.5 -79.5t-80.5 -212.5z" />
<glyph unicode="&#x18e;" horiz-adv-x="1061" d="M79 0v201h567v414h-496v202h496v415h-534v202h772v-1434h-805z" />
<glyph unicode="&#x18f;" horiz-adv-x="1512" d="M82 819h1090q-16 202 -148.5 319t-337.5 117q-235 0 -405 -121v219q178 105 432 105q333 0 523.5 -195t190.5 -538q0 -325 -190 -537t-505 -212q-312 0 -481 214t-169 629zM338 620q4 -202 110.5 -322.5t289.5 -120.5q185 0 300.5 120t133.5 323h-834z" />
<glyph unicode="&#x190;" horiz-adv-x="1124" d="M96 388q0 130 81 226.5t225 133.5v6q-256 78 -256 311q0 170 148 281.5t383 111.5q182 0 330 -66v-221q-151 78 -324 78q-131 0 -210 -54t-79 -145q0 -92 96 -152.5t258 -60.5h99v-204h-102q-398 0 -398 -227q0 -104 89 -163t242 -59q196 0 360 84v-220 q-167 -72 -376 -72q-263 0 -414.5 112.5t-151.5 299.5z" />
<glyph unicode="&#x191;" horiz-adv-x="1030" d="M-106 -146q51 -29 114 -29q169 0 169 229v1380h773v-202h-536v-432h495v-201h-495v-546q0 -436 -382 -436q-75 0 -138 23v214z" />
<glyph unicode="&#x192;" horiz-adv-x="1137" d="M87 -84q34 -21 82 -21q144 0 181 270l88 590h-104v172h133l20 148q20 165 119 264.5t252 99.5q74 0 135 -24v-190q-53 28 -119 28q-138 0 -160 -150l-27 -176h162v-172h-189l-97 -635q-62 -410 -373 -410q-35 0 -103 18v188z" />
<glyph unicode="&#x193;" horiz-adv-x="1435" d="M85 696q0 334 217 548t550 214q111 0 220 -30q3 96 79.5 165t194.5 69q56 0 112 -20v-189q-46 23 -87 23q-130 0 -130 -167q0 -72 15 -155l-8 -6q-191 105 -402 105q-225 0 -367.5 -150.5t-142.5 -392.5q0 -247 129.5 -388t350.5 -141q140 0 243 57v341h-302v200h541 v-682q-224 -121 -500 -121q-319 0 -516 197.5t-197 522.5z" />
<glyph unicode="&#x194;" horiz-adv-x="1315" d="M14 1434h264l334 -927q31 -81 42 -157h6q18 77 45 152l341 932h255l-490 -1250l7 -13q135 -250 135 -370q0 -119 -77.5 -201t-227.5 -82q-125 0 -209.5 80t-84.5 203q0 66 24 130t113 232l9 17zM584 -194q0 -93 69 -93q70 0 70 93q0 64 -70 199q-69 -135 -69 -199z" />
<glyph unicode="&#x195;" horiz-adv-x="1845" d="M151 0v1516h232v-650h4q102 177 313 177q336 0 336 -413v-161q0 -302 220 -302q112 0 179 84.5t67 226.5q0 280 -138 546h245q124 -266 124 -540q0 -229 -135 -368.5t-350 -139.5q-444 0 -444 472v137q0 147 -45 212.5t-152 65.5q-98 0 -161 -77.5t-63 -201.5v-584h-232z " />
<glyph unicode="&#x196;" horiz-adv-x="672" d="M175 329v1105h238v-1110q0 -137 120 -137q51 0 98 25v-204q-81 -29 -161 -29q-295 0 -295 350z" />
<glyph unicode="&#x197;" horiz-adv-x="643" d="M41 622v209h161v603h238v-603h162v-209h-162v-622h-238v622h-161z" />
<glyph unicode="&#x198;" horiz-adv-x="1251" d="M177 0v1434h237v-671h5l308 418q137 187 209 232t162 45q62 0 123 -26v-214q-50 30 -105 30q-71 0 -175 -140l-281 -366l602 -742h-312l-497 649q-28 36 -34 49h-5v-698h-237z" />
<glyph unicode="&#x199;" horiz-adv-x="1076" d="M151 0v1172q0 167 97 266.5t248 99.5q85 0 141 -20v-192q-55 27 -108 27q-146 0 -146 -186v-614h4l374 471h287l-427 -489l459 -535h-294l-399 499h-4v-499h-232z" />
<glyph unicode="&#x19a;" horiz-adv-x="573" d="M20 699v169h150v648h233v-648h149v-169h-149v-699h-233v699h-150z" />
<glyph unicode="&#x19b;" horiz-adv-x="1067" d="M1 0l456 1011l-17 45l-249 -122l-65 128l267 128q-50 124 -146 124q-66 0 -130 -27v206q74 20 160 20q114 0 184 -50.5t129 -177.5l222 108l63 -127l-233 -113l398 -1153h-245l-244 774l-299 -774h-251z" />
<glyph unicode="&#x19c;" horiz-adv-x="1901" d="M173 438v996h237v-939q0 -157 44.5 -231.5t153.5 -74.5q92 0 156.5 86.5t64.5 207.5v951h238v-972q0 -270 189 -270q99 0 163.5 82t64.5 212v948h239v-1434h-236v173h-4q-111 -197 -328 -197q-221 0 -295 215q-115 -215 -346 -215q-341 0 -341 462z" />
<glyph unicode="&#x19d;" horiz-adv-x="1571" d="M-106 -144q51 -28 114 -28q169 0 169 258v1348h276l662 -1030q41 -64 53 -88h4q-9 57 -9 193v925h231v-1434h-261l-687 1054q-26 40 -43 83h-6q9 -42 9 -181v-901q0 -435 -374 -435q-75 0 -138 23v213z" />
<glyph unicode="&#x19e;" horiz-adv-x="1204" d="M131 1024h235q17 -69 17 -169h2q110 193 335 193q166 0 254.5 -107.5t88.5 -311.5v-1063h-234v1004q0 287 -205 287q-106 0 -173.5 -84.5t-67.5 -211.5v-561h-232v669q0 257 -20 355z" />
<glyph unicode="&#x19f;" horiz-adv-x="1548" d="M85 699q0 346 189.5 552.5t515.5 206.5q303 0 488 -201t185 -526q0 -349 -189.5 -552t-507.5 -203q-309 0 -495 200.5t-186 522.5zM342 617q18 -199 134.5 -316t293.5 -117q190 0 306 113.5t132 319.5h-866zM342 812h865q-16 209 -128 323t-299 114q-181 0 -300 -119 t-138 -318z" />
<glyph unicode="&#x1a0;" horiz-adv-x="1575" d="M85 700q0 346 189.5 552t515.5 206q213 0 371 -102q48 -10 80 -10q204 0 204 131q0 67 -20 121h161q21 -54 21 -134q0 -110 -70 -178.5t-192 -68.5h-34q152 -192 152 -482q0 -351 -189.5 -555t-507.5 -204q-309 0 -495 201t-186 523zM334 715q0 -239 120 -385t312 -146 q208 0 327.5 139t119.5 389q0 257 -116 397t-319 140q-198 0 -321 -147.5t-123 -386.5z" />
<glyph unicode="&#x1a1;" horiz-adv-x="1253" d="M85 500q0 258 146 403t394 145q45 0 126 -14q57 -10 160 -10q66 0 110.5 38t44.5 92q0 68 -19 122h160q21 -55 21 -134q0 -198 -223 -239q133 -139 133 -387q0 -245 -144.5 -392.5t-387.5 -147.5q-237 0 -379 143.5t-142 380.5zM323 506q0 -161 80 -253.5t214 -92.5 q137 0 210.5 91t73.5 259q0 169 -73.5 261t-211.5 92q-135 0 -214 -95t-79 -262z" />
<glyph unicode="&#x1a2;" horiz-adv-x="2065" d="M85 699q0 332 200.5 545.5t522.5 213.5q120 0 325 -36q204 -37 320 -37q233 0 435 73v-1458h-238v1200q-112 -18 -236 -18q-52 0 -127 9v-1094q-260 -121 -503 -121q-318 0 -508.5 199.5t-190.5 523.5zM336 713q0 -241 126.5 -386.5t333.5 -145.5q135 0 254 48v995 q-170 25 -249 25q-206 0 -335.5 -148t-129.5 -388z" />
<glyph unicode="&#x1a3;" horiz-adv-x="1675" d="M85 503q0 250 152.5 397.5t396.5 147.5q92 0 258 -33t258 -33q189 0 374 66v-1048h-229v813q-80 -16 -153 -16q-71 0 -140 9v-748q-189 -82 -388 -82q-241 0 -385 142t-144 385zM319 508q0 -163 84.5 -255.5t228.5 -92.5q86 0 144 25v660q-97 18 -151 18 q-137 0 -221.5 -94.5t-84.5 -260.5z" />
<glyph unicode="&#x1a4;" horiz-adv-x="1382" d="M-69 1079q0 153 113.5 254t301.5 101h410q266 0 412 -116t146 -326q0 -206 -142.5 -339t-383.5 -133h-190v-520h-238v1238h-26q-89 0 -137.5 -48.5t-48.5 -129.5q0 -60 20 -115h-214q-23 62 -23 134zM598 714h154q313 0 313 269q0 255 -294 255h-173v-524z" />
<glyph unicode="&#x1a5;" horiz-adv-x="1234" d="M151 -471v1643q0 166 94.5 266t243.5 100q89 0 148 -20v-192q-55 27 -108 27q-146 0 -146 -186v-312h4q114 193 343 193q196 0 307 -137t111 -370q0 -257 -124.5 -411t-340.5 -154q-194 0 -296 158h-4v-605h-232zM381 435q0 -114 71 -194.5t181 -80.5q130 0 203.5 100.5 t73.5 280.5q0 151 -69 236.5t-187 85.5q-121 0 -197 -88.5t-76 -223.5v-116z" />
<glyph unicode="&#x1a6;" horiz-adv-x="1235" d="M177 0v1434h237v-172h225q224 0 350 -103.5t126 -280.5q0 -289 -321 -366v-4q100 -58 181 -215l217 -464h-277l-179 413q-81 200 -222 200h-100v-442h-237zM414 634h182q123 0 195.5 57t72.5 160q0 217 -251 217h-199v-434z" />
<glyph unicode="&#x1a7;" horiz-adv-x="1115" d="M87 381q0 82 30.5 144.5t82 114.5t120 94.5t144.5 81.5q71 33 124.5 60t91 56t57 65t19.5 84q0 49 -24.5 83t-63.5 55.5t-88 31t-100 9.5q-203 0 -332 -88v235q105 51 331 51q98 0 193 -24t169 -73.5t119.5 -125.5t45.5 -179q0 -81 -26.5 -140.5t-73.5 -107t-110 -87 t-136 -77.5q-69 -32 -128.5 -61t-103 -61t-68 -70.5t-24.5 -90.5q0 -91 69.5 -139.5t209.5 -48.5q45 0 99 9t107 26t101 42t82 55v-248q-30 -19 -79 -34t-104.5 -25.5t-108 -16t-89.5 -5.5q-106 0 -203 21.5t-171.5 69.5t-118 125.5t-43.5 188.5z" />
<glyph unicode="&#x1a8;" horiz-adv-x="883" d="M69 292q0 62 20 107t57 79.5t90.5 62t118.5 53.5q49 17 88 32t66 33t41 41t14 58q0 26 -13 48t-36.5 37.5t-56.5 24t-74 8.5q-148 0 -261 -72v201q113 43 255 43q80 0 155 -20t133.5 -59t93.5 -97t35 -133q0 -59 -16.5 -103t-49.5 -79t-82.5 -62.5t-114.5 -54.5 q-49 -17 -91.5 -32t-74 -34t-50 -44t-18.5 -61q0 -121 200 -121q164 0 298 96v-212q-123 -56 -291 -56q-85 0 -164 19t-139.5 58.5t-96.5 98.5t-36 140z" />
<glyph unicode="&#x1a9;" horiz-adv-x="1106" d="M44 0v120l464 613l-429 568v133h920v-205h-581l368 -487l-404 -544h679v-198h-1017z" />
<glyph unicode="&#x1aa;" horiz-adv-x="754" d="M-124 1245q0 123 90 208.5t225 85.5q162 0 254 -102.5t92 -281.5v-1269q0 -182 137 -182q56 0 102 31v-182q-68 -35 -177 -35q-293 0 -293 326v1149q-67 -30 -145 -30q-120 0 -202.5 80t-82.5 202zM84 1253q0 -43 32.5 -72.5t83.5 -29.5q56 0 106 26v13q0 166 -119 166 q-44 0 -73.5 -30t-29.5 -73z" />
<glyph unicode="&#x1ab;" horiz-adv-x="741" d="M42 842v182h171v236q108 32 231 70v-306h246v-182h-246v-505q0 -95 32 -136t109 -41q59 0 105 32v-244q0 -152 -87.5 -241.5t-231.5 -89.5q-71 0 -132 27v182q56 -32 121 -32q137 0 137 145v37q-284 0 -284 362v504h-171z" />
<glyph unicode="&#x1ac;" horiz-adv-x="1178" d="M-37 1082q0 153 112.5 252.5t299.5 99.5h768v-202h-412v-1232h-238v1232h-142q-83 0 -129.5 -45.5t-46.5 -123.5q0 -56 19 -107h-209q-22 58 -22 126z" />
<glyph unicode="&#x1ad;" horiz-adv-x="741" d="M42 842v182h172v192q0 148 84 235.5t228 87.5q88 0 165 -31v-187q-57 33 -117 33q-129 0 -129 -184v-146h246v-182h-246v-504q0 -95 32 -136t109 -41q59 0 105 32v-187q-68 -29 -179 -29q-298 0 -298 321v544h-172z" />
<glyph unicode="&#x1ae;" horiz-adv-x="1132" d="M35 1232v202h1062v-202h-412v-1177q0 -230 165 -230q69 0 120 23v-202q-66 -30 -155 -30q-368 0 -368 429v1187h-412z" />
<glyph unicode="&#x1af;" horiz-adv-x="1519" d="M159 579v855h238v-851q0 -399 327 -399q318 0 318 385v865h216q60 0 100 35.5t40 84.5q0 74 -19 132h161q18 -56 18 -136q0 -218 -278 -250v-702q0 -622 -574 -622q-547 0 -547 603z" />
<glyph unicode="&#x1b0;" horiz-adv-x="1278" d="M131 413v611h232v-588q0 -276 214 -276q103 0 169 76t66 199v589h197q56 0 94 39t38 94q0 66 -20 119h157q18 -53 18 -128q0 -212 -252 -250v-898h-232v159h-4q-100 -181 -318 -181q-359 0 -359 435z" />
<glyph unicode="&#x1b1;" horiz-adv-x="1555" d="M90 625q0 385 348 610h-348v199h556v-199q-307 -235 -307 -584q0 -219 120.5 -344t313.5 -125q196 0 319 127t123 347q0 344 -307 579v199h555v-199h-343q348 -227 348 -612q0 -298 -185.5 -472.5t-504.5 -174.5q-312 0 -500 173t-188 476z" />
<glyph unicode="&#x1b2;" horiz-adv-x="1523" d="M175 574v860h238v-836q0 -414 319 -414q201 0 330 181t129 446q0 442 -254 442q-79 0 -149 -31v207q86 29 184 29q211 0 336.5 -172.5t125.5 -462.5q0 -354 -202 -600.5t-511 -246.5q-546 0 -546 598z" />
<glyph unicode="&#x1b3;" horiz-adv-x="1212" d="M8 1434h252l293 -615q24 -48 34 -83h2l32 84l182 391q69 142 147.5 194.5t192.5 52.5q65 0 132 -25v-212q-46 28 -102 28q-92 0 -162 -134l-294 -599v-516h-238v521z" />
<glyph unicode="&#x1b4;" horiz-adv-x="1131" d="M5 1024h258l244 -745q9 -27 19 -74h5q5 26 19 77l184 514q111 252 324 252q55 0 120 -21v-190q-51 25 -103 25q-97 0 -160 -161l-336 -864q-144 -316 -408 -316q-75 0 -122 17v194q60 -27 115 -27q124 0 186 143l70 158z" />
<glyph unicode="&#x1b5;" horiz-adv-x="1202" d="M36 0v109l363 519h-204v201h350l280 403h-729v202h1059v-104l-348 -501h238v-201h-380l-296 -427h776v-201h-1109z" />
<glyph unicode="&#x1b6;" horiz-adv-x="951" d="M29 0l1 89l262 350h-143v165h266l179 238h-511v182h824v-97l-240 -323h165v-165h-287l-191 -258h551v-181h-876z" />
<glyph unicode="&#x1b7;" horiz-adv-x="1304" d="M24 -126q233 -147 464 -147q214 0 347.5 108t133.5 281q0 183 -148.5 284.5t-410.5 101.5h-90v125l482 605h-755v202h1084v-123l-495 -620q265 -23 423.5 -176t158.5 -393q0 -263 -209 -433.5t-522 -170.5q-242 0 -463 113v243z" />
<glyph unicode="&#x1b8;" horiz-adv-x="1304" d="M85 106q0 238 162 400t420 185l-495 620v123h1084v-202h-751l480 -605v-125h-116q-247 0 -390.5 -103t-143.5 -283q0 -173 133 -281t346 -108q250 0 465 135v-231q-221 -113 -482 -113q-313 0 -512.5 162.5t-199.5 425.5z" />
<glyph unicode="&#x1b9;" horiz-adv-x="955" d="M25 -21q0 178 121.5 305.5t324.5 156.5l-380 485v98h858v-182h-554l364 -476v-87h-102q-185 0 -290.5 -76.5t-105.5 -211.5q0 -126 100 -206t256 -80q204 0 366 106v-204q-164 -87 -379 -87q-256 0 -417.5 126t-161.5 333z" />
<glyph unicode="&#x1ba;" horiz-adv-x="871" d="M-8 -223q0 209 325 317q148 46 205 92t57 122q0 74 -73 116.5t-205 42.5h-83v97l258 282h-457v178h756v-114l-282 -299q152 -17 236 -95.5t84 -203.5q0 -127 -86.5 -215t-290.5 -157q-136 -43 -177 -73t-41 -76q0 -92 172 -92q167 0 303 82v-198q-137 -64 -323 -64 q-179 0 -278.5 68.5t-99.5 189.5z" />
<glyph unicode="&#x1bb;" horiz-adv-x="1137" d="M101 0v191l331 356h-221v190h392q86 98 119.5 162.5t33.5 134.5q0 110 -65 172t-182 62q-186 0 -360 -157v220q163 127 394 127q208 0 327 -106.5t119 -287.5q0 -153 -138 -327h151v-190h-311l-318 -348h628v-199h-900z" />
<glyph unicode="&#x1bc;" horiz-adv-x="1137" d="M122 1236v198h824v-198h-459l-51 -360q61 5 103 5q226 0 349 -114.5t123 -315.5q0 -214 -141 -344.5t-387 -130.5q-203 0 -319 59v218q150 -93 305 -93q138 0 221.5 75t83.5 197q0 123 -88 191.5t-251 68.5q-52 0 -131 -6q-99 -8 -106 -8l82 558h-158z" />
<glyph unicode="&#x1bd;" horiz-adv-x="837" d="M62 843v181h677v-181h-368l-29 -211q56 4 78 4q155 0 255 -82t100 -227q0 -155 -114 -253t-304 -98q-175 0 -262 44v195q115 -67 239 -67q91 0 147.5 44.5t56.5 115.5q0 69 -61 111.5t-170 42.5q-23 0 -189 -12l53 393h-109z" />
<glyph unicode="&#x1be;" horiz-adv-x="849" d="M32 842v182h130v253l232 54v-307h246v-182h-246v-76q0 -58 25.5 -94.5t99.5 -74.5q149 -70 209 -143t60 -170q0 -135 -109.5 -221.5t-298.5 -86.5q-161 0 -273 56v212q123 -96 278 -96q175 0 175 121q0 41 -25 75t-137 90q-145 70 -190.5 141.5t-45.5 172.5v94h-130z" />
<glyph unicode="&#x1bf;" horiz-adv-x="1166" d="M151 -471v1495h232v-129q165 153 352 153q157 0 261 -107.5t104 -267.5q0 -214 -190.5 -405.5t-526.5 -316.5v-422h-232zM383 161q213 83 348 214t135 279q0 87 -52 144t-138 57q-135 0 -293 -153v-541z" />
<glyph unicode="&#x1c0;" horiz-adv-x="570" d="M189 -482v2048h194v-2048h-194z" />
<glyph unicode="&#x1c1;" horiz-adv-x="938" d="M189 -482v2048h194v-2048h-194zM557 -482v2048h195v-2048h-195z" />
<glyph unicode="&#x1c2;" horiz-adv-x="990" d="M55 284v181h342v275h-342v181h342v645h195v-645h342v-181h-342v-275h342v-181h-342v-766h-195v766h-342z" />
<glyph unicode="&#x1c3;" horiz-adv-x="622" d="M167 112q0 57 42 97t102 40q58 0 100.5 -40t42.5 -97q0 -55 -42.5 -93.5t-100.5 -38.5q-60 0 -102 38.5t-42 93.5zM187 1434h235l-19 -1012h-190z" />
<glyph unicode="&#x1c4;" horiz-adv-x="2592" d="M177 0v1434h414q793 0 793 -699q0 -332 -220 -533.5t-590 -201.5h-397zM414 201h190q251 0 390.5 138t139.5 390q0 503 -521 503h-199v-1031zM1426 0v109l789 1123h-728v202h1058v-104l-786 -1129h776v-201h-1109zM1706 1890h155l160 -210l161 210h157l-224 -327h-185z " />
<glyph unicode="&#x1c5;" horiz-adv-x="2397" d="M177 0v1434h414q793 0 793 -699q0 -332 -220 -533.5t-590 -201.5h-397zM414 201h190q251 0 390.5 138t139.5 390q0 503 -521 503h-199v-1031zM1475 0v87l565 756h-511v181h824v-97l-553 -746h551v-181h-876zM1642 1531h155l160 -210l161 210h157l-224 -327h-185z" />
<glyph unicode="&#x1c6;" horiz-adv-x="2155" d="M85 488q0 254 125.5 407t334.5 153q207 0 301 -166h4v634h232v-1516h-232v174h-4q-112 -198 -345 -198q-189 0 -302.5 137.5t-113.5 374.5zM322 497q0 -156 71.5 -246.5t192.5 -90.5q119 0 193 87.5t74 220.5v134q0 109 -71 185t-181 76q-130 0 -204.5 -97t-74.5 -269z M1233 0v87l565 756h-511v181h824v-97l-553 -746h551v-181h-876zM1401 1531h155l160 -210l161 210h157l-224 -327h-185z" />
<glyph unicode="&#x1c7;" horiz-adv-x="1753" d="M177 0v1434h238v-1233h556v-201h-794zM1047 -1v224q57 -39 147 -39q238 0 238 368v882h238v-920q0 -255 -126 -396.5t-336 -141.5q-98 0 -161 23z" />
<glyph unicode="&#x1c8;" horiz-adv-x="1474" d="M177 0v1434h238v-1233h556v-201h-794zM811 -251q65 -45 123 -45q196 0 196 346v974h232v-981q0 -252 -106 -388.5t-303 -136.5q-73 0 -142 32v199zM1110 1370q0 57 40.5 95t97.5 38q58 0 99 -38t41 -95q0 -54 -41 -92.5t-99 -38.5q-57 0 -97.5 37t-40.5 94z" />
<glyph unicode="&#x1c9;" horiz-adv-x="1088" d="M151 0v1516h233v-1516h-233zM384 -251q65 -45 123 -45q196 0 196 346v974h232v-981q0 -252 -106 -388.5t-303 -136.5q-73 0 -142 32v199zM683 1370q0 57 40.5 95t97.5 38q58 0 99 -38t41 -95q0 -54 -41 -92.5t-99 -38.5q-57 0 -97.5 37t-40.5 94z" />
<glyph unicode="&#x1ca;" horiz-adv-x="2317" d="M177 0v1434h277l662 -1029q42 -64 54 -88h4q-10 57 -10 193v924h229v-1434h-260l-685 1054q-26 40 -43 83h-6q8 -46 8 -197v-940h-230zM1530 -1v224q57 -39 147 -39q238 0 238 368v882h238v-920q0 -255 -126 -396.5t-336 -141.5q-98 0 -161 23z" />
<glyph unicode="&#x1cb;" horiz-adv-x="2066" d="M177 0v1434h277l662 -1029q42 -64 54 -88h4q-10 57 -10 193v924h229v-1434h-260l-685 1054q-26 40 -43 83h-6q8 -46 8 -197v-940h-230zM1363 -251q65 -45 123 -45q196 0 196 346v974h232v-981q0 -252 -106 -388.5t-303 -136.5q-73 0 -142 32v199zM1662 1370q0 57 40.5 95 t97.5 38q58 0 99 -38t41 -95q0 -54 -41 -92.5t-99 -38.5q-57 0 -97.5 37t-40.5 94z" />
<glyph unicode="&#x1cc;" horiz-adv-x="1737" d="M151 0v1024h233v-170h4q115 194 332 194q167 0 255 -108.5t88 -313.5v-626h-232v577q0 287 -203 287q-106 0 -175 -79.5t-69 -200.5v-584h-233zM1034 -251q65 -45 123 -45q196 0 196 346v974h232v-981q0 -252 -106 -388.5t-303 -136.5q-73 0 -142 32v199zM1333 1370 q0 57 40.5 95t97.5 38q58 0 99 -38t41 -95q0 -54 -41 -92.5t-99 -38.5q-57 0 -97.5 37t-40.5 94z" />
<glyph unicode="&#x1cd;" horiz-adv-x="1375" d="M17 0l537 1434h268l533 -1434h-261l-129 365h-564l-124 -365h-260zM368 1886h155l160 -210l161 210h157l-224 -327h-185zM463 559h439l-199 572q-9 28 -19 90h-4q-9 -57 -20 -90z" />
<glyph unicode="&#x1ce;" horiz-adv-x="1069" d="M75 275q0 290 334 338l304 43q0 219 -208 219q-183 0 -330 -126v203q162 96 374 96q388 0 388 -382v-666h-225v160h-4q-106 -184 -311 -184q-151 0 -236.5 82t-85.5 217zM208 1527h155l160 -210l161 210h157l-224 -327h-185zM297 300q0 -65 46.5 -106.5t124.5 -41.5 q106 0 175.5 74.5t69.5 187.5v89l-215 -30q-100 -13 -150.5 -48.5t-50.5 -124.5z" />
<glyph unicode="&#x1cf;" horiz-adv-x="597" d="M-18 1886h155l160 -210l161 210h157l-224 -327h-185zM176 0v1434h245v-1434h-245z" />
<glyph unicode="&#x1d0;" horiz-adv-x="535" d="M-48 1527h155l160 -210l161 210h157l-224 -327h-185zM151 0v1024h233v-1024h-233z" />
<glyph unicode="&#x1d1;" horiz-adv-x="1548" d="M85 700q0 346 190 552t516 206q302 0 486.5 -200t184.5 -523q0 -351 -189 -555t-505 -204q-310 0 -496.5 201t-186.5 523zM335 715q0 -239 120 -385t314 -146q206 0 325 139t119 389q0 257 -115.5 397t-318.5 140q-197 0 -320.5 -147t-123.5 -387zM457 1886h155l160 -210 l161 210h157l-224 -327h-185z" />
<glyph unicode="&#x1d2;" horiz-adv-x="1223" d="M85 500q0 258 147.5 403t397.5 145q240 0 374 -141t134 -391q0 -245 -144.5 -392.5t-388.5 -147.5q-237 0 -378.5 143.5t-141.5 380.5zM295 1527h155l160 -210l161 210h157l-224 -327h-185zM322 506q0 -161 80 -253.5t214 -92.5q137 0 210.5 91t73.5 259q0 169 -73.5 261 t-210.5 92q-136 0 -215 -95t-79 -262z" />
<glyph unicode="&#x1d3;" horiz-adv-x="1440" d="M160 557v877h238v-828q0 -422 328 -422q316 0 316 407v843h238v-854q0 -604 -572 -604q-548 0 -548 581zM419 1886h155l160 -210l161 210h157l-224 -327h-185z" />
<glyph unicode="&#x1d4;" d="M131 412v612h232v-588q0 -276 213 -276q103 0 169.5 76t66.5 199v589h232v-1024h-232v162h-4q-101 -186 -314 -186q-363 0 -363 436zM280 1527h155l160 -210l161 210h157l-224 -327h-185z" />
<glyph unicode="&#x1d5;" horiz-adv-x="1440" d="M160 557v877h238v-828q0 -422 328 -422q316 0 316 407v843h238v-854q0 -604 -572 -604q-548 0 -548 581zM409 1676q0 44 31.5 73t77.5 29q45 0 77.5 -29.5t32.5 -72.5t-30.5 -73t-74.5 -30q-46 0 -80 29.5t-34 73.5zM443 1849v137h543v-137h-543zM802 1676q0 44 32 73 t75 29q46 0 78 -29.5t32 -72.5t-32 -73t-80 -30q-43 0 -74 29t-31 74z" />
<glyph unicode="&#x1d6;" d="M131 412v612h232v-588q0 -276 213 -276q103 0 169.5 76t66.5 199v589h232v-1024h-232v162h-4q-101 -186 -314 -186q-363 0 -363 436zM294 1321q0 44 31.5 73t77.5 29q45 0 77.5 -29.5t32.5 -72.5t-30.5 -73t-74.5 -30q-46 0 -80 29.5t-34 73.5zM328 1494v137h543v-137 h-543zM687 1321q0 44 32 73t75 29q46 0 78 -29.5t32 -72.5t-32 -73t-80 -30q-43 0 -74 29t-31 74z" />
<glyph unicode="&#x1d7;" horiz-adv-x="1440" d="M160 557v877h238v-828q0 -422 328 -422q316 0 316 407v843h238v-854q0 -604 -572 -604q-548 0 -548 581zM389 1674q0 43 31.5 72.5t77.5 29.5q45 0 77.5 -29.5t32.5 -72.5t-32 -73t-77 -30t-77.5 29.5t-32.5 73.5zM604 1819l240 326h217l-286 -326h-171zM800 1674 q0 44 30.5 73t76.5 29t78 -29.5t32 -72.5t-31 -73t-78 -30q-44 0 -76 29t-32 74z" />
<glyph unicode="&#x1d8;" d="M131 412v612h232v-588q0 -276 213 -276q103 0 169.5 76t66.5 199v589h232v-1024h-232v162h-4q-101 -186 -314 -186q-363 0 -363 436zM265 1312q0 43 31.5 72.5t77.5 29.5q45 0 77.5 -29.5t32.5 -72.5t-32 -73t-77 -30t-77.5 29.5t-32.5 73.5zM480 1457l240 326h217 l-286 -326h-171zM676 1312q0 44 30.5 73t76.5 29t78 -29.5t32 -72.5t-31 -73t-78 -30q-44 0 -76 29t-32 74z" />
<glyph unicode="&#x1d9;" horiz-adv-x="1440" d="M160 557v877h238v-828q0 -422 328 -422q316 0 316 407v843h238v-854q0 -604 -572 -604q-548 0 -548 581zM404 2159h155l161 -211l160 211h157l-224 -328h-185zM415 1674q0 43 31.5 72.5t77.5 29.5q45 0 77.5 -29.5t32.5 -72.5t-32 -73t-77 -30t-77.5 29.5t-32.5 73.5z M808 1674q0 44 30.5 73t76.5 29t77.5 -29.5t31.5 -72.5t-31 -73t-77 -30q-44 0 -76 29t-32 74z" />
<glyph unicode="&#x1da;" d="M131 412v612h232v-588q0 -276 213 -276q103 0 169.5 76t66.5 199v589h232v-1024h-232v162h-4q-101 -186 -314 -186q-363 0 -363 436zM280 1797h155l161 -211l160 211h157l-224 -328h-185zM291 1312q0 43 31.5 72.5t77.5 29.5q45 0 77.5 -29.5t32.5 -72.5t-32 -73t-77 -30 t-77.5 29.5t-32.5 73.5zM684 1312q0 44 30.5 73t76.5 29t77.5 -29.5t31.5 -72.5t-31 -73t-77 -30q-44 0 -76 29t-32 74z" />
<glyph unicode="&#x1db;" horiz-adv-x="1440" d="M160 557v877h238v-828q0 -422 328 -422q316 0 316 407v843h238v-854q0 -604 -572 -604q-548 0 -548 581zM372 2145h217l241 -326h-172zM416 1674q0 43 32 72.5t78 29.5q43 0 75 -29t32 -73q0 -45 -32 -74t-76 -29q-46 0 -77.5 30t-31.5 73zM826 1674q0 43 32 72.5 t77 29.5q46 0 77.5 -29.5t31.5 -72.5q0 -44 -32.5 -73.5t-77.5 -29.5t-76.5 30t-31.5 73z" />
<glyph unicode="&#x1dc;" d="M131 412v612h232v-588q0 -276 213 -276q103 0 169.5 76t66.5 199v589h232v-1024h-232v162h-4q-101 -186 -314 -186q-363 0 -363 436zM250 1783h217l241 -326h-172zM294 1312q0 43 32 72.5t78 29.5q43 0 75 -29t32 -73q0 -45 -32 -74t-76 -29q-46 0 -77.5 30t-31.5 73z M704 1312q0 43 32 72.5t77 29.5q46 0 77.5 -29.5t31.5 -72.5q0 -44 -32.5 -73.5t-77.5 -29.5t-76.5 30t-31.5 73z" />
<glyph unicode="&#x1dd;" horiz-adv-x="1088" d="M70 486v89h698q-5 142 -85.5 219.5t-224.5 77.5q-168 0 -308 -99v187q136 88 360 88q230 0 361 -138t131 -389q0 -243 -140.5 -394t-348.5 -151q-213 0 -328 136t-115 374zM294 411q2 -126 59.5 -195t161.5 -69q99 0 168 73t85 191h-474z" />
<glyph unicode="&#x1de;" horiz-adv-x="1375" d="M17 0l537 1434h268l533 -1434h-261l-129 365h-564l-124 -365h-260zM375 1676q0 44 31.5 73t77.5 29q45 0 77.5 -29.5t32.5 -72.5t-30.5 -73t-74.5 -30q-46 0 -80 29.5t-34 73.5zM409 1849v137h543v-137h-543zM463 559h439l-199 572q-9 28 -19 90h-4q-9 -57 -20 -90z M768 1676q0 44 32 73t75 29q46 0 78 -29.5t32 -72.5t-32 -73t-80 -30q-43 0 -74 29t-31 74z" />
<glyph unicode="&#x1df;" horiz-adv-x="1069" d="M75 275q0 290 334 338l304 43q0 219 -208 219q-183 0 -330 -126v203q162 96 374 96q388 0 388 -382v-666h-225v160h-4q-106 -184 -311 -184q-151 0 -236.5 82t-85.5 217zM215 1321q0 44 31.5 73t77.5 29q45 0 77.5 -29.5t32.5 -72.5t-30.5 -73t-74.5 -30q-46 0 -80 29.5 t-34 73.5zM249 1494v137h543v-137h-543zM297 300q0 -65 46.5 -106.5t124.5 -41.5q106 0 175.5 74.5t69.5 187.5v89l-215 -30q-100 -13 -150.5 -48.5t-50.5 -124.5zM608 1321q0 44 32 73t75 29q46 0 78 -29.5t32 -72.5t-32 -73t-80 -30q-43 0 -74 29t-31 74z" />
<glyph unicode="&#x1e0;" horiz-adv-x="1375" d="M17 0l537 1434h268l533 -1434h-261l-129 365h-564l-124 -365h-260zM410 1846v137h543v-137h-543zM463 559h439l-199 572q-9 28 -19 90h-4q-9 -57 -20 -90zM573 1676q0 43 32 72t76 29q46 0 77.5 -29t31.5 -72t-31.5 -73t-77.5 -30q-44 0 -76 29.5t-32 73.5z" />
<glyph unicode="&#x1e1;" horiz-adv-x="1069" d="M75 275q0 290 334 338l304 43q0 219 -208 219q-183 0 -330 -126v203q162 96 374 96q388 0 388 -382v-666h-225v160h-4q-106 -184 -311 -184q-151 0 -236.5 82t-85.5 217zM234 1491v137h543v-137h-543zM297 300q0 -65 46.5 -106.5t124.5 -41.5q106 0 175.5 74.5 t69.5 187.5v89l-215 -30q-100 -13 -150.5 -48.5t-50.5 -124.5zM397 1321q0 43 32 72t76 29q46 0 77.5 -29t31.5 -72t-31.5 -73t-77.5 -30q-44 0 -76 29.5t-32 73.5z" />
<glyph unicode="&#x1e2;" horiz-adv-x="1831" d="M6 0l710 1434h1000v-202h-534v-406h497v-201h-497v-424h567v-201h-804v365h-492l-172 -365h-275zM541 559h404v673h-87zM940 1575v137h543v-137h-543z" />
<glyph unicode="&#x1e3;" horiz-adv-x="1700" d="M75 279q0 306 379 331l259 16q0 250 -201 250q-178 0 -336 -115v196q152 91 357 91q240 0 311 -170h4q114 170 349 170q206 0 319.5 -135.5t113.5 -376.5v-87h-699q3 -142 85 -219.5t225 -77.5q171 0 310 99v-186q-135 -89 -367 -89q-275 0 -390 206h-4 q-140 -206 -372 -206q-160 0 -251.5 82.5t-91.5 220.5zM296 294q0 -64 46.5 -103t125.5 -39q103 0 174 74t71 186v55l-177 -11q-121 -7 -180.5 -43t-59.5 -119zM583 1214v137h543v-137h-543zM932 613h474q-2 127 -59 195.5t-160 68.5q-98 0 -168.5 -72t-86.5 -192z" />
<glyph unicode="&#x1e4;" horiz-adv-x="1428" d="M85 696q0 334 217.5 548t550.5 214q236 0 397 -70v-239q-173 104 -409 104q-222 0 -364 -151t-142 -392q0 -249 129.5 -391.5t351.5 -142.5q140 0 243 49v97h-301v162h301v127h-302v182h539v-309h141v-162h-141v-225q-224 -121 -498 -121q-319 0 -516 197.5t-197 522.5z " />
<glyph unicode="&#x1e5;" horiz-adv-x="1234" d="M85 515q0 238 127.5 385.5t339.5 147.5q199 0 295 -156h4v132h232v-908q0 -78 -6 -147h156v-162h-192q-130 -288 -532 -288q-196 0 -342 66v207q180 -91 344 -91q199 0 284 106h-246v162h295q7 47 7 100v144h-4q-109 -186 -328 -186q-193 0 -313.5 133t-120.5 355z M322 523q0 -141 72.5 -225.5t188.5 -84.5q120 0 195 85.5t75 221.5v75q0 110 -72 189t-180 79q-130 0 -204.5 -91t-74.5 -249z" />
<glyph unicode="&#x1e6;" horiz-adv-x="1428" d="M85 698q0 333 215.5 546.5t547.5 213.5q239 0 402 -70v-245q-165 110 -393 110q-229 0 -375.5 -151t-146.5 -391q0 -247 126 -388.5t342 -141.5q148 0 256 57v341h-302v200h539v-681q-224 -122 -499 -122q-318 0 -515 198t-197 524zM443 1886h155l160 -210l161 210h157 l-224 -327h-185z" />
<glyph unicode="&#x1e7;" horiz-adv-x="1234" d="M85 479q0 261 123 415t338 154q203 0 301 -166h4v142h232v-942q0 -564 -567 -564q-200 0 -349 67v212q168 -96 319 -96q365 0 365 359v112h-4q-115 -196 -346 -196q-187 0 -301.5 136.5t-114.5 366.5zM273 1527h155l160 -210l161 210h157l-224 -327h-185zM322 493 q0 -151 71.5 -241.5t189.5 -90.5q120 0 195 86.5t75 221.5v133q0 108 -71.5 184.5t-178.5 76.5q-132 0 -206.5 -97.5t-74.5 -272.5z" />
<glyph unicode="&#x1e8;" horiz-adv-x="1251" d="M177 0v1434h238v-674h4q12 22 34 49l481 625h285l-563 -688l606 -746h-310l-499 656q-28 37 -34 50h-4v-706h-238zM324 1886h155l160 -210l161 210h157l-224 -327h-185z" />
<glyph unicode="&#x1e9;" horiz-adv-x="1075" d="M151 0v1516h233v-961h4l376 469h279l-423 -494l460 -530h-294l-398 492h-4v-492h-233zM239 1886h155l160 -210l161 210h157l-224 -327h-185z" />
<glyph unicode="&#x1ea;" horiz-adv-x="1548" d="M85 700q0 346 190 552t516 206q302 0 486.5 -200t184.5 -523q0 -351 -189 -555t-505 -204q-310 0 -496.5 201t-186.5 523zM335 715q0 -239 120 -385t314 -146q206 0 325 139t119 389q0 257 -115.5 397t-318.5 140q-197 0 -320.5 -147t-123.5 -387zM623 -250 q0 122 161 250h135q-151 -137 -151 -216q0 -68 65 -68q36 0 68 13v-121q-38 -16 -105 -16q-78 0 -125.5 42t-47.5 116z" />
<glyph unicode="&#x1eb;" horiz-adv-x="1223" d="M85 500q0 258 147.5 403t397.5 145q240 0 374 -141t134 -391q0 -245 -144.5 -392.5t-388.5 -147.5q-237 0 -378.5 143.5t-141.5 380.5zM322 506q0 -161 80 -253.5t214 -92.5q137 0 210.5 91t73.5 259q0 169 -73.5 261t-210.5 92q-136 0 -215 -95t-79 -262zM450 -250 q0 122 161 250h135q-151 -137 -151 -216q0 -68 65 -68q36 0 68 13v-121q-38 -16 -105 -16q-78 0 -125.5 42t-47.5 116z" />
<glyph unicode="&#x1ec;" horiz-adv-x="1548" d="M85 700q0 346 190 552t516 206q302 0 486.5 -200t184.5 -523q0 -351 -189 -555t-505 -204q-310 0 -496.5 201t-186.5 523zM335 715q0 -239 120 -385t314 -146q206 0 325 139t119 389q0 257 -115.5 397t-318.5 140q-197 0 -320.5 -147t-123.5 -387zM489 1567v153h588v-153 h-588zM623 -250q0 122 161 250h135q-151 -137 -151 -216q0 -68 65 -68q36 0 68 13v-121q-38 -16 -105 -16q-78 0 -125.5 42t-47.5 116z" />
<glyph unicode="&#x1ed;" horiz-adv-x="1223" d="M85 500q0 258 147.5 403t397.5 145q240 0 374 -141t134 -391q0 -245 -144.5 -392.5t-388.5 -147.5q-237 0 -378.5 143.5t-141.5 380.5zM320 1204v153h588v-153h-588zM322 506q0 -161 80 -253.5t214 -92.5q137 0 210.5 91t73.5 259q0 169 -73.5 261t-210.5 92 q-136 0 -215 -95t-79 -262zM450 -250q0 122 161 250h135q-151 -137 -151 -216q0 -68 65 -68q36 0 68 13v-121q-38 -16 -105 -16q-78 0 -125.5 42t-47.5 116z" />
<glyph unicode="&#x1ee;" horiz-adv-x="1304" d="M24 -126q233 -147 464 -147q214 0 347.5 108t133.5 281q0 183 -148.5 284.5t-410.5 101.5h-90v125l482 605h-755v202h1084v-123l-495 -620q265 -23 423.5 -176t158.5 -393q0 -263 -209 -433.5t-522 -170.5q-242 0 -463 113v243zM242 1886h155l160 -210l161 210h157 l-224 -327h-185z" />
<glyph unicode="&#x1ef;" horiz-adv-x="955" d="M-29 -181q167 -114 347 -114q164 0 269 81t105 210q0 133 -108 207.5t-309 74.5h-80v87l369 477h-560v182h858v-99l-379 -484q214 -26 329 -143t115 -297q0 -209 -171.5 -344.5t-432.5 -135.5q-191 0 -352 86v212zM93 1527h155l160 -210l161 210h157l-224 -327h-185z" />
<glyph unicode="&#x1f0;" horiz-adv-x="535" d="M-168 -254q68 -42 129 -42q190 0 190 302v1018h232v-993q0 -246 -106 -379t-303 -133q-73 0 -142 31v196zM-49 1527h155l160 -210l161 210h157l-224 -327h-185z" />
<glyph unicode="&#x1f1;" horiz-adv-x="2589" d="M177 0v1434h414q793 0 793 -699q0 -332 -220 -533.5t-590 -201.5h-397zM414 201h190q251 0 390.5 138t139.5 390q0 503 -521 503h-199v-1031zM1423 0v109l789 1123h-728v202h1058v-104l-786 -1129h776v-201h-1109z" />
<glyph unicode="&#x1f2;" horiz-adv-x="2397" d="M177 0v1434h414q793 0 793 -699q0 -332 -220 -533.5t-590 -201.5h-397zM414 201h190q251 0 390.5 138t139.5 390q0 503 -521 503h-199v-1031zM1476 0v87l565 756h-511v181h824v-97l-553 -746h551v-181h-876z" />
<glyph unicode="&#x1f3;" horiz-adv-x="2155" d="M85 488q0 254 125.5 407t334.5 153q207 0 301 -166h4v634h232v-1516h-232v174h-4q-112 -198 -345 -198q-189 0 -302.5 137.5t-113.5 374.5zM322 497q0 -156 71.5 -246.5t192.5 -90.5q119 0 193 87.5t74 220.5v134q0 109 -71 185t-181 76q-130 0 -204.5 -97t-74.5 -269z M1234 0v87l565 756h-511v181h824v-97l-553 -746h551v-181h-876z" />
<glyph unicode="&#x1f4;" horiz-adv-x="1428" d="M85 698q0 333 215.5 546.5t547.5 213.5q239 0 402 -70v-245q-165 110 -393 110q-229 0 -375.5 -151t-146.5 -391q0 -247 126 -388.5t342 -141.5q148 0 256 57v341h-302v200h539v-681q-224 -122 -499 -122q-318 0 -515 198t-197 524zM690 1580l242 328h216l-286 -328h-172 z" />
<glyph unicode="&#x1f5;" horiz-adv-x="1234" d="M85 479q0 261 123 415t338 154q203 0 301 -166h4v142h232v-942q0 -564 -567 -564q-200 0 -349 67v212q168 -96 319 -96q365 0 365 359v112h-4q-115 -196 -346 -196q-187 0 -301.5 136.5t-114.5 366.5zM322 493q0 -151 71.5 -241.5t189.5 -90.5q120 0 195 86.5t75 221.5 v133q0 108 -71.5 184.5t-178.5 76.5q-132 0 -206.5 -97.5t-74.5 -272.5zM480 1218l242 328h216l-286 -328h-172z" />
<glyph unicode="&#x1f6;" horiz-adv-x="2122" d="M177 0v1434h237v-604h635v604h238v-976q0 -274 234 -274t234 271v569h239v-566q0 -228 -127.5 -355t-352.5 -127q-223 0 -344 123t-121 349v174h-635v-622h-237z" />
<glyph unicode="&#x1f7;" horiz-adv-x="1463" d="M203 -471v1905h238v-190q217 214 481 214q200 0 328 -137.5t128 -339.5q0 -314 -247.5 -582t-689.5 -441v-429h-238zM441 195q309 129 498.5 332t189.5 433q0 123 -71 205t-189 82q-205 0 -428 -248v-804z" />
<glyph unicode="&#x1f8;" horiz-adv-x="1571" d="M177 0v1434h277l662 -1029q42 -64 54 -88h4q-10 57 -10 193v924h229v-1434h-260l-685 1054q-26 40 -43 83h-6q8 -46 8 -197v-940h-230zM493 1897h214l221 -328h-173z" />
<glyph unicode="&#x1f9;" d="M151 0v1024h233v-170h4q115 194 332 194q167 0 255 -108.5t88 -313.5v-626h-232v577q0 287 -203 287q-106 0 -175 -79.5t-69 -200.5v-584h-233zM304 1532h214l221 -328h-173z" />
<glyph unicode="&#x1fa;" horiz-adv-x="1375" d="M17 0l537 1434h268l533 -1434h-261l-129 365h-564l-124 -365h-260zM462 1529q0 98 63 156t161 58q96 0 157.5 -58.5t61.5 -149.5q0 -87 -65.5 -144.5t-160.5 -57.5q-94 0 -155.5 54t-61.5 142zM463 559h439l-199 572q-9 28 -19 90h-4q-9 -57 -20 -90zM516 1805l242 328 h216l-286 -328h-172zM575 1539q0 -104 104 -104q48 0 79.5 29.5t31.5 74.5t-31.5 74.5t-79.5 29.5q-45 0 -74.5 -30t-29.5 -74z" />
<glyph unicode="&#x1fb;" horiz-adv-x="1069" d="M75 275q0 290 334 338l304 43q0 219 -208 219q-183 0 -330 -126v203q162 96 374 96q388 0 388 -382v-666h-225v160h-4q-106 -184 -311 -184q-151 0 -236.5 82t-85.5 217zM297 300q0 -65 46.5 -106.5t124.5 -41.5q106 0 175.5 74.5t69.5 187.5v89l-215 -30 q-100 -13 -150.5 -48.5t-50.5 -124.5zM324 1320q0 98 63 156t161 58q96 0 157.5 -58.5t61.5 -149.5q0 -87 -65.5 -144.5t-160.5 -57.5q-94 0 -155.5 54t-61.5 142zM390 1622l242 328h216l-286 -328h-172zM437 1330q0 -104 104 -104q48 0 79.5 29.5t31.5 74.5t-31.5 74.5 t-79.5 29.5q-45 0 -74.5 -30t-29.5 -74z" />
<glyph unicode="&#x1fc;" horiz-adv-x="1831" d="M6 0l710 1434h1000v-202h-534v-406h497v-201h-497v-424h567v-201h-804v365h-492l-172 -365h-275zM541 559h404v673h-87zM977 1580l242 328h216l-286 -328h-172z" />
<glyph unicode="&#x1fd;" horiz-adv-x="1700" d="M75 279q0 306 379 331l259 16q0 250 -201 250q-178 0 -336 -115v196q152 91 357 91q240 0 311 -170h4q114 170 349 170q206 0 319.5 -135.5t113.5 -376.5v-87h-699q3 -142 85 -219.5t225 -77.5q171 0 310 99v-186q-135 -89 -367 -89q-275 0 -390 206h-4 q-140 -206 -372 -206q-160 0 -251.5 82.5t-91.5 220.5zM296 294q0 -64 46.5 -103t125.5 -39q103 0 174 74t71 186v55l-177 -11q-121 -7 -180.5 -43t-59.5 -119zM701 1218l242 328h216l-286 -328h-172zM932 613h474q-2 127 -59 195.5t-160 68.5q-98 0 -168.5 -72t-86.5 -192z " />
<glyph unicode="&#x1fe;" horiz-adv-x="1548" d="M85 700q0 343 189.5 550.5t517.5 207.5q233 0 401 -125l132 157l99 -81l-137 -162q176 -194 176 -512q0 -351 -189 -555t-506 -204q-261 0 -433 145l-148 -177l-99 83l154 184q-157 193 -157 489zM324 715q0 -192 75 -321l658 777q-111 90 -276 90q-204 0 -330.5 -151.5 t-126.5 -394.5zM477 289q114 -117 291 -117q212 0 334 142.5t122 397.5q0 222 -88 357zM637 1580l242 328h216l-286 -328h-172z" />
<glyph unicode="&#x1ff;" horiz-adv-x="1223" d="M44 10l144 155q-103 137 -103 341q0 256 147 399.5t395 143.5q185 0 310 -91l151 163l100 -91l-155 -164q105 -137 105 -344q0 -252 -145.5 -399t-387.5 -147q-194 0 -322 95l-140 -151zM313 509q0 -105 35 -178l450 484q-67 59 -181 59q-141 0 -222.5 -97t-81.5 -268z M421 213q76 -62 194 -62q145 0 221 94.5t76 266.5q0 110 -35 189zM462 1218l242 328h216l-286 -328h-172z" />
<glyph unicode="&#x200;" horiz-adv-x="1375" d="M17 0l537 1434h268l533 -1434h-261l-129 365h-564l-124 -365h-260zM205 1872h185l211 -318h-148zM463 559h439l-199 572q-9 28 -19 90h-4q-9 -57 -20 -90zM511 1872h183l208 -318h-148z" />
<glyph unicode="&#x201;" horiz-adv-x="1069" d="M64 1522h185l211 -318h-148zM75 275q0 290 334 338l304 43q0 219 -208 219q-183 0 -330 -126v203q162 96 374 96q388 0 388 -382v-666h-225v160h-4q-106 -184 -311 -184q-151 0 -236.5 82t-85.5 217zM297 300q0 -65 46.5 -106.5t124.5 -41.5q106 0 175.5 74.5t69.5 187.5 v89l-215 -30q-100 -13 -150.5 -48.5t-50.5 -124.5zM370 1522h183l208 -318h-148z" />
<glyph unicode="&#x202;" horiz-adv-x="1375" d="M17 0l537 1434h268l533 -1434h-261l-129 365h-564l-124 -365h-260zM375 1561q11 120 95.5 194.5t211.5 74.5q126 0 209.5 -75t94.5 -194h-139q-23 137 -167 137q-143 0 -166 -137h-139zM463 559h439l-199 572q-9 28 -19 90h-4q-9 -57 -20 -90z" />
<glyph unicode="&#x203;" horiz-adv-x="1069" d="M75 275q0 290 334 338l304 43q0 219 -208 219q-183 0 -330 -126v203q162 96 374 96q388 0 388 -382v-666h-225v160h-4q-106 -184 -311 -184q-151 0 -236.5 82t-85.5 217zM233 1184q11 120 95.5 194.5t211.5 74.5q126 0 209.5 -75t94.5 -194h-139q-23 137 -167 137 q-143 0 -166 -137h-139zM297 300q0 -65 46.5 -106.5t124.5 -41.5q106 0 175.5 74.5t69.5 187.5v89l-215 -30q-100 -13 -150.5 -48.5t-50.5 -124.5z" />
<glyph unicode="&#x204;" horiz-adv-x="1060" d="M119 1872h185l211 -318h-148zM177 0v1434h773v-202h-535v-406h493v-201h-493v-424h567v-201h-805zM425 1872h183l208 -318h-148z" />
<glyph unicode="&#x205;" horiz-adv-x="1088" d="M85 508q0 239 141.5 389.5t351.5 150.5t325 -135t115 -375v-89h-698q4 -142 87.5 -219t229.5 -77q164 0 301 98v-187q-140 -88 -370 -88q-226 0 -354.5 139.5t-128.5 392.5zM103 1522h185l211 -318h-148zM320 613h474q-1 125 -59 194.5t-160 69.5q-100 0 -169.5 -73 t-85.5 -191zM409 1522h183l208 -318h-148z" />
<glyph unicode="&#x206;" horiz-adv-x="1060" d="M177 0v1434h773v-202h-535v-406h493v-201h-493v-424h567v-201h-805zM259 1561q11 120 95.5 194.5t211.5 74.5q126 0 209.5 -75t94.5 -194h-139q-23 137 -167 137q-143 0 -166 -137h-139z" />
<glyph unicode="&#x207;" horiz-adv-x="1088" d="M85 508q0 239 141.5 389.5t351.5 150.5t325 -135t115 -375v-89h-698q4 -142 87.5 -219t229.5 -77q164 0 301 98v-187q-140 -88 -370 -88q-226 0 -354.5 139.5t-128.5 392.5zM235 1184q11 120 95.5 194.5t211.5 74.5q126 0 209.5 -75t94.5 -194h-139q-23 137 -167 137 q-143 0 -166 -137h-139zM320 613h474q-1 125 -59 194.5t-160 69.5q-100 0 -169.5 -73t-85.5 -191z" />
<glyph unicode="&#x208;" horiz-adv-x="597" d="M-156 1872h185l211 -318h-148zM150 1872h183l208 -318h-148zM176 0v1434h245v-1434h-245z" />
<glyph unicode="&#x209;" horiz-adv-x="535" d="M-191 1522h185l211 -318h-148zM115 1522h183l208 -318h-148zM151 0v1024h233v-1024h-233z" />
<glyph unicode="&#x20a;" horiz-adv-x="597" d="M-3 1561q11 120 95.5 194.5t211.5 74.5q126 0 209.5 -75t94.5 -194h-139q-23 137 -167 137q-143 0 -166 -137h-139zM176 0v1434h245v-1434h-245z" />
<glyph unicode="&#x20b;" horiz-adv-x="535" d="M-33 1184q11 120 95.5 194.5t211.5 74.5q126 0 209.5 -75t94.5 -194h-139q-23 137 -167 137q-143 0 -166 -137h-139zM151 0v1024h233v-1024h-233z" />
<glyph unicode="&#x20c;" horiz-adv-x="1548" d="M85 700q0 346 190 552t516 206q302 0 486.5 -200t184.5 -523q0 -351 -189 -555t-505 -204q-310 0 -496.5 201t-186.5 523zM319 1872h185l211 -318h-148zM335 715q0 -239 120 -385t314 -146q206 0 325 139t119 389q0 257 -115.5 397t-318.5 140q-197 0 -320.5 -147 t-123.5 -387zM625 1872h183l208 -318h-148z" />
<glyph unicode="&#x20d;" horiz-adv-x="1223" d="M85 500q0 258 147.5 403t397.5 145q240 0 374 -141t134 -391q0 -245 -144.5 -392.5t-388.5 -147.5q-237 0 -378.5 143.5t-141.5 380.5zM147 1522h185l211 -318h-148zM322 506q0 -161 80 -253.5t214 -92.5q137 0 210.5 91t73.5 259q0 169 -73.5 261t-210.5 92 q-136 0 -215 -95t-79 -262zM453 1522h183l208 -318h-148z" />
<glyph unicode="&#x20e;" horiz-adv-x="1548" d="M85 700q0 346 190 552t516 206q302 0 486.5 -200t184.5 -523q0 -351 -189 -555t-505 -204q-310 0 -496.5 201t-186.5 523zM335 715q0 -239 120 -385t314 -146q206 0 325 139t119 389q0 257 -115.5 397t-318.5 140q-197 0 -320.5 -147t-123.5 -387zM457 1561 q11 120 95.5 194.5t211.5 74.5q126 0 209.5 -75t94.5 -194h-139q-23 137 -167 137q-143 0 -166 -137h-139z" />
<glyph unicode="&#x20f;" horiz-adv-x="1223" d="M85 500q0 258 147.5 403t397.5 145q240 0 374 -141t134 -391q0 -245 -144.5 -392.5t-388.5 -147.5q-237 0 -378.5 143.5t-141.5 380.5zM306 1184q11 120 95.5 194.5t211.5 74.5q126 0 209.5 -75t94.5 -194h-139q-23 137 -167 137q-143 0 -166 -137h-139zM322 506 q0 -161 80 -253.5t214 -92.5q137 0 210.5 91t73.5 259q0 169 -73.5 261t-210.5 92q-136 0 -215 -95t-79 -262z" />
<glyph unicode="&#x210;" horiz-adv-x="1275" d="M139 1872h185l211 -318h-148zM177 0v1434h472q101 0 186 -24t148 -72.5t98.5 -121t35.5 -169.5q0 -76 -22.5 -139.5t-64 -113t-100 -84.5t-131.5 -54v-4q39 -22 68 -48.5t55 -54.5t51.5 -63.5t56.5 -82.5l255 -403h-278l-229 384q-31 53 -60.5 90.5t-60 61.5t-66.5 35 t-81 11h-96v-582h-237zM414 775h198q55 0 101.5 17t80.5 49t53 78t19 103q0 103 -65 161t-187 58h-200v-466zM445 1872h183l208 -318h-148z" />
<glyph unicode="&#x211;" horiz-adv-x="758" d="M-41 1522h185l211 -318h-148zM151 0v1024h232v-211h4q34 108 104.5 168.5t157.5 60.5q63 0 96 -19v-220q-42 33 -121 33q-103 0 -172 -93t-69 -253v-490h-232zM265 1522h183l208 -318h-148z" />
<glyph unicode="&#x212;" horiz-adv-x="1275" d="M177 0v1434h472q101 0 186 -24t148 -72.5t98.5 -121t35.5 -169.5q0 -76 -22.5 -139.5t-64 -113t-100 -84.5t-131.5 -54v-4q39 -22 68 -48.5t55 -54.5t51.5 -63.5t56.5 -82.5l255 -403h-278l-229 384q-31 53 -60.5 90.5t-60 61.5t-66.5 35t-81 11h-96v-582h-237zM308 1561 q11 120 95.5 194.5t211.5 74.5q126 0 209.5 -75t94.5 -194h-139q-23 137 -167 137q-143 0 -166 -137h-139zM414 775h198q55 0 101.5 17t80.5 49t53 78t19 103q0 103 -65 161t-187 58h-200v-466z" />
<glyph unicode="&#x213;" horiz-adv-x="758" d="M151 0v1024h232v-211h4q34 108 104.5 168.5t157.5 60.5q63 0 96 -19v-220q-42 33 -121 33q-103 0 -172 -93t-69 -253v-490h-232zM151 1184q11 120 95.5 194.5t211.5 74.5q126 0 209.5 -75t94.5 -194h-139q-23 137 -167 137q-143 0 -166 -137h-139z" />
<glyph unicode="&#x214;" horiz-adv-x="1440" d="M160 557v877h238v-828q0 -422 328 -422q316 0 316 407v843h238v-854q0 -604 -572 -604q-548 0 -548 581zM266 1872h185l211 -318h-148zM572 1872h183l208 -318h-148z" />
<glyph unicode="&#x215;" d="M131 412v612h232v-588q0 -276 213 -276q103 0 169.5 76t66.5 199v589h232v-1024h-232v162h-4q-101 -186 -314 -186q-363 0 -363 436zM139 1522h185l211 -318h-148zM445 1522h183l208 -318h-148z" />
<glyph unicode="&#x216;" horiz-adv-x="1440" d="M160 557v877h238v-828q0 -422 328 -422q316 0 316 407v843h238v-854q0 -604 -572 -604q-548 0 -548 581zM416 1561q11 120 95.5 194.5t211.5 74.5q126 0 209.5 -75t94.5 -194h-139q-23 137 -167 137q-143 0 -166 -137h-139z" />
<glyph unicode="&#x217;" d="M131 412v612h232v-588q0 -276 213 -276q103 0 169.5 76t66.5 199v589h232v-1024h-232v162h-4q-101 -186 -314 -186q-363 0 -363 436zM300 1184q11 120 95.5 194.5t211.5 74.5q126 0 209.5 -75t94.5 -194h-139q-23 137 -167 137q-143 0 -166 -137h-139z" />
<glyph unicode="&#x218;" horiz-adv-x="1115" d="M110 1064q0 101 45.5 175.5t120 123t169.5 72t194 23.5q225 0 328 -51v-235q-122 88 -314 88q-53 0 -105.5 -10t-94 -33t-67.5 -59t-26 -87q0 -48 20 -83t58.5 -64t94 -56.5t128.5 -59.5q75 -39 141.5 -82t117 -95t80 -115.5t29.5 -144.5q0 -109 -44 -184t-118.5 -122 t-171.5 -68t-205 -21q-36 0 -88.5 5.5t-107.5 16t-104 25.5t-79 34v245q33 -30 78.5 -54t96.5 -40.5t102 -25.5t94 -9q150 0 223.5 50t73.5 145q0 51 -24.5 88.5t-68.5 68.5t-103.5 59.5t-127.5 59.5q-73 39 -136 79t-109.5 88.5t-73 109.5t-26.5 143zM353 -420l105 302h217 l-167 -302h-155z" />
<glyph unicode="&#x219;" horiz-adv-x="883" d="M87 32v215q130 -99 287 -99q210 0 210 124q0 35 -18 59.5t-48.5 43.5t-72 34t-92.5 34q-63 25 -113.5 53t-84 63.5t-50.5 80.5t-17 105q0 74 35 130.5t94 95t134 58t155 19.5q142 0 254 -43v-203q-108 74 -248 74q-44 0 -79.5 -9t-60.5 -25t-39 -38.5t-14 -49.5 q0 -33 14 -56t41.5 -40.5t66 -32t88.5 -31.5q66 -27 118.5 -55t89.5 -63.5t57 -82t20 -110.5q0 -78 -36 -136t-96 -96t-138.5 -56.5t-165.5 -18.5q-168 0 -291 56zM238 -420l105 302h217l-167 -302h-155z" />
<glyph unicode="&#x21a;" horiz-adv-x="1130" d="M36 1232v202h1061v-202h-412v-1232h-238v1232h-411zM385 -420l105 302h217l-167 -302h-155z" />
<glyph unicode="&#x21b;" horiz-adv-x="740" d="M43 842v182h171v237l232 66v-303h245v-182h-245v-512q0 -91 33 -130t110 -39q59 0 102 34v-184q-68 -34 -179 -34q-298 0 -298 286v579h-171zM269 -420l105 302h217l-167 -302h-155z" />
<glyph unicode="&#x21c;" horiz-adv-x="1097" d="M9 -249q88 -23 205 -23q241 0 403.5 120t162.5 302q0 142 -101.5 232t-264.5 90q-94 0 -215 -36v207l105 23q400 85 400 324q0 118 -89.5 188.5t-243.5 70.5q-177 0 -344 -92v222q164 79 366 79q262 0 409 -122.5t147 -324.5q0 -271 -280 -381v-9q167 -40 264 -162 t97 -294q0 -267 -231.5 -456t-579.5 -189q-119 0 -210 17v214z" />
<glyph unicode="&#x21d;" horiz-adv-x="939" d="M30 -275q78 -20 178 -20q196 0 322 87t126 225q0 109 -76 176t-206 67q-88 0 -182 -32v185l90 16q149 27 231.5 93t82.5 154t-69 138t-197 50q-153 0 -297 -80v198q140 66 324 66q217 0 343 -98.5t126 -255.5q0 -193 -224 -299v-7q132 -29 211.5 -125.5t79.5 -232.5 q0 -220 -189 -365t-489 -145q-114 0 -185 16v189z" />
<glyph unicode="&#x21e;" horiz-adv-x="1506" d="M177 0v1434h238v-603h675v603h239v-1434h-239v622h-675v-622h-238zM436 1886h155l160 -210l161 210h157l-224 -327h-185z" />
<glyph unicode="&#x21f;" horiz-adv-x="1192" d="M151 0v1516h233v-662h4q116 194 332 194q341 0 341 -417v-631h-232v560q0 304 -203 304q-102 0 -172 -88t-70 -225v-551h-233zM239 1886h155l160 -210l161 210h157l-224 -327h-185z" />
<glyph unicode="&#x220;" horiz-adv-x="1547" d="M177 0v1434h238v-251h5q155 275 467 275q235 0 360 -154.5t125 -440.5v-1334h-239v1277q0 443 -324 443q-171 0 -282.5 -126.5t-111.5 -317.5v-805h-238z" />
<glyph unicode="&#x221;" horiz-adv-x="1345" d="M85 488q0 254 127.5 407t340.5 153q202 0 293 -155h4v623h232v-1467q0 -56 12 -102q95 85 235 85q127 0 207.5 -65t80.5 -168q0 -106 -90 -176.5t-232 -70.5q-135 0 -233 64q-21 -60 -24 -97h-200q13 123 84 243q-72 114 -72 285v112h-4q-109 -183 -336 -183 q-193 0 -309 137.5t-116 374.5zM322 496q0 -156 71.5 -246t192.5 -90q119 0 193 90t74 228v118q0 112 -72 189.5t-182 77.5q-129 0 -203 -97.5t-74 -269.5zM1165 -219q60 -55 140 -55q118 0 118 71q0 67 -101 67q-96 0 -157 -83z" />
<glyph unicode="&#x222;" horiz-adv-x="1311" d="M67 469q0 294 280 425q-209 106 -209 329q0 105 45 211h233q-42 -95 -42 -198q0 -109 76.5 -179.5t204.5 -70.5q130 0 208 70.5t78 179.5q0 100 -42 198h232q44 -109 44 -212q0 -206 -211 -328q133 -53 208 -161.5t75 -249.5q0 -226 -168 -366.5t-426 -140.5 q-263 0 -424.5 133.5t-161.5 359.5zM317 479q0 -134 99 -214.5t239 -80.5q147 0 245 80.5t98 216.5q0 135 -101 214.5t-242 79.5q-145 0 -241.5 -80t-96.5 -216z" />
<glyph unicode="&#x223;" horiz-adv-x="1221" d="M72 481q0 298 257 429q-92 47 -145.5 144t-53.5 218q0 119 34 244h220q-29 -107 -29 -224q0 -134 68.5 -216.5t187.5 -82.5t186 83t67 216q0 117 -28 224h221q33 -124 33 -242q0 -241 -200 -364q259 -128 259 -424q0 -224 -157 -367t-388 -143q-236 0 -384 139t-148 366z M308 485q0 -145 89 -235t213 -90q128 0 215 89.5t87 235.5q0 143 -88 233.5t-212 90.5q-130 0 -217 -88.5t-87 -235.5z" />
<glyph unicode="&#x224;" horiz-adv-x="1202" d="M37 0v110l788 1122h-728v202h1058v-103l-785 -1130h479q363 0 363 -299q0 -95 -43 -193h-221q48 83 48 155q0 136 -173 136h-786z" />
<glyph unicode="&#x225;" horiz-adv-x="951" d="M29 0v87l565 755h-510v182h823v-96l-552 -746h319q313 0 313 -270q0 -85 -39 -175h-200q40 76 40 143q0 120 -146 120h-613z" />
<glyph unicode="&#x226;" horiz-adv-x="1375" d="M17 0l537 1434h268l533 -1434h-261l-129 365h-564l-124 -365h-260zM463 559h439l-199 572q-9 28 -19 90h-4q-9 -57 -20 -90zM564 1686q0 48 36 81t87 33t87 -32.5t36 -81.5q0 -48 -36 -82t-87 -34q-50 0 -86.5 33.5t-36.5 82.5z" />
<glyph unicode="&#x227;" horiz-adv-x="1069" d="M75 275q0 290 334 338l304 43q0 219 -208 219q-183 0 -330 -126v203q162 96 374 96q388 0 388 -382v-666h-225v160h-4q-106 -184 -311 -184q-151 0 -236.5 82t-85.5 217zM297 300q0 -65 46.5 -106.5t124.5 -41.5q106 0 175.5 74.5t69.5 187.5v89l-215 -30 q-100 -13 -150.5 -48.5t-50.5 -124.5zM414 1321q0 48 36 81t87 33t87 -32.5t36 -81.5q0 -48 -36 -82t-87 -34q-50 0 -86.5 33.5t-36.5 82.5z" />
<glyph unicode="&#x228;" horiz-adv-x="1060" d="M177 0v1434h773v-202h-535v-406h493v-201h-493v-424h567v-201h-805zM442 -328q44 -6 71 -6q133 0 133 82q0 74 -121 74q-10 0 -39 -4v182h136v-94q87 0 138 -40.5t51 -113.5q0 -194 -288 -194q-47 0 -81 3v111z" />
<glyph unicode="&#x229;" horiz-adv-x="1088" d="M85 508q0 239 141.5 389.5t351.5 150.5t325 -135t115 -375v-89h-698q4 -142 87.5 -219t229.5 -77q164 0 301 98v-187q-140 -88 -370 -88q-226 0 -354.5 139.5t-128.5 392.5zM320 613h474q-1 125 -59 194.5t-160 69.5q-100 0 -169.5 -73t-85.5 -191zM421 -328q44 -6 71 -6 q133 0 133 82q0 74 -121 74q-10 0 -39 -4v182h136v-94q87 0 138 -40.5t51 -113.5q0 -194 -288 -194q-47 0 -81 3v111z" />
<glyph unicode="&#x22a;" horiz-adv-x="1548" d="M85 700q0 346 190 552t516 206q302 0 486.5 -200t184.5 -523q0 -351 -189 -555t-505 -204q-310 0 -496.5 201t-186.5 523zM335 715q0 -239 120 -385t314 -146q206 0 325 139t119 389q0 257 -115.5 397t-318.5 140q-197 0 -320.5 -147t-123.5 -387zM479 1663q0 44 31.5 73 t77.5 29q45 0 77.5 -29.5t32.5 -72.5t-30.5 -73t-74.5 -30q-46 0 -80 29.5t-34 73.5zM513 1836v137h543v-137h-543zM872 1663q0 44 32 73t75 29q46 0 78 -29.5t32 -72.5t-32 -73t-80 -30q-43 0 -74 29t-31 74z" />
<glyph unicode="&#x22b;" horiz-adv-x="1223" d="M85 500q0 258 147.5 403t397.5 145q240 0 374 -141t134 -391q0 -245 -144.5 -392.5t-388.5 -147.5q-237 0 -378.5 143.5t-141.5 380.5zM312 1321q0 44 31.5 73t77.5 29q45 0 77.5 -29.5t32.5 -72.5t-30.5 -73t-74.5 -30q-46 0 -80 29.5t-34 73.5zM322 506 q0 -161 80 -253.5t214 -92.5q137 0 210.5 91t73.5 259q0 169 -73.5 261t-210.5 92q-136 0 -215 -95t-79 -262zM346 1494v137h543v-137h-543zM705 1321q0 44 32 73t75 29q46 0 78 -29.5t32 -72.5t-32 -73t-80 -30q-43 0 -74 29t-31 74z" />
<glyph unicode="&#x22c;" horiz-adv-x="1548" d="M85 700q0 346 190 552t516 206q302 0 486.5 -200t184.5 -523q0 -351 -189 -555t-505 -204q-310 0 -496.5 201t-186.5 523zM335 715q0 -239 120 -385t314 -146q206 0 325 139t119 389q0 257 -115.5 397t-318.5 140q-197 0 -320.5 -147t-123.5 -387zM430 1562 q0 119 51 190.5t143 71.5q68 0 157 -51q72 -44 125 -44q81 0 81 114h119q0 -116 -51.5 -189.5t-139.5 -73.5q-72 0 -165 48q-78 45 -121 45q-84 0 -84 -111h-115zM492 1934v128h543v-128h-543z" />
<glyph unicode="&#x22d;" horiz-adv-x="1223" d="M85 500q0 258 147.5 403t397.5 145q240 0 374 -141t134 -391q0 -245 -144.5 -392.5t-388.5 -147.5q-237 0 -378.5 143.5t-141.5 380.5zM280 1182q0 119 51 190.5t143 71.5q68 0 157 -51q72 -44 125 -44q81 0 81 114h119q0 -116 -51.5 -189.5t-139.5 -73.5q-72 0 -165 48 q-78 45 -121 45q-84 0 -84 -111h-115zM322 506q0 -161 80 -253.5t214 -92.5q137 0 210.5 91t73.5 259q0 169 -73.5 261t-210.5 92q-136 0 -215 -95t-79 -262zM342 1554v128h543v-128h-543z" />
<glyph unicode="&#x22e;" horiz-adv-x="1548" d="M85 700q0 346 190 552t516 206q302 0 486.5 -200t184.5 -523q0 -351 -189 -555t-505 -204q-310 0 -496.5 201t-186.5 523zM335 715q0 -239 120 -385t314 -146q206 0 325 139t119 389q0 257 -115.5 397t-318.5 140q-197 0 -320.5 -147t-123.5 -387zM650 1686q0 48 36 81 t87 33t87 -32.5t36 -81.5q0 -48 -36 -82t-87 -34q-50 0 -86.5 33.5t-36.5 82.5z" />
<glyph unicode="&#x22f;" horiz-adv-x="1223" d="M85 500q0 258 147.5 403t397.5 145q240 0 374 -141t134 -391q0 -245 -144.5 -392.5t-388.5 -147.5q-237 0 -378.5 143.5t-141.5 380.5zM322 506q0 -161 80 -253.5t214 -92.5q137 0 210.5 91t73.5 259q0 169 -73.5 261t-210.5 92q-136 0 -215 -95t-79 -262zM487 1321 q0 48 36 81t87 33t87 -32.5t36 -81.5q0 -48 -36 -82t-87 -34q-50 0 -86.5 33.5t-36.5 82.5z" />
<glyph unicode="&#x230;" horiz-adv-x="1548" d="M85 700q0 346 190 552t516 206q302 0 486.5 -200t184.5 -523q0 -351 -189 -555t-505 -204q-310 0 -496.5 201t-186.5 523zM335 715q0 -239 120 -385t314 -146q206 0 325 139t119 389q0 257 -115.5 397t-318.5 140q-197 0 -320.5 -147t-123.5 -387zM537 1848v137h543v-137 h-543zM700 1678q0 43 32 72t76 29q46 0 77.5 -29t31.5 -72t-31.5 -73t-77.5 -30q-44 0 -76 29.5t-32 73.5z" />
<glyph unicode="&#x259;" horiz-adv-x="1088" d="M70 486v89h698q-4 142 -85.5 219.5t-224.5 77.5q-169 0 -309 -99v187q136 88 363 88q229 0 359.5 -137.5t130.5 -389.5q0 -244 -140.5 -394.5t-348.5 -150.5q-213 0 -328 136t-115 374zM294 411q2 -124 59 -194t162 -70q99 0 168.5 73t84.5 191h-474z" />
<glyph unicode="&#x2c6;" horiz-adv-x="771" d="M65 1204l224 328h184l225 -328h-160l-161 211l-157 -211h-155z" />
<glyph unicode="&#x2da;" horiz-adv-x="565" d="M62 1376q0 98 63 156t161 58q96 0 157.5 -58.5t61.5 -149.5q0 -87 -65.5 -144.5t-160.5 -57.5q-94 0 -155.5 54t-61.5 142zM175 1386q0 -104 104 -104q48 0 79.5 29.5t31.5 74.5t-31.5 74.5t-79.5 29.5q-45 0 -74.5 -30t-29.5 -74z" />
<glyph unicode="&#x2dc;" horiz-adv-x="733" d="M35 1194q0 119 51 190.5t143 71.5q68 0 157 -51q72 -44 125 -44q81 0 81 114h119q0 -116 -51.5 -189.5t-139.5 -73.5q-72 0 -165 48q-78 45 -121 45q-84 0 -84 -111h-115z" />
<glyph unicode="&#x1e00;" horiz-adv-x="1375" d="M17 0l537 1434h268l533 -1434h-261l-129 365h-564l-124 -365h-260zM463 559h439l-199 572q-9 28 -19 90h-4q-9 -57 -20 -90zM467 -307q0 98 63 156t161 58q96 0 157.5 -58.5t61.5 -149.5q0 -87 -65.5 -144.5t-160.5 -57.5q-94 0 -155.5 54t-61.5 142zM580 -297 q0 -104 104 -104q48 0 79.5 29.5t31.5 74.5t-31.5 74.5t-79.5 29.5q-45 0 -74.5 -30t-29.5 -74z" />
<glyph unicode="&#x1e01;" horiz-adv-x="1069" d="M75 275q0 290 334 338l304 43q0 219 -208 219q-183 0 -330 -126v203q162 96 374 96q388 0 388 -382v-666h-225v160h-4q-106 -184 -311 -184q-151 0 -236.5 82t-85.5 217zM297 300q0 -65 46.5 -106.5t124.5 -41.5q106 0 175.5 74.5t69.5 187.5v89l-215 -30 q-100 -13 -150.5 -48.5t-50.5 -124.5zM298 -306q0 98 63 156t161 58q96 0 157.5 -58.5t61.5 -149.5q0 -87 -65.5 -144.5t-160.5 -57.5q-94 0 -155.5 54t-61.5 142zM411 -296q0 -104 104 -104q48 0 79.5 29.5t31.5 74.5t-31.5 74.5t-79.5 29.5q-45 0 -74.5 -30t-29.5 -74z " />
<glyph unicode="&#x1e02;" horiz-adv-x="1237" d="M177 0v1434h455q208 0 329.5 -91t121.5 -237q0 -122 -69 -212t-191 -128v-4q148 -17 236.5 -109.5t88.5 -240.5q0 -184 -145 -298t-366 -114h-460zM414 190h203q133 0 205.5 61.5t72.5 169.5q0 223 -309 223h-172v-454zM414 835h154q124 0 194.5 58.5t70.5 165.5 q0 184 -246 184h-173v-408zM455 1668q0 48 36 81t87 33t87 -32.5t36 -81.5q0 -48 -36 -82t-87 -34q-50 0 -86.5 33.5t-36.5 82.5z" />
<glyph unicode="&#x1e03;" horiz-adv-x="1234" d="M151 0v1516h232v-672h4q119 204 348 204q194 0 303.5 -137.5t109.5 -368.5q0 -257 -123 -411.5t-336 -154.5q-200 0 -302 172h-4v-148h-232zM381 428q0 -112 71.5 -190t181.5 -78q129 0 202.5 100.5t73.5 280.5q0 151 -68.5 236.5t-185.5 85.5q-124 0 -199.5 -88 t-75.5 -220v-127zM548 1319q0 48 36 81t87 33t87 -32.5t36 -81.5q0 -48 -36 -82t-87 -34q-50 0 -86.5 33.5t-36.5 82.5z" />
<glyph unicode="&#x1e04;" horiz-adv-x="1237" d="M177 0v1434h455q208 0 329.5 -91t121.5 -237q0 -122 -69 -212t-191 -128v-4q148 -17 236.5 -109.5t88.5 -240.5q0 -184 -145 -298t-366 -114h-460zM414 190h203q133 0 205.5 61.5t72.5 169.5q0 223 -309 223h-172v-454zM414 835h154q124 0 194.5 58.5t70.5 165.5 q0 184 -246 184h-173v-408zM477 -232q0 48 37.5 80.5t86.5 32.5q51 0 87 -32.5t36 -80.5t-36 -82t-87 -34t-87.5 34t-36.5 82z" />
<glyph unicode="&#x1e05;" horiz-adv-x="1234" d="M151 0v1516h232v-672h4q119 204 348 204q194 0 303.5 -137.5t109.5 -368.5q0 -257 -123 -411.5t-336 -154.5q-200 0 -302 172h-4v-148h-232zM381 428q0 -112 71.5 -190t181.5 -78q129 0 202.5 100.5t73.5 280.5q0 151 -68.5 236.5t-185.5 85.5q-124 0 -199.5 -88 t-75.5 -220v-127zM539 -232q0 48 37.5 80.5t86.5 32.5q51 0 87 -32.5t36 -80.5t-36 -82t-87 -34t-87.5 34t-36.5 82z" />
<glyph unicode="&#x1e06;" horiz-adv-x="1237" d="M177 0v1434h455q208 0 329.5 -91t121.5 -237q0 -122 -69 -212t-191 -128v-4q148 -17 236.5 -109.5t88.5 -240.5q0 -184 -145 -298t-366 -114h-460zM356 -111h543v-137h-543v137zM414 190h203q133 0 205.5 61.5t72.5 169.5q0 223 -309 223h-172v-454zM414 835h154 q124 0 194.5 58.5t70.5 165.5q0 184 -246 184h-173v-408z" />
<glyph unicode="&#x1e07;" horiz-adv-x="1234" d="M151 0v1516h232v-672h4q119 204 348 204q194 0 303.5 -137.5t109.5 -368.5q0 -257 -123 -411.5t-336 -154.5q-200 0 -302 172h-4v-148h-232zM381 428q0 -112 71.5 -190t181.5 -78q129 0 202.5 100.5t73.5 280.5q0 151 -68.5 236.5t-185.5 85.5q-124 0 -199.5 -88 t-75.5 -220v-127zM385 -111h543v-137h-543v137z" />
<glyph unicode="&#x1e08;" horiz-adv-x="1272" d="M86 690q0 344 211.5 556t534.5 212q208 0 345 -59v-236q-145 86 -320 86q-233 0 -377.5 -149t-144.5 -398q0 -237 135 -377.5t355 -140.5q203 0 352 96v-220q-162 -84 -403 -84q-312 0 -500 197t-188 517zM615 -328q44 -6 71 -6q133 0 133 82q0 74 -121 74q-10 0 -39 -4 v182h136v-94q87 0 138 -40.5t51 -113.5q0 -194 -288 -194q-47 0 -81 3v111zM620 1567l242 328h216l-286 -328h-172z" />
<glyph unicode="&#x1e09;" horiz-adv-x="963" d="M85 488q0 253 150.5 406.5t402.5 153.5q140 0 247 -49v-216q-107 80 -228 80q-147 0 -241 -99.5t-94 -260.5q0 -159 88.5 -251t237.5 -92q125 0 236 89v-202q-123 -71 -291 -71q-228 0 -368 142.5t-140 369.5zM422 1218l242 328h216l-286 -328h-172zM432 -328 q44 -6 71 -6q133 0 133 82q0 74 -121 74q-10 0 -39 -4v182h136v-94q87 0 138 -40.5t51 -113.5q0 -194 -288 -194q-47 0 -81 3v111z" />
<glyph unicode="&#x1e0a;" horiz-adv-x="1469" d="M177 0v1434h414q793 0 793 -699q0 -332 -220 -533.5t-590 -201.5h-397zM414 201h190q251 0 390.5 138t139.5 390q0 503 -521 503h-199v-1031zM569 1668q0 48 36 81t87 33t87 -32.5t36 -81.5q0 -48 -36 -82t-87 -34q-50 0 -86.5 33.5t-36.5 82.5z" />
<glyph unicode="&#x1e0b;" horiz-adv-x="1234" d="M85 488q0 254 125.5 407t334.5 153q207 0 301 -166h4v634h232v-1516h-232v174h-4q-112 -198 -345 -198q-189 0 -302.5 137.5t-113.5 374.5zM322 497q0 -156 71.5 -246.5t192.5 -90.5q119 0 193 87.5t74 220.5v134q0 109 -71 185t-181 76q-130 0 -204.5 -97t-74.5 -269z M417 1319q0 48 36 81t87 33t87 -32.5t36 -81.5q0 -48 -36 -82t-87 -34q-50 0 -86.5 33.5t-36.5 82.5z" />
<glyph unicode="&#x1e0c;" horiz-adv-x="1469" d="M177 0v1434h414q793 0 793 -699q0 -332 -220 -533.5t-590 -201.5h-397zM414 201h190q251 0 390.5 138t139.5 390q0 503 -521 503h-199v-1031zM569 -232q0 48 37.5 80.5t86.5 32.5q51 0 87 -32.5t36 -80.5t-36 -82t-87 -34t-87.5 34t-36.5 82z" />
<glyph unicode="&#x1e0d;" horiz-adv-x="1234" d="M85 488q0 254 125.5 407t334.5 153q207 0 301 -166h4v634h232v-1516h-232v174h-4q-112 -198 -345 -198q-189 0 -302.5 137.5t-113.5 374.5zM322 497q0 -156 71.5 -246.5t192.5 -90.5q119 0 193 87.5t74 220.5v134q0 109 -71 185t-181 76q-130 0 -204.5 -97t-74.5 -269z M451 -232q0 48 37.5 80.5t86.5 32.5q51 0 87 -32.5t36 -80.5t-36 -82t-87 -34t-87.5 34t-36.5 82z" />
<glyph unicode="&#x1e0e;" horiz-adv-x="1469" d="M177 0v1434h414q793 0 793 -699q0 -332 -220 -533.5t-590 -201.5h-397zM410 -111h543v-137h-543v137zM414 201h190q251 0 390.5 138t139.5 390q0 503 -521 503h-199v-1031z" />
<glyph unicode="&#x1e0f;" horiz-adv-x="1234" d="M85 488q0 254 125.5 407t334.5 153q207 0 301 -166h4v634h232v-1516h-232v174h-4q-112 -198 -345 -198q-189 0 -302.5 137.5t-113.5 374.5zM322 497q0 -156 71.5 -246.5t192.5 -90.5q119 0 193 87.5t74 220.5v134q0 109 -71 185t-181 76q-130 0 -204.5 -97t-74.5 -269z M341 -102h543v-137h-543v137z" />
<glyph unicode="&#x1e10;" horiz-adv-x="1469" d="M177 0v1434h414q793 0 793 -699q0 -332 -220 -533.5t-590 -201.5h-397zM414 201h190q251 0 390.5 138t139.5 390q0 503 -521 503h-199v-1031zM507 -417l105 302h217l-167 -302h-155z" />
<glyph unicode="&#x1e11;" horiz-adv-x="1234" d="M85 488q0 254 125.5 407t334.5 153q207 0 301 -166h4v634h232v-1516h-232v174h-4q-112 -198 -345 -198q-189 0 -302.5 137.5t-113.5 374.5zM322 497q0 -156 71.5 -246.5t192.5 -90.5q119 0 193 87.5t74 220.5v134q0 109 -71 185t-181 76q-130 0 -204.5 -97t-74.5 -269z M419 -417l105 302h217l-167 -302h-155z" />
<glyph unicode="&#x1e12;" horiz-adv-x="1469" d="M177 0v1434h414q793 0 793 -699q0 -332 -220 -533.5t-590 -201.5h-397zM402 -455l224 328h184l225 -328h-160l-161 211l-157 -211h-155zM414 201h190q251 0 390.5 138t139.5 390q0 503 -521 503h-199v-1031z" />
<glyph unicode="&#x1e13;" horiz-adv-x="1234" d="M85 488q0 254 125.5 407t334.5 153q207 0 301 -166h4v634h232v-1516h-232v174h-4q-112 -198 -345 -198q-189 0 -302.5 137.5t-113.5 374.5zM293 -458l224 328h184l225 -328h-160l-161 211l-157 -211h-155zM322 497q0 -156 71.5 -246.5t192.5 -90.5q119 0 193 87.5 t74 220.5v134q0 109 -71 185t-181 76q-130 0 -204.5 -97t-74.5 -269z" />
<glyph unicode="&#x1e14;" horiz-adv-x="1060" d="M177 0v1434h773v-202h-535v-406h493v-201h-493v-424h567v-201h-805zM295 1566v129h543v-129h-543zM300 2008h219l180 -246h-158z" />
<glyph unicode="&#x1e15;" horiz-adv-x="1088" d="M85 508q0 239 141.5 389.5t351.5 150.5t325 -135t115 -375v-89h-698q4 -142 87.5 -219t229.5 -77q164 0 301 98v-187q-140 -88 -370 -88q-226 0 -354.5 139.5t-128.5 392.5zM285 1218v128h543v-128h-543zM290 1659h219l180 -245h-158zM320 613h474q-1 125 -59 194.5 t-160 69.5q-100 0 -169.5 -73t-85.5 -191z" />
<glyph unicode="&#x1e16;" horiz-adv-x="1060" d="M177 0v1434h773v-202h-535v-406h493v-201h-493v-424h567v-201h-805zM310 1566v128h543v-128h-543zM448 1762l181 246h218l-240 -246h-159z" />
<glyph unicode="&#x1e17;" horiz-adv-x="1088" d="M85 508q0 239 141.5 389.5t351.5 150.5t325 -135t115 -375v-89h-698q4 -142 87.5 -219t229.5 -77q164 0 301 98v-187q-140 -88 -370 -88q-226 0 -354.5 139.5t-128.5 392.5zM285 1218v128h543v-128h-543zM320 613h474q-1 125 -59 194.5t-160 69.5q-100 0 -169.5 -73 t-85.5 -191zM423 1414l181 245h218l-240 -245h-159z" />
<glyph unicode="&#x1e18;" horiz-adv-x="1060" d="M177 0v1434h773v-202h-535v-406h493v-201h-493v-424h567v-201h-805zM282 -460l224 328h184l225 -328h-160l-161 211l-157 -211h-155z" />
<glyph unicode="&#x1e19;" horiz-adv-x="1088" d="M85 508q0 239 141.5 389.5t351.5 150.5t325 -135t115 -375v-89h-698q4 -142 87.5 -219t229.5 -77q164 0 301 98v-187q-140 -88 -370 -88q-226 0 -354.5 139.5t-128.5 392.5zM273 -459l224 328h184l225 -328h-160l-161 211l-157 -211h-155zM320 613h474q-1 125 -59 194.5 t-160 69.5q-100 0 -169.5 -73t-85.5 -191z" />
<glyph unicode="&#x1e1a;" horiz-adv-x="1060" d="M177 0v1434h773v-202h-535v-406h493v-201h-493v-424h567v-201h-805zM238 -375q0 119 51 190.5t143 71.5q68 0 157 -51q72 -44 125 -44q81 0 81 114h119q0 -116 -51.5 -189.5t-139.5 -73.5q-72 0 -165 48q-78 45 -121 45q-84 0 -84 -111h-115z" />
<glyph unicode="&#x1e1b;" horiz-adv-x="1088" d="M85 508q0 239 141.5 389.5t351.5 150.5t325 -135t115 -375v-89h-698q4 -142 87.5 -219t229.5 -77q164 0 301 98v-187q-140 -88 -370 -88q-226 0 -354.5 139.5t-128.5 392.5zM242 -375q0 119 51 190.5t143 71.5q68 0 157 -51q72 -44 125 -44q81 0 81 114h119 q0 -116 -51.5 -189.5t-139.5 -73.5q-72 0 -165 48q-78 45 -121 45q-84 0 -84 -111h-115zM320 613h474q-1 125 -59 194.5t-160 69.5q-100 0 -169.5 -73t-85.5 -191z" />
<glyph unicode="&#x1e1c;" horiz-adv-x="1060" d="M177 0v1434h773v-202h-535v-406h493v-201h-493v-424h567v-201h-805zM264 1830h136q12 -146 166 -146q65 0 111 39.5t56 106.5h137q-11 -124 -97.5 -200t-209.5 -76q-130 0 -211.5 75.5t-87.5 200.5zM442 -328q44 -6 71 -6q133 0 133 82q0 74 -121 74q-10 0 -39 -4v182 h136v-94q87 0 138 -40.5t51 -113.5q0 -194 -288 -194q-47 0 -81 3v111z" />
<glyph unicode="&#x1e1d;" horiz-adv-x="1088" d="M85 508q0 239 141.5 389.5t351.5 150.5t325 -135t115 -375v-89h-698q4 -142 87.5 -219t229.5 -77q164 0 301 98v-187q-140 -88 -370 -88q-226 0 -354.5 139.5t-128.5 392.5zM257 1480h136q12 -146 166 -146q65 0 111 39.5t56 106.5h137q-11 -124 -97.5 -200t-209.5 -76 q-130 0 -211.5 75.5t-87.5 200.5zM320 613h474q-1 125 -59 194.5t-160 69.5q-100 0 -169.5 -73t-85.5 -191zM435 -328q44 -6 71 -6q133 0 133 82q0 74 -121 74q-10 0 -39 -4v182h136v-94q87 0 138 -40.5t51 -113.5q0 -194 -288 -194q-47 0 -81 3v111z" />
<glyph unicode="&#x1e1e;" horiz-adv-x="1029" d="M177 0v1434h774v-202h-536v-431h494v-201h-494v-600h-238zM437 1668q0 48 36 81t87 33t87 -32.5t36 -81.5q0 -48 -36 -82t-87 -34q-50 0 -86.5 33.5t-36.5 82.5z" />
<glyph unicode="&#x1e1f;" horiz-adv-x="706" d="M48 842v182h175v166q0 162 106 255.5t265 93.5q86 0 136 -19v-193q-47 27 -107 27q-169 0 -169 -191v-139h238v-182h-237v-842h-232v842h-175zM97 1668q0 48 36 81t87 33t87 -32.5t36 -81.5q0 -48 -36 -82t-87 -34q-50 0 -86.5 33.5t-36.5 82.5z" />
<glyph unicode="&#x1e20;" horiz-adv-x="1428" d="M85 698q0 333 215.5 546.5t547.5 213.5q239 0 402 -70v-245q-165 110 -393 110q-229 0 -375.5 -151t-146.5 -391q0 -247 126 -388.5t342 -141.5q148 0 256 57v341h-302v200h539v-681q-224 -122 -499 -122q-318 0 -515 198t-197 524zM521 1553v137h543v-137h-543z" />
<glyph unicode="&#x1e21;" horiz-adv-x="1234" d="M85 479q0 261 123 415t338 154q203 0 301 -166h4v142h232v-942q0 -564 -567 -564q-200 0 -349 67v212q168 -96 319 -96q365 0 365 359v112h-4q-115 -196 -346 -196q-187 0 -301.5 136.5t-114.5 366.5zM322 493q0 -151 71.5 -241.5t189.5 -90.5q120 0 195 86.5t75 221.5 v133q0 108 -71.5 184.5t-178.5 76.5q-132 0 -206.5 -97.5t-74.5 -272.5zM326 1204v137h543v-137h-543z" />
<glyph unicode="&#x1e22;" horiz-adv-x="1506" d="M177 0v1434h238v-603h675v603h239v-1434h-239v622h-675v-622h-238zM624 1668q0 48 36 81t87 33t87 -32.5t36 -81.5q0 -48 -36 -82t-87 -34q-50 0 -86.5 33.5t-36.5 82.5z" />
<glyph unicode="&#x1e23;" horiz-adv-x="1192" d="M151 0v1516h233v-662h4q116 194 332 194q341 0 341 -417v-631h-232v560q0 304 -203 304q-102 0 -172 -88t-70 -225v-551h-233zM541 1319q0 48 36 81t87 33t87 -32.5t36 -81.5q0 -48 -36 -82t-87 -34q-50 0 -86.5 33.5t-36.5 82.5z" />
<glyph unicode="&#x1e24;" horiz-adv-x="1506" d="M177 0v1434h238v-603h675v603h239v-1434h-239v622h-675v-622h-238zM638 -232q0 48 37.5 80.5t86.5 32.5q51 0 87 -32.5t36 -80.5t-36 -82t-87 -34t-87.5 34t-36.5 82z" />
<glyph unicode="&#x1e25;" horiz-adv-x="1192" d="M151 0v1516h233v-662h4q116 194 332 194q341 0 341 -417v-631h-232v560q0 304 -203 304q-102 0 -172 -88t-70 -225v-551h-233zM472 -232q0 48 37.5 80.5t86.5 32.5q51 0 87 -32.5t36 -80.5t-36 -82t-87 -34t-87.5 34t-36.5 82z" />
<glyph unicode="&#x1e26;" horiz-adv-x="1506" d="M177 0v1434h238v-603h675v603h239v-1434h-239v622h-675v-622h-238zM418 1669q0 49 35.5 82t86.5 33t88.5 -33.5t37.5 -81.5q0 -49 -36 -83t-86 -34q-52 0 -89 34.5t-37 82.5zM837 1669q0 49 35 82t85 33q53 0 89.5 -33.5t36.5 -81.5q0 -49 -35 -83t-88 -34 q-50 0 -86.5 33t-36.5 84z" />
<glyph unicode="&#x1e27;" horiz-adv-x="1192" d="M151 0v1516h233v-662h4q116 194 332 194q341 0 341 -417v-631h-232v560q0 304 -203 304q-102 0 -172 -88t-70 -225v-551h-233zM352 1669q0 49 35.5 82t86.5 33t88.5 -33.5t37.5 -81.5q0 -49 -36 -83t-86 -34q-52 0 -89 34.5t-37 82.5zM771 1669q0 49 35 82t85 33 q53 0 89.5 -33.5t36.5 -81.5q0 -49 -35 -83t-88 -34q-50 0 -86.5 33t-36.5 84z" />
<glyph unicode="&#x1e28;" horiz-adv-x="1506" d="M157 -328q44 -6 71 -6q133 0 133 82q0 74 -121 74q-10 0 -39 -4v182h136v-94q87 0 138 -40.5t51 -113.5q0 -194 -288 -194q-47 0 -81 3v111zM177 0v1434h238v-603h675v603h239v-1434h-239v622h-675v-622h-238z" />
<glyph unicode="&#x1e29;" horiz-adv-x="1192" d="M134 -328q44 -6 71 -6q133 0 133 82q0 74 -121 74q-10 0 -39 -4v182h136v-94q87 0 138 -40.5t51 -113.5q0 -194 -288 -194q-47 0 -81 3v111zM151 0v1516h233v-662h4q116 194 332 194q341 0 341 -417v-631h-232v560q0 304 -203 304q-102 0 -172 -88t-70 -225v-551h-233z " />
<glyph unicode="&#x1e2a;" horiz-adv-x="1506" d="M177 0v1434h238v-603h675v603h239v-1434h-239v622h-675v-622h-238zM451 -109h136q12 -146 166 -146q65 0 111 39.5t56 106.5h137q-11 -124 -97.5 -200t-209.5 -76q-130 0 -211.5 75.5t-87.5 200.5z" />
<glyph unicode="&#x1e2b;" horiz-adv-x="1192" d="M151 0v1516h233v-662h4q116 194 332 194q341 0 341 -417v-631h-232v560q0 304 -203 304q-102 0 -172 -88t-70 -225v-551h-233zM309 -109h136q12 -146 166 -146q65 0 111 39.5t56 106.5h137q-11 -124 -97.5 -200t-209.5 -76q-130 0 -211.5 75.5t-87.5 200.5z" />
<glyph unicode="&#x1e2c;" horiz-adv-x="597" d="M-40 -363q0 119 51 190.5t143 71.5q68 0 157 -51q72 -44 125 -44q81 0 81 114h119q0 -116 -51.5 -189.5t-139.5 -73.5q-72 0 -165 48q-78 45 -121 45q-84 0 -84 -111h-115zM176 0v1434h245v-1434h-245z" />
<glyph unicode="&#x1e2d;" horiz-adv-x="535" d="M-66 -363q0 119 51 190.5t143 71.5q68 0 157 -51q72 -44 125 -44q81 0 81 114h119q0 -116 -51.5 -189.5t-139.5 -73.5q-72 0 -165 48q-78 45 -121 45q-84 0 -84 -111h-115zM130 1370q0 57 40.5 95t97.5 38q59 0 100 -38t41 -95q0 -54 -41 -92.5t-100 -38.5 q-57 0 -97.5 37t-40.5 94zM151 0v1024h232v-1024h-232z" />
<glyph unicode="&#x1e2e;" horiz-adv-x="597" d="M-45 1674q0 46 34.5 77t79.5 31q47 0 82 -31.5t35 -76.5t-34 -76.5t-81 -31.5q-48 0 -82 32t-34 76zM176 0v1434h245v-1434h-245zM205 1755l180 246h219l-241 -246h-158zM423 1674q0 46 32.5 77t79.5 31q49 0 82.5 -31.5t33.5 -76.5t-32.5 -76.5t-81.5 -31.5 q-47 0 -80.5 31t-33.5 77z" />
<glyph unicode="&#x1e2f;" horiz-adv-x="535" d="M-79 1326q0 46 34.5 77t79.5 31q47 0 82 -31.5t35 -76.5t-34 -76.5t-81 -31.5q-48 0 -82 32t-34 76zM151 0v1024h233v-1024h-233zM171 1407l180 246h219l-241 -246h-158zM389 1326q0 46 32.5 77t79.5 31q49 0 82.5 -31.5t33.5 -76.5t-32.5 -76.5t-81.5 -31.5 q-47 0 -80.5 31t-33.5 77z" />
<glyph unicode="&#x1e30;" horiz-adv-x="1251" d="M177 0v1434h238v-674h4q12 22 34 49l481 625h285l-563 -688l606 -746h-310l-499 656q-28 37 -34 50h-4v-706h-238zM534 1565l242 328h216l-286 -328h-172z" />
<glyph unicode="&#x1e31;" horiz-adv-x="1075" d="M151 0v1516h233v-961h4l376 469h279l-423 -494l460 -530h-294l-398 492h-4v-492h-233zM381 1567l242 328h216l-286 -328h-172z" />
<glyph unicode="&#x1e32;" horiz-adv-x="1251" d="M177 0v1434h238v-674h4q12 22 34 49l481 625h285l-563 -688l606 -746h-310l-499 656q-28 37 -34 50h-4v-706h-238zM543 -232q0 48 37.5 80.5t86.5 32.5q51 0 87 -32.5t36 -80.5t-36 -82t-87 -34t-87.5 34t-36.5 82z" />
<glyph unicode="&#x1e33;" horiz-adv-x="1075" d="M151 0v1516h233v-961h4l376 469h279l-423 -494l460 -530h-294l-398 492h-4v-492h-233zM451 -232q0 48 37.5 80.5t86.5 32.5q51 0 87 -32.5t36 -80.5t-36 -82t-87 -34t-87.5 34t-36.5 82z" />
<glyph unicode="&#x1e34;" horiz-adv-x="1251" d="M177 0v1434h238v-674h4q12 22 34 49l481 625h285l-563 -688l606 -746h-310l-499 656q-28 37 -34 50h-4v-706h-238zM410 -112h543v-137h-543v137z" />
<glyph unicode="&#x1e35;" horiz-adv-x="1075" d="M151 0v1516h233v-961h4l376 469h279l-423 -494l460 -530h-294l-398 492h-4v-492h-233zM315 -112h543v-137h-543v137z" />
<glyph unicode="&#x1e36;" horiz-adv-x="1001" d="M177 0v1434h238v-1233h556v-201h-794zM434 -232q0 48 37.5 80.5t86.5 32.5q51 0 87 -32.5t36 -80.5t-36 -82t-87 -34t-87.5 34t-36.5 82z" />
<glyph unicode="&#x1e37;" horiz-adv-x="535" d="M146 -232q0 48 37.5 80.5t86.5 32.5q51 0 87 -32.5t36 -80.5t-36 -82t-87 -34t-87.5 34t-36.5 82zM151 0v1516h233v-1516h-233z" />
<glyph unicode="&#x1e38;" horiz-adv-x="1001" d="M177 0v1434h238v-1233h556v-201h-794zM275 1553v137h543v-137h-543zM436 -232q0 48 37.5 80.5t86.5 32.5q51 0 87 -32.5t36 -80.5t-36 -82t-87 -34t-87.5 34t-36.5 82z" />
<glyph unicode="&#x1e39;" horiz-adv-x="535" d="M-3 1553v137h543v-137h-543zM146 -232q0 48 37.5 80.5t86.5 32.5q51 0 87 -32.5t36 -80.5t-36 -82t-87 -34t-87.5 34t-36.5 82zM151 0v1516h233v-1516h-233z" />
<glyph unicode="&#x1e3a;" horiz-adv-x="1001" d="M177 0v1434h238v-1233h556v-201h-794zM307 -112h543v-137h-543v137z" />
<glyph unicode="&#x1e3b;" horiz-adv-x="535" d="M-1 -104h543v-137h-543v137zM151 0v1516h233v-1516h-233z" />
<glyph unicode="&#x1e3c;" horiz-adv-x="1001" d="M177 0v1434h238v-1233h556v-201h-794zM259 -459l224 328h184l225 -328h-160l-161 211l-157 -211h-155z" />
<glyph unicode="&#x1e3d;" horiz-adv-x="535" d="M-46 -458l224 328h184l225 -328h-160l-161 211l-157 -211h-155zM151 0v1516h233v-1516h-233z" />
<glyph unicode="&#x1e3e;" horiz-adv-x="1893" d="M177 0v1434h335l377 -955q43 -110 56 -164h5q37 113 60 168l384 951h323v-1434h-236v928q0 114 14 279h-4q-22 -94 -39 -135l-428 -1072h-164l-429 1064q-18 47 -38 143h-4q8 -86 8 -281v-926h-220zM813 1567l242 328h216l-286 -328h-172z" />
<glyph unicode="&#x1e3f;" horiz-adv-x="1814" d="M151 0v1024h232v-162h4q111 186 323 186q106 0 185.5 -58.5t108.5 -153.5q114 212 340 212q338 0 338 -417v-631h-232v558q0 161 -45.5 233t-153.5 72q-91 0 -154.5 -91t-63.5 -218v-554h-233v577q0 286 -202 286q-94 0 -154.5 -86t-60.5 -223v-554h-232zM729 1218 l242 328h216l-286 -328h-172z" />
<glyph unicode="&#x1e40;" horiz-adv-x="1893" d="M177 0v1434h335l377 -955q43 -110 56 -164h5q37 113 60 168l384 951h323v-1434h-236v928q0 114 14 279h-4q-22 -94 -39 -135l-428 -1072h-164l-429 1064q-18 47 -38 143h-4q8 -86 8 -281v-926h-220zM823 1668q0 48 36 81t87 33t87 -32.5t36 -81.5q0 -48 -36 -82t-87 -34 q-50 0 -86.5 33.5t-36.5 82.5z" />
<glyph unicode="&#x1e41;" horiz-adv-x="1814" d="M151 0v1024h232v-162h4q111 186 323 186q106 0 185.5 -58.5t108.5 -153.5q114 212 340 212q338 0 338 -417v-631h-232v558q0 161 -45.5 233t-153.5 72q-91 0 -154.5 -91t-63.5 -218v-554h-233v577q0 286 -202 286q-94 0 -154.5 -86t-60.5 -223v-554h-232zM794 1319 q0 48 36 81t87 33t87 -32.5t36 -81.5q0 -48 -36 -82t-87 -34q-50 0 -86.5 33.5t-36.5 82.5z" />
<glyph unicode="&#x1e42;" horiz-adv-x="1893" d="M177 0v1434h335l377 -955q43 -110 56 -164h5q37 113 60 168l384 951h323v-1434h-236v928q0 114 14 279h-4q-22 -94 -39 -135l-428 -1072h-164l-429 1064q-18 47 -38 143h-4q8 -86 8 -281v-926h-220zM823 -232q0 48 37.5 80.5t86.5 32.5q51 0 87 -32.5t36 -80.5t-36 -82 t-87 -34t-87.5 34t-36.5 82z" />
<glyph unicode="&#x1e43;" horiz-adv-x="1814" d="M151 0v1024h232v-162h4q111 186 323 186q106 0 185.5 -58.5t108.5 -153.5q114 212 340 212q338 0 338 -417v-631h-232v558q0 161 -45.5 233t-153.5 72q-91 0 -154.5 -91t-63.5 -218v-554h-233v577q0 286 -202 286q-94 0 -154.5 -86t-60.5 -223v-554h-232zM792 -232 q0 48 37.5 80.5t86.5 32.5q51 0 87 -32.5t36 -80.5t-36 -82t-87 -34t-87.5 34t-36.5 82z" />
<glyph unicode="&#x1e44;" horiz-adv-x="1571" d="M177 0v1434h277l662 -1029q42 -64 54 -88h4q-10 57 -10 193v924h229v-1434h-260l-685 1054q-26 40 -43 83h-6q8 -46 8 -197v-940h-230zM658 1669q0 48 36 81t87 33t87 -32.5t36 -81.5q0 -48 -36 -82t-87 -34q-50 0 -86.5 33.5t-36.5 82.5z" />
<glyph unicode="&#x1e45;" d="M151 0v1024h233v-170h4q115 194 332 194q167 0 255 -108.5t88 -313.5v-626h-232v577q0 287 -203 287q-106 0 -175 -79.5t-69 -200.5v-584h-233zM493 1319q0 48 36 81t87 33t87 -32.5t36 -81.5q0 -48 -36 -82t-87 -34q-50 0 -86.5 33.5t-36.5 82.5z" />
<glyph unicode="&#x1e46;" horiz-adv-x="1571" d="M177 0v1434h277l662 -1029q42 -64 54 -88h4q-10 57 -10 193v924h229v-1434h-260l-685 1054q-26 40 -43 83h-6q8 -46 8 -197v-940h-230zM657 -232q0 48 37.5 80.5t86.5 32.5q51 0 87 -32.5t36 -80.5t-36 -82t-87 -34t-87.5 34t-36.5 82z" />
<glyph unicode="&#x1e47;" d="M151 0v1024h233v-170h4q115 194 332 194q167 0 255 -108.5t88 -313.5v-626h-232v577q0 287 -203 287q-106 0 -175 -79.5t-69 -200.5v-584h-233zM490 -232q0 48 37.5 80.5t86.5 32.5q51 0 87 -32.5t36 -80.5t-36 -82t-87 -34t-87.5 34t-36.5 82z" />
<glyph unicode="&#x1e48;" horiz-adv-x="1571" d="M177 0v1434h277l662 -1029q42 -64 54 -88h4q-10 57 -10 193v924h229v-1434h-260l-685 1054q-26 40 -43 83h-6q8 -46 8 -197v-940h-230zM522 -112h543v-137h-543v137z" />
<glyph unicode="&#x1e49;" d="M151 0v1024h233v-170h4q115 194 332 194q167 0 255 -108.5t88 -313.5v-626h-232v577q0 287 -203 287q-106 0 -175 -79.5t-69 -200.5v-584h-233zM345 -112h543v-137h-543v137z" />
<glyph unicode="&#x1e4a;" horiz-adv-x="1571" d="M177 0v1434h277l662 -1029q42 -64 54 -88h4q-10 57 -10 193v924h229v-1434h-260l-685 1054q-26 40 -43 83h-6q8 -46 8 -197v-940h-230zM484 -460l224 328h184l225 -328h-160l-161 211l-157 -211h-155z" />
<glyph unicode="&#x1e4b;" d="M151 0v1024h233v-170h4q115 194 332 194q167 0 255 -108.5t88 -313.5v-626h-232v577q0 287 -203 287q-106 0 -175 -79.5t-69 -200.5v-584h-233zM300 -460l224 328h184l225 -328h-160l-161 211l-157 -211h-155z" />
<glyph unicode="&#x1e4c;" horiz-adv-x="1548" d="M85 700q0 346 190 552t516 206q302 0 486.5 -200t184.5 -523q0 -351 -189 -555t-505 -204q-310 0 -496.5 201t-186.5 523zM335 715q0 -239 120 -385t314 -146q206 0 325 139t119 389q0 257 -115.5 397t-318.5 140q-197 0 -320.5 -147t-123.5 -387zM443 1548 q0 223 196 223q63 0 144 -37t132 -37q80 0 80 87h119q0 -104 -50 -164t-142 -60q-67 0 -152 37q-87 36 -128 36q-82 0 -82 -85h-117zM620 1819l180 246h219l-239 -246h-160z" />
<glyph unicode="&#x1e4d;" horiz-adv-x="1223" d="M85 500q0 258 147.5 403t397.5 145q240 0 374 -141t134 -391q0 -245 -144.5 -392.5t-388.5 -147.5q-237 0 -378.5 143.5t-141.5 380.5zM273 1202q0 223 196 223q63 0 144 -37t132 -37q80 0 80 87h119q0 -104 -50 -164t-142 -60q-67 0 -152 37q-87 36 -128 36 q-82 0 -82 -85h-117zM322 506q0 -161 80 -253.5t214 -92.5q137 0 210.5 91t73.5 259q0 169 -73.5 261t-210.5 92q-136 0 -215 -95t-79 -262zM450 1473l180 246h219l-239 -246h-160z" />
<glyph unicode="&#x1e4e;" horiz-adv-x="1548" d="M85 700q0 346 190 552t516 206q302 0 486.5 -200t184.5 -523q0 -351 -189 -555t-505 -204q-310 0 -496.5 201t-186.5 523zM335 715q0 -239 120 -385t314 -146q206 0 325 139t119 389q0 257 -115.5 397t-318.5 140q-197 0 -320.5 -147t-123.5 -387zM444 1548 q0 223 196 223q63 0 144 -37t132 -37q80 0 80 87h118q0 -103 -50 -163t-142 -60q-67 0 -152 37q-87 36 -128 36q-82 0 -82 -86h-116zM479 1950q0 44 32.5 73t76.5 29q46 0 77.5 -29.5t31.5 -72.5q0 -44 -31 -73.5t-77 -29.5q-44 0 -77 29.5t-33 73.5zM871 1950q0 44 31.5 73 t76.5 29t77.5 -29.5t32.5 -72.5q0 -44 -32 -73.5t-77 -29.5t-77 29.5t-32 73.5z" />
<glyph unicode="&#x1e4f;" horiz-adv-x="1223" d="M85 500q0 258 147.5 403t397.5 145q240 0 374 -141t134 -391q0 -245 -144.5 -392.5t-388.5 -147.5q-237 0 -378.5 143.5t-141.5 380.5zM273 1202q0 223 196 223q63 0 144 -37t132 -37q80 0 80 87h118q0 -103 -50 -163t-142 -60q-67 0 -152 37q-87 36 -128 36 q-82 0 -82 -86h-116zM308 1604q0 44 32.5 73t76.5 29q46 0 77.5 -29.5t31.5 -72.5q0 -44 -31 -73.5t-77 -29.5q-44 0 -77 29.5t-33 73.5zM322 506q0 -161 80 -253.5t214 -92.5q137 0 210.5 91t73.5 259q0 169 -73.5 261t-210.5 92q-136 0 -215 -95t-79 -262zM700 1604 q0 44 31.5 73t76.5 29t77.5 -29.5t32.5 -72.5q0 -44 -32 -73.5t-77 -29.5t-77 29.5t-32 73.5z" />
<glyph unicode="&#x1e50;" horiz-adv-x="1548" d="M85 700q0 346 190 552t516 206q302 0 486.5 -200t184.5 -523q0 -351 -189 -555t-505 -204q-310 0 -496.5 201t-186.5 523zM335 715q0 -239 120 -385t314 -146q206 0 325 139t119 389q0 257 -115.5 397t-318.5 140q-197 0 -320.5 -147t-123.5 -387zM508 1566v129h543v-129 h-543zM513 2008h219l180 -246h-158z" />
<glyph unicode="&#x1e51;" horiz-adv-x="1223" d="M85 500q0 258 147.5 403t397.5 145q240 0 374 -141t134 -391q0 -245 -144.5 -392.5t-388.5 -147.5q-237 0 -378.5 143.5t-141.5 380.5zM322 506q0 -161 80 -253.5t214 -92.5q137 0 210.5 91t73.5 259q0 169 -73.5 261t-210.5 92q-136 0 -215 -95t-79 -262zM342 1218v128 h543v-128h-543zM347 1659h219l180 -245h-158z" />
<glyph unicode="&#x1e52;" horiz-adv-x="1548" d="M85 700q0 346 190 552t516 206q302 0 486.5 -200t184.5 -523q0 -351 -189 -555t-505 -204q-310 0 -496.5 201t-186.5 523zM335 715q0 -239 120 -385t314 -146q206 0 325 139t119 389q0 257 -115.5 397t-318.5 140q-197 0 -320.5 -147t-123.5 -387zM510 1566v128h543v-128 h-543zM648 1762l181 246h218l-240 -246h-159z" />
<glyph unicode="&#x1e53;" horiz-adv-x="1223" d="M85 500q0 258 147.5 403t397.5 145q240 0 374 -141t134 -391q0 -245 -144.5 -392.5t-388.5 -147.5q-237 0 -378.5 143.5t-141.5 380.5zM322 506q0 -161 80 -253.5t214 -92.5q137 0 210.5 91t73.5 259q0 169 -73.5 261t-210.5 92q-136 0 -215 -95t-79 -262zM335 1218v128 h543v-128h-543zM473 1414l181 245h218l-240 -245h-159z" />
<glyph unicode="&#x1e54;" horiz-adv-x="1197" d="M177 0v1434h435q247 0 383 -115t136 -324t-142 -342t-384 -133h-191v-520h-237zM400 1567l242 328h216l-286 -328h-172zM414 714h154q153 0 233 71t80 200q0 253 -294 253h-173v-524z" />
<glyph unicode="&#x1e55;" horiz-adv-x="1234" d="M151 -471v1495h232v-180h4q119 204 348 204q195 0 304 -137t109 -368q0 -256 -123 -410t-336 -154q-196 0 -302 172h-4v-622h-232zM381 428q0 -112 71.5 -190t181.5 -78q129 0 202.5 100.5t73.5 280.5q0 151 -68.5 236.5t-185.5 85.5q-124 0 -199.5 -88t-75.5 -220v-127z M431 1218l242 328h216l-286 -328h-172z" />
<glyph unicode="&#x1e56;" horiz-adv-x="1197" d="M177 0v1434h435q247 0 383 -115t136 -324t-142 -342t-384 -133h-191v-520h-237zM414 714h154q153 0 233 71t80 200q0 253 -294 253h-173v-524zM476 1668q0 48 36 81t87 33t87 -32.5t36 -81.5q0 -48 -36 -82t-87 -34q-50 0 -86.5 33.5t-36.5 82.5z" />
<glyph unicode="&#x1e57;" horiz-adv-x="1234" d="M151 -471v1495h232v-180h4q119 204 348 204q195 0 304 -137t109 -368q0 -256 -123 -410t-336 -154q-196 0 -302 172h-4v-622h-232zM381 428q0 -112 71.5 -190t181.5 -78q129 0 202.5 100.5t73.5 280.5q0 151 -68.5 236.5t-185.5 85.5q-124 0 -199.5 -88t-75.5 -220v-127z M523 1319q0 48 36 81t87 33t87 -32.5t36 -81.5q0 -48 -36 -82t-87 -34q-50 0 -86.5 33.5t-36.5 82.5z" />
<glyph unicode="&#x1e58;" horiz-adv-x="1275" d="M177 0v1434h472q101 0 186 -24t148 -72.5t98.5 -121t35.5 -169.5q0 -76 -22.5 -139.5t-64 -113t-100 -84.5t-131.5 -54v-4q39 -22 68 -48.5t55 -54.5t51.5 -63.5t56.5 -82.5l255 -403h-278l-229 384q-31 53 -60.5 90.5t-60 61.5t-66.5 35t-81 11h-96v-582h-237zM414 775 h198q55 0 101.5 17t80.5 49t53 78t19 103q0 103 -65 161t-187 58h-200v-466zM502 1668q0 48 36 81t87 33t87 -32.5t36 -81.5q0 -48 -36 -82t-87 -34q-50 0 -86.5 33.5t-36.5 82.5z" />
<glyph unicode="&#x1e59;" horiz-adv-x="758" d="M151 0v1024h232v-211h4q34 108 104.5 168.5t157.5 60.5q63 0 96 -19v-220q-42 33 -121 33q-103 0 -172 -93t-69 -253v-490h-232zM293 1319q0 48 36 81t87 33t87 -32.5t36 -81.5q0 -48 -36 -82t-87 -34q-50 0 -86.5 33.5t-36.5 82.5z" />
<glyph unicode="&#x1e5a;" horiz-adv-x="1275" d="M177 0v1434h472q101 0 186 -24t148 -72.5t98.5 -121t35.5 -169.5q0 -76 -22.5 -139.5t-64 -113t-100 -84.5t-131.5 -54v-4q39 -22 68 -48.5t55 -54.5t51.5 -63.5t56.5 -82.5l255 -403h-278l-229 384q-31 53 -60.5 90.5t-60 61.5t-66.5 35t-81 11h-96v-582h-237zM414 775 h198q55 0 101.5 17t80.5 49t53 78t19 103q0 103 -65 161t-187 58h-200v-466zM540 -232q0 48 37.5 80.5t86.5 32.5q51 0 87 -32.5t36 -80.5t-36 -82t-87 -34t-87.5 34t-36.5 82z" />
<glyph unicode="&#x1e5b;" horiz-adv-x="758" d="M151 0v1024h232v-211h4q34 108 104.5 168.5t157.5 60.5q63 0 96 -19v-220q-42 33 -121 33q-103 0 -172 -93t-69 -253v-490h-232zM308 -232q0 48 37.5 80.5t86.5 32.5q51 0 87 -32.5t36 -80.5t-36 -82t-87 -34t-87.5 34t-36.5 82z" />
<glyph unicode="&#x1e5c;" horiz-adv-x="1275" d="M177 0v1434h472q101 0 186 -24t148 -72.5t98.5 -121t35.5 -169.5q0 -76 -22.5 -139.5t-64 -113t-100 -84.5t-131.5 -54v-4q39 -22 68 -48.5t55 -54.5t51.5 -63.5t56.5 -82.5l255 -403h-278l-229 384q-31 53 -60.5 90.5t-60 61.5t-66.5 35t-81 11h-96v-582h-237zM361 1553 v137h543v-137h-543zM414 775h198q55 0 101.5 17t80.5 49t53 78t19 103q0 103 -65 161t-187 58h-200v-466zM537 -232q0 48 37.5 80.5t86.5 32.5q51 0 87 -32.5t36 -80.5t-36 -82t-87 -34t-87.5 34t-36.5 82z" />
<glyph unicode="&#x1e5d;" horiz-adv-x="758" d="M151 0v1024h232v-211h4q34 108 104.5 168.5t157.5 60.5q63 0 96 -19v-220q-42 33 -121 33q-103 0 -172 -93t-69 -253v-490h-232zM165 1204v137h543v-137h-543zM306 -232q0 48 37.5 80.5t86.5 32.5q51 0 87 -32.5t36 -80.5t-36 -82t-87 -34t-87.5 34t-36.5 82z" />
<glyph unicode="&#x1e5e;" horiz-adv-x="1275" d="M177 0v1434h472q101 0 186 -24t148 -72.5t98.5 -121t35.5 -169.5q0 -76 -22.5 -139.5t-64 -113t-100 -84.5t-131.5 -54v-4q39 -22 68 -48.5t55 -54.5t51.5 -63.5t56.5 -82.5l255 -403h-278l-229 384q-31 53 -60.5 90.5t-60 61.5t-66.5 35t-81 11h-96v-582h-237zM400 -113 h543v-137h-543v137zM414 775h198q55 0 101.5 17t80.5 49t53 78t19 103q0 103 -65 161t-187 58h-200v-466z" />
<glyph unicode="&#x1e5f;" horiz-adv-x="758" d="M151 0v1024h232v-211h4q34 108 104.5 168.5t157.5 60.5q63 0 96 -19v-220q-42 33 -121 33q-103 0 -172 -93t-69 -253v-490h-232zM188 -112h543v-137h-543v137z" />
<glyph unicode="&#x1e60;" horiz-adv-x="1115" d="M110 1064q0 101 45.5 175.5t120 123t169.5 72t194 23.5q225 0 328 -51v-235q-122 88 -314 88q-53 0 -105.5 -10t-94 -33t-67.5 -59t-26 -87q0 -48 20 -83t58.5 -64t94 -56.5t128.5 -59.5q75 -39 141.5 -82t117 -95t80 -115.5t29.5 -144.5q0 -109 -44 -184t-118.5 -122 t-171.5 -68t-205 -21q-36 0 -88.5 5.5t-107.5 16t-104 25.5t-79 34v245q33 -30 78.5 -54t96.5 -40.5t102 -25.5t94 -9q150 0 223.5 50t73.5 145q0 51 -24.5 88.5t-68.5 68.5t-103.5 59.5t-127.5 59.5q-73 39 -136 79t-109.5 88.5t-73 109.5t-26.5 143zM465 1668q0 48 36 81 t87 33t87 -32.5t36 -81.5q0 -48 -36 -82t-87 -34q-50 0 -86.5 33.5t-36.5 82.5z" />
<glyph unicode="&#x1e61;" horiz-adv-x="883" d="M87 32v215q130 -99 287 -99q210 0 210 124q0 35 -18 59.5t-48.5 43.5t-72 34t-92.5 34q-63 25 -113.5 53t-84 63.5t-50.5 80.5t-17 105q0 74 35 130.5t94 95t134 58t155 19.5q142 0 254 -43v-203q-108 74 -248 74q-44 0 -79.5 -9t-60.5 -25t-39 -38.5t-14 -49.5 q0 -33 14 -56t41.5 -40.5t66 -32t88.5 -31.5q66 -27 118.5 -55t89.5 -63.5t57 -82t20 -110.5q0 -78 -36 -136t-96 -96t-138.5 -56.5t-165.5 -18.5q-168 0 -291 56zM336 1319q0 48 36 81t87 33t87 -32.5t36 -81.5q0 -48 -36 -82t-87 -34q-50 0 -86.5 33.5t-36.5 82.5z" />
<glyph unicode="&#x1e62;" horiz-adv-x="1115" d="M110 1064q0 101 45.5 175.5t120 123t169.5 72t194 23.5q225 0 328 -51v-235q-122 88 -314 88q-53 0 -105.5 -10t-94 -33t-67.5 -59t-26 -87q0 -48 20 -83t58.5 -64t94 -56.5t128.5 -59.5q75 -39 141.5 -82t117 -95t80 -115.5t29.5 -144.5q0 -109 -44 -184t-118.5 -122 t-171.5 -68t-205 -21q-36 0 -88.5 5.5t-107.5 16t-104 25.5t-79 34v245q33 -30 78.5 -54t96.5 -40.5t102 -25.5t94 -9q150 0 223.5 50t73.5 145q0 51 -24.5 88.5t-68.5 68.5t-103.5 59.5t-127.5 59.5q-73 39 -136 79t-109.5 88.5t-73 109.5t-26.5 143zM417 -232 q0 48 37.5 80.5t86.5 32.5q51 0 87 -32.5t36 -80.5t-36 -82t-87 -34t-87.5 34t-36.5 82z" />
<glyph unicode="&#x1e63;" horiz-adv-x="883" d="M87 32v215q130 -99 287 -99q210 0 210 124q0 35 -18 59.5t-48.5 43.5t-72 34t-92.5 34q-63 25 -113.5 53t-84 63.5t-50.5 80.5t-17 105q0 74 35 130.5t94 95t134 58t155 19.5q142 0 254 -43v-203q-108 74 -248 74q-44 0 -79.5 -9t-60.5 -25t-39 -38.5t-14 -49.5 q0 -33 14 -56t41.5 -40.5t66 -32t88.5 -31.5q66 -27 118.5 -55t89.5 -63.5t57 -82t20 -110.5q0 -78 -36 -136t-96 -96t-138.5 -56.5t-165.5 -18.5q-168 0 -291 56zM336 -232q0 48 37.5 80.5t86.5 32.5q51 0 87 -32.5t36 -80.5t-36 -82t-87 -34t-87.5 34t-36.5 82z" />
<glyph unicode="&#x1e64;" horiz-adv-x="1115" d="M110 1064q0 101 45.5 175.5t120 123t169.5 72t194 23.5q225 0 328 -51v-235q-122 88 -314 88q-53 0 -105.5 -10t-94 -33t-67.5 -59t-26 -87q0 -48 20 -83t58.5 -64t94 -56.5t128.5 -59.5q75 -39 141.5 -82t117 -95t80 -115.5t29.5 -144.5q0 -109 -44 -184t-118.5 -122 t-171.5 -68t-205 -21q-36 0 -88.5 5.5t-107.5 16t-104 25.5t-79 34v245q33 -30 78.5 -54t96.5 -40.5t102 -25.5t94 -9q150 0 223.5 50t73.5 145q0 51 -24.5 88.5t-68.5 68.5t-103.5 59.5t-127.5 59.5q-73 39 -136 79t-109.5 88.5t-73 109.5t-26.5 143zM336 1801 q0 44 32.5 73.5t79.5 29.5q45 0 78 -29t33 -73q0 -43 -33 -74.5t-78 -31.5q-46 0 -79 30t-33 75zM529 1566l180 246h219l-241 -246h-158z" />
<glyph unicode="&#x1e65;" horiz-adv-x="883" d="M87 32v215q130 -99 287 -99q210 0 210 124q0 35 -18 59.5t-48.5 43.5t-72 34t-92.5 34q-63 25 -113.5 53t-84 63.5t-50.5 80.5t-17 105q0 74 35 130.5t94 95t134 58t155 19.5q142 0 254 -43v-203q-108 74 -248 74q-44 0 -79.5 -9t-60.5 -25t-39 -38.5t-14 -49.5 q0 -33 14 -56t41.5 -40.5t66 -32t88.5 -31.5q66 -27 118.5 -55t89.5 -63.5t57 -82t20 -110.5q0 -78 -36 -136t-96 -96t-138.5 -56.5t-165.5 -18.5q-168 0 -291 56zM208 1453q0 44 32.5 73.5t79.5 29.5q45 0 78 -29t33 -73q0 -43 -33 -74.5t-78 -31.5q-46 0 -79 30t-33 75z M401 1218l180 246h219l-241 -246h-158z" />
<glyph unicode="&#x1e66;" horiz-adv-x="1115" d="M110 1064q0 101 45.5 175.5t120 123t169.5 72t194 23.5q225 0 328 -51v-235q-122 88 -314 88q-53 0 -105.5 -10t-94 -33t-67.5 -59t-26 -87q0 -48 20 -83t58.5 -64t94 -56.5t128.5 -59.5q75 -39 141.5 -82t117 -95t80 -115.5t29.5 -144.5q0 -109 -44 -184t-118.5 -122 t-171.5 -68t-205 -21q-36 0 -88.5 5.5t-107.5 16t-104 25.5t-79 34v245q33 -30 78.5 -54t96.5 -40.5t102 -25.5t94 -9q150 0 223.5 50t73.5 145q0 51 -24.5 88.5t-68.5 68.5t-103.5 59.5t-127.5 59.5q-73 39 -136 79t-109.5 88.5t-73 109.5t-26.5 143zM276 1816h152 l159 -143l154 143h157l-221 -250h-181zM479 1917q0 41 31 69.5t76 28.5q44 0 74.5 -28t30.5 -70t-30.5 -71.5t-74.5 -29.5t-75.5 29t-31.5 72z" />
<glyph unicode="&#x1e67;" horiz-adv-x="883" d="M87 32v215q130 -99 287 -99q210 0 210 124q0 35 -18 59.5t-48.5 43.5t-72 34t-92.5 34q-63 25 -113.5 53t-84 63.5t-50.5 80.5t-17 105q0 74 35 130.5t94 95t134 58t155 19.5q142 0 254 -43v-203q-108 74 -248 74q-44 0 -79.5 -9t-60.5 -25t-39 -38.5t-14 -49.5 q0 -33 14 -56t41.5 -40.5t66 -32t88.5 -31.5q66 -27 118.5 -55t89.5 -63.5t57 -82t20 -110.5q0 -78 -36 -136t-96 -96t-138.5 -56.5t-165.5 -18.5q-168 0 -291 56zM135 1468h152l159 -143l154 143h157l-221 -250h-181zM338 1569q0 41 31 69.5t76 28.5q44 0 74.5 -28 t30.5 -70t-30.5 -71.5t-74.5 -29.5t-75.5 29t-31.5 72z" />
<glyph unicode="&#x1e68;" horiz-adv-x="1115" d="M110 1064q0 101 45.5 175.5t120 123t169.5 72t194 23.5q225 0 328 -51v-235q-122 88 -314 88q-53 0 -105.5 -10t-94 -33t-67.5 -59t-26 -87q0 -48 20 -83t58.5 -64t94 -56.5t128.5 -59.5q75 -39 141.5 -82t117 -95t80 -115.5t29.5 -144.5q0 -109 -44 -184t-118.5 -122 t-171.5 -68t-205 -21q-36 0 -88.5 5.5t-107.5 16t-104 25.5t-79 34v245q33 -30 78.5 -54t96.5 -40.5t102 -25.5t94 -9q150 0 223.5 50t73.5 145q0 51 -24.5 88.5t-68.5 68.5t-103.5 59.5t-127.5 59.5q-73 39 -136 79t-109.5 88.5t-73 109.5t-26.5 143zM453 -232 q0 48 37.5 80.5t86.5 32.5q51 0 87 -32.5t36 -80.5t-36 -82t-87 -34t-87.5 34t-36.5 82zM465 1668q0 48 36 81t87 33t87 -32.5t36 -81.5q0 -48 -36 -82t-87 -34q-50 0 -86.5 33.5t-36.5 82.5z" />
<glyph unicode="&#x1e69;" horiz-adv-x="883" d="M87 32v215q130 -99 287 -99q210 0 210 124q0 35 -18 59.5t-48.5 43.5t-72 34t-92.5 34q-63 25 -113.5 53t-84 63.5t-50.5 80.5t-17 105q0 74 35 130.5t94 95t134 58t155 19.5q142 0 254 -43v-203q-108 74 -248 74q-44 0 -79.5 -9t-60.5 -25t-39 -38.5t-14 -49.5 q0 -33 14 -56t41.5 -40.5t66 -32t88.5 -31.5q66 -27 118.5 -55t89.5 -63.5t57 -82t20 -110.5q0 -78 -36 -136t-96 -96t-138.5 -56.5t-165.5 -18.5q-168 0 -291 56zM339 1319q0 48 36 81t87 33t87 -32.5t36 -81.5q0 -48 -36 -82t-87 -34q-50 0 -86.5 33.5t-36.5 82.5z M343 -232q0 48 37.5 80.5t86.5 32.5q51 0 87 -32.5t36 -80.5t-36 -82t-87 -34t-87.5 34t-36.5 82z" />
<glyph unicode="&#x1e6a;" horiz-adv-x="1130" d="M36 1232v202h1061v-202h-412v-1232h-238v1232h-411zM442 1668q0 48 36 81t87 33t87 -32.5t36 -81.5q0 -48 -36 -82t-87 -34q-50 0 -86.5 33.5t-36.5 82.5z" />
<glyph unicode="&#x1e6b;" horiz-adv-x="740" d="M43 842v182h171v237l232 66v-303h245v-182h-245v-512q0 -91 33 -130t110 -39q59 0 102 34v-184q-68 -34 -179 -34q-298 0 -298 286v579h-171zM208 1527q0 48 36 81t87 33t87 -32.5t36 -81.5q0 -48 -36 -82t-87 -34q-50 0 -86.5 33.5t-36.5 82.5z" />
<glyph unicode="&#x1e6c;" horiz-adv-x="1130" d="M36 1232v202h1061v-202h-412v-1232h-238v1232h-411zM440 -232q0 48 37.5 80.5t86.5 32.5q51 0 87 -32.5t36 -80.5t-36 -82t-87 -34t-87.5 34t-36.5 82z" />
<glyph unicode="&#x1e6d;" horiz-adv-x="740" d="M43 842v182h171v237l232 66v-303h245v-182h-245v-512q0 -91 33 -130t110 -39q59 0 102 34v-184q-68 -34 -179 -34q-298 0 -298 286v579h-171zM259 -232q0 48 37.5 80.5t86.5 32.5q51 0 87 -32.5t36 -80.5t-36 -82t-87 -34t-87.5 34t-36.5 82z" />
<glyph unicode="&#x1e6e;" horiz-adv-x="1130" d="M36 1232v202h1061v-202h-412v-1232h-238v1232h-411zM296 -112h543v-137h-543v137z" />
<glyph unicode="&#x1e6f;" horiz-adv-x="740" d="M43 842v182h171v237l232 66v-303h245v-182h-245v-512q0 -91 33 -130t110 -39q59 0 102 34v-184q-68 -34 -179 -34q-298 0 -298 286v579h-171zM158 -113h543v-137h-543v137z" />
<glyph unicode="&#x1e70;" horiz-adv-x="1130" d="M36 1232v202h1061v-202h-412v-1232h-238v1232h-411zM250 -464l224 328h184l225 -328h-160l-161 211l-157 -211h-155z" />
<glyph unicode="&#x1e71;" horiz-adv-x="740" d="M43 842v182h171v237l232 66v-303h245v-182h-245v-512q0 -91 33 -130t110 -39q59 0 102 34v-184q-68 -34 -179 -34q-298 0 -298 286v579h-171zM76 -463l224 328h184l225 -328h-160l-161 211l-157 -211h-155z" />
<glyph unicode="&#x1e72;" horiz-adv-x="1440" d="M160 557v877h238v-828q0 -422 328 -422q316 0 316 407v843h238v-854q0 -604 -572 -604q-548 0 -548 581zM381 -214q0 49 35.5 82t86.5 33t88.5 -33.5t37.5 -81.5q0 -49 -36 -83t-86 -34q-52 0 -89 34.5t-37 82.5zM800 -214q0 49 35 82t85 33q53 0 89.5 -33.5t36.5 -81.5 q0 -49 -35 -83t-88 -34q-50 0 -86.5 33t-36.5 84z" />
<glyph unicode="&#x1e73;" d="M131 412v612h232v-588q0 -276 213 -276q103 0 169.5 76t66.5 199v589h232v-1024h-232v162h-4q-101 -186 -314 -186q-363 0 -363 436zM247 -213q0 49 35.5 82t86.5 33t88.5 -33.5t37.5 -81.5q0 -49 -36 -83t-86 -34q-52 0 -89 34.5t-37 82.5zM666 -213q0 49 35 82t85 33 q53 0 89.5 -33.5t36.5 -81.5q0 -49 -35 -83t-88 -34q-50 0 -86.5 33t-36.5 84z" />
<glyph unicode="&#x1e74;" horiz-adv-x="1440" d="M160 557v877h238v-828q0 -422 328 -422q316 0 316 407v843h238v-854q0 -604 -572 -604q-548 0 -548 581zM367 -361q0 119 51 190.5t143 71.5q68 0 157 -51q72 -44 125 -44q81 0 81 114h119q0 -116 -51.5 -189.5t-139.5 -73.5q-72 0 -165 48q-78 45 -121 45 q-84 0 -84 -111h-115z" />
<glyph unicode="&#x1e75;" d="M131 412v612h232v-588q0 -276 213 -276q103 0 169.5 76t66.5 199v589h232v-1024h-232v162h-4q-101 -186 -314 -186q-363 0 -363 436zM252 -361q0 119 51 190.5t143 71.5q68 0 157 -51q72 -44 125 -44q81 0 81 114h119q0 -116 -51.5 -189.5t-139.5 -73.5q-72 0 -165 48 q-78 45 -121 45q-84 0 -84 -111h-115z" />
<glyph unicode="&#x1e76;" horiz-adv-x="1440" d="M160 557v877h238v-828q0 -422 328 -422q316 0 316 407v843h238v-854q0 -604 -572 -604q-548 0 -548 581zM396 -459l224 328h184l225 -328h-160l-161 211l-157 -211h-155z" />
<glyph unicode="&#x1e77;" d="M131 412v612h232v-588q0 -276 213 -276q103 0 169.5 76t66.5 199v589h232v-1024h-232v162h-4q-101 -186 -314 -186q-363 0 -363 436zM270 -459l224 328h184l225 -328h-160l-161 211l-157 -211h-155z" />
<glyph unicode="&#x1e78;" horiz-adv-x="1440" d="M160 557v877h238v-828q0 -422 328 -422q316 0 316 407v843h238v-854q0 -604 -572 -604q-548 0 -548 581zM390 1548q0 223 196 223q63 0 144 -37t132 -37q80 0 80 87h119q0 -104 -50 -164t-142 -60q-67 0 -152 37q-87 36 -128 36q-82 0 -82 -85h-117zM567 1819l180 246 h219l-239 -246h-160z" />
<glyph unicode="&#x1e79;" d="M131 412v612h232v-588q0 -276 213 -276q103 0 169.5 76t66.5 199v589h232v-1024h-232v162h-4q-101 -186 -314 -186q-363 0 -363 436zM260 1202q0 223 196 223q63 0 144 -37t132 -37q80 0 80 87h119q0 -104 -50 -164t-142 -60q-67 0 -152 37q-87 36 -128 36q-82 0 -82 -85 h-117zM437 1473l180 246h219l-239 -246h-160z" />
<glyph unicode="&#x1e7a;" horiz-adv-x="1440" d="M160 557v877h238v-828q0 -422 328 -422q316 0 316 407v843h238v-854q0 -604 -572 -604q-548 0 -548 581zM414 1866q0 43 31.5 72.5t76.5 29.5t77.5 -30t32.5 -72q0 -44 -31 -73.5t-76 -29.5q-48 0 -79.5 29.5t-31.5 73.5zM449 1566v128h543v-128h-543zM806 1866 q0 44 31.5 73t75.5 29q45 0 77.5 -30t32.5 -72q0 -44 -31.5 -73.5t-77.5 -29.5q-45 0 -76.5 29t-31.5 74z" />
<glyph unicode="&#x1e7b;" d="M131 412v612h232v-588q0 -276 213 -276q103 0 169.5 76t66.5 199v589h232v-1024h-232v162h-4q-101 -186 -314 -186q-363 0 -363 436zM282 1518q0 43 31.5 72.5t76.5 29.5t77.5 -30t32.5 -72q0 -44 -31 -73.5t-76 -29.5q-48 0 -79.5 29.5t-31.5 73.5zM317 1218v128h543 v-128h-543zM674 1518q0 44 31.5 73t75.5 29q45 0 77.5 -30t32.5 -72q0 -44 -31.5 -73.5t-77.5 -29.5q-45 0 -76.5 29t-31.5 74z" />
<glyph unicode="&#x1e7c;" horiz-adv-x="1314" d="M14 1434h260l354 -1088q17 -52 26 -121h4q7 57 29 123l362 1086h252l-515 -1434h-266zM325 1543q0 119 51 190.5t143 71.5q68 0 157 -51q72 -44 125 -44q81 0 81 114h119q0 -116 -51.5 -189.5t-139.5 -73.5q-72 0 -165 48q-78 45 -121 45q-84 0 -84 -111h-115z" />
<glyph unicode="&#x1e7d;" horiz-adv-x="1039" d="M9 1024h252l227 -716q26 -79 32 -138h3q9 74 28 134l238 720h244l-396 -1024h-251zM184 1194q0 119 51 190.5t143 71.5q68 0 157 -51q72 -44 125 -44q81 0 81 114h119q0 -116 -51.5 -189.5t-139.5 -73.5q-72 0 -165 48q-78 45 -121 45q-84 0 -84 -111h-115z" />
<glyph unicode="&#x1e7e;" horiz-adv-x="1314" d="M14 1434h260l354 -1088q17 -52 26 -121h4q7 57 29 123l362 1086h252l-515 -1434h-266zM533 -232q0 48 37.5 80.5t86.5 32.5q51 0 87 -32.5t36 -80.5t-36 -82t-87 -34t-87.5 34t-36.5 82z" />
<glyph unicode="&#x1e7f;" horiz-adv-x="1039" d="M9 1024h252l227 -716q26 -79 32 -138h3q9 74 28 134l238 720h244l-396 -1024h-251zM391 -232q0 48 37.5 80.5t86.5 32.5q51 0 87 -32.5t36 -80.5t-36 -82t-87 -34t-87.5 34t-36.5 82z" />
<glyph unicode="&#x1e80;" horiz-adv-x="1978" d="M22 1434h261l260 -1050q16 -66 20 -138h5q4 51 28 138l294 1050h245l272 -1058q14 -54 21 -128h4q3 50 23 132l255 1054h246l-393 -1434h-269l-273 1003q-17 64 -21 140h-4q-5 -71 -24 -138l-274 -1005h-275zM752 1894h214l221 -328h-173z" />
<glyph unicode="&#x1e81;" horiz-adv-x="1549" d="M20 1024h240l186 -738q9 -33 12 -88h7q3 42 16 90l207 736h218l184 -741q9 -35 13 -88h7q2 37 15 88l182 741h221l-302 -1024h-243l-186 694q-11 40 -14 90h-4q-2 -34 -18 -88l-202 -696h-238zM546 1532h214l221 -328h-173z" />
<glyph unicode="&#x1e82;" horiz-adv-x="1978" d="M22 1434h261l260 -1050q16 -66 20 -138h5q4 51 28 138l294 1050h245l272 -1058q14 -54 21 -128h4q3 50 23 132l255 1054h246l-393 -1434h-269l-273 1003q-17 64 -21 140h-4q-5 -71 -24 -138l-274 -1005h-275zM823 1580l242 328h216l-286 -328h-172z" />
<glyph unicode="&#x1e83;" horiz-adv-x="1549" d="M20 1024h240l186 -738q9 -33 12 -88h7q3 42 16 90l207 736h218l184 -741q9 -35 13 -88h7q2 37 15 88l182 741h221l-302 -1024h-243l-186 694q-11 40 -14 90h-4q-2 -34 -18 -88l-202 -696h-238zM606 1218l242 328h216l-286 -328h-172z" />
<glyph unicode="&#x1e84;" horiz-adv-x="1978" d="M22 1434h261l260 -1050q16 -66 20 -138h5q4 51 28 138l294 1050h245l272 -1058q14 -54 21 -128h4q3 50 23 132l255 1054h246l-393 -1434h-269l-273 1003q-17 64 -21 140h-4q-5 -71 -24 -138l-274 -1005h-275zM665 1683q0 49 35.5 82t86.5 33t88.5 -33.5t37.5 -81.5 q0 -49 -36 -83t-86 -34q-52 0 -89 34.5t-37 82.5zM1084 1683q0 49 35 82t85 33q53 0 89.5 -33.5t36.5 -81.5q0 -49 -35 -83t-88 -34q-50 0 -86.5 33t-36.5 84z" />
<glyph unicode="&#x1e85;" horiz-adv-x="1549" d="M20 1024h240l186 -738q9 -33 12 -88h7q3 42 16 90l207 736h218l184 -741q9 -35 13 -88h7q2 37 15 88l182 741h221l-302 -1024h-243l-186 694q-11 40 -14 90h-4q-2 -34 -18 -88l-202 -696h-238zM456 1320q0 49 35.5 82t86.5 33t88.5 -33.5t37.5 -81.5q0 -49 -36 -83 t-86 -34q-52 0 -89 34.5t-37 82.5zM875 1320q0 49 35 82t85 33q53 0 89.5 -33.5t36.5 -81.5q0 -49 -35 -83t-88 -34q-50 0 -86.5 33t-36.5 84z" />
<glyph unicode="&#x1e86;" horiz-adv-x="1978" d="M22 1434h261l260 -1050q16 -66 20 -138h5q4 51 28 138l294 1050h245l272 -1058q14 -54 21 -128h4q3 50 23 132l255 1054h246l-393 -1434h-269l-273 1003q-17 64 -21 140h-4q-5 -71 -24 -138l-274 -1005h-275zM886 1668q0 48 36 81t87 33t87 -32.5t36 -81.5q0 -48 -36 -82 t-87 -34q-50 0 -86.5 33.5t-36.5 82.5z" />
<glyph unicode="&#x1e87;" horiz-adv-x="1549" d="M20 1024h240l186 -738q9 -33 12 -88h7q3 42 16 90l207 736h218l184 -741q9 -35 13 -88h7q2 37 15 88l182 741h221l-302 -1024h-243l-186 694q-11 40 -14 90h-4q-2 -34 -18 -88l-202 -696h-238zM671 1319q0 48 36 81t87 33t87 -32.5t36 -81.5q0 -48 -36 -82t-87 -34 q-50 0 -86.5 33.5t-36.5 82.5z" />
<glyph unicode="&#x1e88;" horiz-adv-x="1978" d="M22 1434h261l260 -1050q16 -66 20 -138h5q4 51 28 138l294 1050h245l272 -1058q14 -54 21 -128h4q3 50 23 132l255 1054h246l-393 -1434h-269l-273 1003q-17 64 -21 140h-4q-5 -71 -24 -138l-274 -1005h-275zM874 -232q0 48 37.5 80.5t86.5 32.5q51 0 87 -32.5t36 -80.5 t-36 -82t-87 -34t-87.5 34t-36.5 82z" />
<glyph unicode="&#x1e89;" horiz-adv-x="1549" d="M20 1024h240l186 -738q9 -33 12 -88h7q3 42 16 90l207 736h218l184 -741q9 -35 13 -88h7q2 37 15 88l182 741h221l-302 -1024h-243l-186 694q-11 40 -14 90h-4q-2 -34 -18 -88l-202 -696h-238zM651 -232q0 48 37.5 80.5t86.5 32.5q51 0 87 -32.5t36 -80.5t-36 -82 t-87 -34t-87.5 34t-36.5 82z" />
<glyph unicode="&#x1e8a;" horiz-adv-x="1268" d="M17 0l470 721l-432 713h291l259 -484q25 -48 45 -96h3q29 63 50 100l269 480h268l-442 -711l451 -723h-285l-294 526q-13 24 -29 68h-4q-9 -22 -30 -68l-303 -526h-287zM528 1668q0 48 36 81t87 33t87 -32.5t36 -81.5q0 -48 -36 -82t-87 -34q-50 0 -86.5 33.5t-36.5 82.5 z" />
<glyph unicode="&#x1e8b;" horiz-adv-x="1026" d="M17 0l348 502l-330 522h270l177 -333q20 -37 39 -76h3l229 409h254l-341 -518l337 -506h-269l-180 317q-17 29 -40 74h-4q-4 -9 -42 -74l-183 -317h-268zM406 1319q0 48 36 81t87 33t87 -32.5t36 -81.5q0 -48 -36 -82t-87 -34q-50 0 -86.5 33.5t-36.5 82.5z" />
<glyph unicode="&#x1e8c;" horiz-adv-x="1268" d="M17 0l470 721l-432 713h291l259 -484q25 -48 45 -96h3q29 63 50 100l269 480h268l-442 -711l451 -723h-285l-294 526q-13 24 -29 68h-4q-9 -22 -30 -68l-303 -526h-287zM322 1669q0 49 35.5 82t86.5 33t88.5 -33.5t37.5 -81.5q0 -49 -36 -83t-86 -34q-52 0 -89 34.5 t-37 82.5zM741 1669q0 49 35 82t85 33q53 0 89.5 -33.5t36.5 -81.5q0 -49 -35 -83t-88 -34q-50 0 -86.5 33t-36.5 84z" />
<glyph unicode="&#x1e8d;" horiz-adv-x="1026" d="M17 0l348 502l-330 522h270l177 -333q20 -37 39 -76h3l229 409h254l-341 -518l337 -506h-269l-180 317q-17 29 -40 74h-4q-4 -9 -42 -74l-183 -317h-268zM189 1320q0 49 35.5 82t86.5 33t88.5 -33.5t37.5 -81.5q0 -49 -36 -83t-86 -34q-52 0 -89 34.5t-37 82.5zM608 1320 q0 49 35 82t85 33q53 0 89.5 -33.5t36.5 -81.5q0 -49 -35 -83t-88 -34q-50 0 -86.5 33t-36.5 84z" />
<glyph unicode="&#x1e8e;" horiz-adv-x="1182" d="M10 1434h271l282 -615q5 -11 30 -83h3q9 32 33 83l295 615h252l-470 -913v-521h-238v516zM474 1668q0 48 36 81t87 33t87 -32.5t36 -81.5q0 -48 -36 -82t-87 -34q-50 0 -86.5 33.5t-36.5 82.5z" />
<glyph unicode="&#x1e8f;" horiz-adv-x="1041" d="M6 1024h257l244 -744q4 -14 18 -74h5q5 23 18 72l256 746h234l-462 -1188q-144 -318 -404 -318q-73 0 -122 13v193q55 -18 100 -18q130 0 194 128l69 168zM403 1319q0 48 36 81t87 33t87 -32.5t36 -81.5q0 -48 -36 -82t-87 -34q-50 0 -86.5 33.5t-36.5 82.5z" />
<glyph unicode="&#x1e90;" horiz-adv-x="1202" d="M36 0v109l789 1123h-728v202h1058v-104l-786 -1129h776v-201h-1109zM299 1553l224 328h184l225 -328h-160l-161 211l-157 -211h-155z" />
<glyph unicode="&#x1e91;" horiz-adv-x="951" d="M29 0v87l565 756h-511v181h824v-97l-553 -746h551v-181h-876zM181 1204l224 328h184l225 -328h-160l-161 211l-157 -211h-155z" />
<glyph unicode="&#x1e92;" horiz-adv-x="1202" d="M36 0v109l789 1123h-728v202h1058v-104l-786 -1129h776v-201h-1109zM496 -232q0 48 37.5 80.5t86.5 32.5q51 0 87 -32.5t36 -80.5t-36 -82t-87 -34t-87.5 34t-36.5 82z" />
<glyph unicode="&#x1e93;" horiz-adv-x="951" d="M29 0v87l565 756h-511v181h824v-97l-553 -746h551v-181h-876zM360 -232q0 48 37.5 80.5t86.5 32.5q51 0 87 -32.5t36 -80.5t-36 -82t-87 -34t-87.5 34t-36.5 82z" />
<glyph unicode="&#x1e94;" horiz-adv-x="1202" d="M36 0v109l789 1123h-728v202h1058v-104l-786 -1129h776v-201h-1109zM331 -112h543v-137h-543v137z" />
<glyph unicode="&#x1e95;" horiz-adv-x="951" d="M29 0v87l565 756h-511v181h824v-97l-553 -746h551v-181h-876zM209 -113h543v-137h-543v137z" />
<glyph unicode="&#x1e96;" horiz-adv-x="1192" d="M151 0v1516h233v-662h4q116 194 332 194q341 0 341 -417v-631h-232v560q0 304 -203 304q-102 0 -172 -88t-70 -225v-551h-233zM339 -104h543v-137h-543v137z" />
<glyph unicode="&#x1e97;" horiz-adv-x="740" d="M36 1528q0 49 35.5 82t86.5 33t88.5 -33.5t37.5 -81.5q0 -49 -36 -83t-86 -34q-52 0 -89 34.5t-37 82.5zM43 842v182h171v237l232 66v-303h245v-182h-245v-512q0 -91 33 -130t110 -39q59 0 102 34v-184q-68 -34 -179 -34q-298 0 -298 286v579h-171zM455 1528q0 49 35 82 t85 33q53 0 89.5 -33.5t36.5 -81.5q0 -49 -35 -83t-88 -34q-50 0 -86.5 33t-36.5 84z" />
<glyph unicode="&#x1e98;" horiz-adv-x="1549" d="M20 1024h240l186 -738q9 -33 12 -88h7q3 42 16 90l207 736h218l184 -741q9 -35 13 -88h7q2 37 15 88l182 741h221l-302 -1024h-243l-186 694q-11 40 -14 90h-4q-2 -34 -18 -88l-202 -696h-238zM567 1376q0 98 63 156t161 58q96 0 157.5 -58.5t61.5 -149.5 q0 -87 -65.5 -144.5t-160.5 -57.5q-94 0 -155.5 54t-61.5 142zM680 1386q0 -104 104 -104q48 0 79.5 29.5t31.5 74.5t-31.5 74.5t-79.5 29.5q-45 0 -74.5 -30t-29.5 -74z" />
<glyph unicode="&#x1e99;" horiz-adv-x="1041" d="M6 1024h257l244 -744q4 -14 18 -74h5q5 23 18 72l256 746h234l-462 -1188q-144 -318 -404 -318q-73 0 -122 13v193q55 -18 100 -18q130 0 194 128l69 168zM310 1376q0 98 63 156t161 58q96 0 157.5 -58.5t61.5 -149.5q0 -87 -65.5 -144.5t-160.5 -57.5q-94 0 -155.5 54 t-61.5 142zM423 1386q0 -104 104 -104q48 0 79.5 29.5t31.5 74.5t-31.5 74.5t-79.5 29.5q-45 0 -74.5 -30t-29.5 -74z" />
<glyph unicode="&#x1e9a;" horiz-adv-x="1069" d="M75 275q0 290 334 338l304 43q0 219 -208 219q-183 0 -330 -126v203q162 96 374 96q388 0 388 -382v-666h-225v160h-4q-106 -184 -311 -184q-151 0 -236.5 82t-85.5 217zM297 300q0 -65 46.5 -106.5t124.5 -41.5q106 0 175.5 74.5t69.5 187.5v89l-215 -30 q-100 -13 -150.5 -48.5t-50.5 -124.5zM463 1194v111q94 0 94 81q0 79 -94 79v112q86 0 142 -54.5t56 -136.5t-56 -137t-142 -55z" />
<glyph unicode="&#x1e9b;" horiz-adv-x="548" d="M42 1668q0 48 36 81t87 33t87 -32.5t36 -81.5q0 -48 -36 -82t-87 -34q-50 0 -86.5 33.5t-36.5 82.5zM151 0v1172q0 168 103 267q103 100 267 100q82 0 137 -19v-192q-54 26 -112 26q-162 0 -162 -194v-1160h-233z" />
<glyph unicode="&#x1e9c;" horiz-adv-x="706" d="M48 842v182h175v166q0 81 28.5 146t79 110t118 69t145.5 24q88 0 136 -19v-193q-47 27 -107 27q-168 0 -168 -191v-309l206 124v-210l-206 -126v-642h-232v501l-170 -103v215l170 102v127h-175z" />
<glyph unicode="&#x1e9d;" horiz-adv-x="706" d="M48 812v182h175v90h-175v182h182q12 64 45 114.5t81 86t108.5 54t129.5 18.5q88 0 136 -19v-193q-47 27 -107 27q-115 0 -151 -88h220v-182h-237v-1084h-232v812h-175z" />
<glyph unicode="&#x1e9e;" horiz-adv-x="1339" d="M170 0v1015q0 121 43 205t113.5 136.5t161.5 76.5t187 24q102 0 186 -23.5t144.5 -67t94 -103.5t33.5 -134q0 -134 -78 -221t-230 -128v-5q215 -35 324.5 -132t109.5 -264q0 -89 -29.5 -163t-85.5 -127.5t-137.5 -83t-185.5 -29.5q-55 0 -96.5 3t-73 8t-56 12t-46.5 14 v220q43 -24 104.5 -41.5t128.5 -17.5q48 0 89.5 14t72 42t48 69.5t17.5 96.5q0 56 -24.5 103t-77 83t-135 58.5t-198.5 28.5v173q152 16 231.5 74.5t79.5 169.5q0 88 -57.5 131t-160.5 43q-123 0 -190.5 -68t-67.5 -219v-973h-239z" />
<glyph unicode="&#x1e9f;" horiz-adv-x="1222" d="M83 457q0 152 98.5 277t288.5 212q-223 147 -223 309q0 67 29 119t82.5 87.5t129.5 54t171 18.5q171 0 354 -69v-235q-167 113 -336 113q-87 0 -139.5 -29t-52.5 -77q0 -21 11 -42t35 -44.5t61.5 -50t90.5 -58.5q117 -71 203 -133.5t142.5 -127.5t83.5 -137.5t27 -162.5 q0 -117 -38 -210.5t-108.5 -159t-170 -101t-223.5 -35.5q-114 0 -209 35t-163 98.5t-106 152t-38 196.5zM324 458q0 -68 20.5 -123t58 -93.5t91 -59.5t118.5 -21q67 0 121 22t92 62.5t58.5 97t20.5 126.5q0 53 -15.5 100t-48.5 91.5t-85 88.5t-126 92q-305 -134 -305 -383z " />
<glyph unicode="&#x1ea0;" horiz-adv-x="1375" d="M17 0l537 1434h268l533 -1434h-261l-129 365h-564l-124 -365h-260zM463 559h439l-199 572q-9 28 -19 90h-4q-9 -57 -20 -90zM577 -232q0 48 37.5 80.5t86.5 32.5q51 0 87 -32.5t36 -80.5t-36 -82t-87 -34t-87.5 34t-36.5 82z" />
<glyph unicode="&#x1ea1;" horiz-adv-x="1069" d="M75 275q0 290 334 338l304 43q0 219 -208 219q-183 0 -330 -126v203q162 96 374 96q388 0 388 -382v-666h-225v160h-4q-106 -184 -311 -184q-151 0 -236.5 82t-85.5 217zM297 300q0 -65 46.5 -106.5t124.5 -41.5q106 0 175.5 74.5t69.5 187.5v89l-215 -30 q-100 -13 -150.5 -48.5t-50.5 -124.5zM413 -232q0 48 37.5 80.5t86.5 32.5q51 0 87 -32.5t36 -80.5t-36 -82t-87 -34t-87.5 34t-36.5 82z" />
<glyph unicode="&#x1ea2;" horiz-adv-x="1375" d="M17 0l537 1434h268l533 -1434h-261l-129 365h-564l-124 -365h-260zM463 559h439l-199 572q-9 28 -19 90h-4q-9 -57 -20 -90zM565 1808v112q39 4 85 4q94 0 154.5 -42.5t60.5 -113.5q0 -60 -39.5 -101.5t-98.5 -48.5v-50h-122v119q115 0 115 71q0 59 -89 59q-20 0 -66 -9z " />
<glyph unicode="&#x1ea3;" horiz-adv-x="1069" d="M75 275q0 290 334 338l304 43q0 219 -208 219q-183 0 -330 -126v203q162 96 374 96q388 0 388 -382v-666h-225v160h-4q-106 -184 -311 -184q-151 0 -236.5 82t-85.5 217zM297 300q0 -65 46.5 -106.5t124.5 -41.5q106 0 175.5 74.5t69.5 187.5v89l-215 -30 q-100 -13 -150.5 -48.5t-50.5 -124.5zM420 1458v112q39 4 85 4q94 0 154.5 -41.5t60.5 -112.5q0 -61 -39.5 -103t-98.5 -49v-50h-122v119q115 0 115 72q0 58 -89 58q-20 0 -66 -9z" />
<glyph unicode="&#x1ea4;" horiz-adv-x="1375" d="M17 0l537 1434h268l533 -1434h-261l-129 365h-564l-124 -365h-260zM364 1567l221 250h180l221 -250h-157l-158 143l-155 -143h-152zM463 559h439l-199 572q-9 28 -19 90h-4q-9 -57 -20 -90zM909 1719l180 246h219l-241 -246h-158z" />
<glyph unicode="&#x1ea5;" horiz-adv-x="1069" d="M75 275q0 290 334 338l304 43q0 219 -208 219q-183 0 -330 -126v203q162 96 374 96q388 0 388 -382v-666h-225v160h-4q-106 -184 -311 -184q-151 0 -236.5 82t-85.5 217zM234 1218l221 250h180l221 -250h-157l-158 143l-155 -143h-152zM297 300q0 -65 46.5 -106.5 t124.5 -41.5q106 0 175.5 74.5t69.5 187.5v89l-215 -30q-100 -13 -150.5 -48.5t-50.5 -124.5zM779 1370l180 246h219l-241 -246h-158z" />
<glyph unicode="&#x1ea6;" horiz-adv-x="1375" d="M17 0l537 1434h268l533 -1434h-261l-129 365h-564l-124 -365h-260zM47 1965h219l180 -246h-158zM368 1567l221 250h181l221 -250h-152l-155 143l-159 -143h-157zM463 559h439l-199 572q-9 28 -19 90h-4q-9 -57 -20 -90z" />
<glyph unicode="&#x1ea7;" horiz-adv-x="1069" d="M-84 1616h219l180 -246h-158zM75 275q0 290 334 338l304 43q0 219 -208 219q-183 0 -330 -126v203q162 96 374 96q388 0 388 -382v-666h-225v160h-4q-106 -184 -311 -184q-151 0 -236.5 82t-85.5 217zM237 1218l221 250h181l221 -250h-152l-155 143l-159 -143h-157z M297 300q0 -65 46.5 -106.5t124.5 -41.5q106 0 175.5 74.5t69.5 187.5v89l-215 -30q-100 -13 -150.5 -48.5t-50.5 -124.5z" />
<glyph unicode="&#x1ea8;" horiz-adv-x="1375" d="M17 0l537 1434h268l533 -1434h-261l-129 365h-564l-124 -365h-260zM369 1568l220 250h182l219 -250h-156l-158 143l-155 -143h-152zM463 559h439l-199 572q-9 28 -19 90h-4q-9 -57 -20 -90zM902 1960v111q43 5 96 5q91 0 147.5 -42t56.5 -114q0 -60 -39 -102t-98 -49v-49 h-123v119q116 0 116 71q0 59 -90 59q-20 0 -66 -9z" />
<glyph unicode="&#x1ea9;" horiz-adv-x="1069" d="M75 275q0 290 334 338l304 43q0 219 -208 219q-183 0 -330 -126v203q162 96 374 96q388 0 388 -382v-666h-225v160h-4q-106 -184 -311 -184q-151 0 -236.5 82t-85.5 217zM225 1218l220 250h182l219 -250h-156l-158 143l-155 -143h-152zM297 300q0 -65 46.5 -106.5 t124.5 -41.5q106 0 175.5 74.5t69.5 187.5v89l-215 -30q-100 -13 -150.5 -48.5t-50.5 -124.5zM758 1610v112q43 4 96 4q91 0 147.5 -42t56.5 -114q0 -60 -39 -102t-98 -49v-49h-123v119q116 0 116 70q0 60 -90 60q-20 0 -66 -9z" />
<glyph unicode="&#x1eaa;" horiz-adv-x="1375" d="M17 0l537 1434h268l533 -1434h-261l-129 365h-564l-124 -365h-260zM341 1875q0 222 196 222q63 0 144 -37t132 -37q80 0 80 88h118q0 -103 -50 -163t-142 -60q-67 0 -152 37q-87 36 -128 36q-82 0 -82 -86h-116zM366 1565l220 250h181l221 -250h-157l-159 143l-154 -143 h-152zM463 559h439l-199 572q-9 28 -19 90h-4q-9 -57 -20 -90z" />
<glyph unicode="&#x1eab;" horiz-adv-x="1069" d="M75 275q0 290 334 338l304 43q0 219 -208 219q-183 0 -330 -126v203q162 96 374 96q388 0 388 -382v-666h-225v160h-4q-106 -184 -311 -184q-151 0 -236.5 82t-85.5 217zM215 1528q0 222 196 222q63 0 144 -37t132 -37q80 0 80 88h118q0 -103 -50 -163t-142 -60 q-67 0 -152 37q-87 36 -128 36q-82 0 -82 -86h-116zM240 1218l220 250h181l221 -250h-157l-159 143l-154 -143h-152zM297 300q0 -65 46.5 -106.5t124.5 -41.5q106 0 175.5 74.5t69.5 187.5v89l-215 -30q-100 -13 -150.5 -48.5t-50.5 -124.5z" />
<glyph unicode="&#x1eac;" horiz-adv-x="1375" d="M17 0l537 1434h268l533 -1434h-261l-129 365h-564l-124 -365h-260zM365 1553l224 328h184l225 -328h-160l-161 211l-157 -211h-155zM463 559h439l-199 572q-9 28 -19 90h-4q-9 -57 -20 -90zM558 -232q0 48 37.5 80.5t86.5 32.5q51 0 87 -32.5t36 -80.5t-36 -82t-87 -34 t-87.5 34t-36.5 82z" />
<glyph unicode="&#x1ead;" horiz-adv-x="1069" d="M75 275q0 290 334 338l304 43q0 219 -208 219q-183 0 -330 -126v203q162 96 374 96q388 0 388 -382v-666h-225v160h-4q-106 -184 -311 -184q-151 0 -236.5 82t-85.5 217zM226 1204l224 328h184l225 -328h-160l-161 211l-157 -211h-155zM297 300q0 -65 46.5 -106.5 t124.5 -41.5q106 0 175.5 74.5t69.5 187.5v89l-215 -30q-100 -13 -150.5 -48.5t-50.5 -124.5zM410 -232q0 48 37.5 80.5t86.5 32.5q51 0 87 -32.5t36 -80.5t-36 -82t-87 -34t-87.5 34t-36.5 82z" />
<glyph unicode="&#x1eae;" horiz-adv-x="1375" d="M17 0l537 1434h268l533 -1434h-261l-129 365h-564l-124 -365h-260zM394 1817h128q11 -119 166 -119q147 0 164 119h129q-11 -113 -94.5 -182.5t-202.5 -69.5q-126 0 -205.5 69t-84.5 183zM463 559h439l-199 572q-9 28 -19 90h-4q-9 -57 -20 -90zM583 1797l181 246h218 l-241 -246h-158z" />
<glyph unicode="&#x1eaf;" horiz-adv-x="1069" d="M75 275q0 290 334 338l304 43q0 219 -208 219q-183 0 -330 -126v203q162 96 374 96q388 0 388 -382v-666h-225v160h-4q-106 -184 -311 -184q-151 0 -236.5 82t-85.5 217zM269 1470h128q11 -119 166 -119q147 0 164 119h129q-11 -113 -94.5 -182.5t-202.5 -69.5 q-126 0 -205.5 69t-84.5 183zM297 300q0 -65 46.5 -106.5t124.5 -41.5q106 0 175.5 74.5t69.5 187.5v89l-215 -30q-100 -13 -150.5 -48.5t-50.5 -124.5zM458 1450l181 246h218l-241 -246h-158z" />
<glyph unicode="&#x1eb0;" horiz-adv-x="1375" d="M17 0l537 1434h268l533 -1434h-261l-129 365h-564l-124 -365h-260zM383 2044h219l180 -246h-159zM386 1818h129q15 -119 166 -119q154 0 163 119h128q-4 -114 -85.5 -183t-206.5 -69q-118 0 -200.5 70t-93.5 182zM463 559h439l-199 572q-9 28 -19 90h-4q-9 -57 -20 -90z " />
<glyph unicode="&#x1eb1;" horiz-adv-x="1069" d="M75 275q0 290 334 338l304 43q0 219 -208 219q-183 0 -330 -126v203q162 96 374 96q388 0 388 -382v-666h-225v160h-4q-106 -184 -311 -184q-151 0 -236.5 82t-85.5 217zM273 1696h219l180 -246h-159zM276 1470h129q15 -119 166 -119q154 0 163 119h128 q-4 -114 -85.5 -183t-206.5 -69q-118 0 -200.5 70t-93.5 182zM297 300q0 -65 46.5 -106.5t124.5 -41.5q106 0 175.5 74.5t69.5 187.5v89l-215 -30q-100 -13 -150.5 -48.5t-50.5 -124.5z" />
<glyph unicode="&#x1eb2;" horiz-adv-x="1375" d="M17 0l537 1434h268l533 -1434h-261l-129 365h-564l-124 -365h-260zM396 1817h128q11 -119 166 -119q147 0 164 119h129q-11 -113 -94.5 -182.5t-202.5 -69.5q-126 0 -205.5 69t-84.5 183zM463 559h439l-199 572q-9 28 -19 90h-4q-9 -57 -20 -90zM578 2033v111q39 4 84 4 q97 0 156.5 -42t59.5 -114q0 -60 -41 -101.5t-97 -48.5v-49h-122v118q115 0 115 71q0 60 -88 60q-20 0 -67 -9z" />
<glyph unicode="&#x1eb3;" horiz-adv-x="1069" d="M75 275q0 290 334 338l304 43q0 219 -208 219q-183 0 -330 -126v203q162 96 374 96q388 0 388 -382v-666h-225v160h-4q-106 -184 -311 -184q-151 0 -236.5 82t-85.5 217zM269 1470h128q11 -119 166 -119q147 0 164 119h129q-11 -113 -94.5 -182.5t-202.5 -69.5 q-126 0 -205.5 69t-84.5 183zM297 300q0 -65 46.5 -106.5t124.5 -41.5q106 0 175.5 74.5t69.5 187.5v89l-215 -30q-100 -13 -150.5 -48.5t-50.5 -124.5zM451 1686v111q39 4 84 4q97 0 156.5 -42t59.5 -114q0 -60 -41 -101.5t-97 -48.5v-49h-122v118q115 0 115 71 q0 60 -88 60q-20 0 -67 -9z" />
<glyph unicode="&#x1eb4;" horiz-adv-x="1375" d="M17 0l537 1434h268l533 -1434h-261l-129 365h-564l-124 -365h-260zM355 1875q0 222 196 222q63 0 144 -37t132 -37q80 0 80 88h118q0 -103 -50 -163t-142 -60q-67 0 -152 37q-87 36 -128 36q-82 0 -82 -86h-116zM397 1817h129q10 -119 166 -119q146 0 163 119h129 q-11 -113 -94 -182.5t-201 -69.5q-127 0 -207 69t-85 183zM463 559h439l-199 572q-9 28 -19 90h-4q-9 -57 -20 -90z" />
<glyph unicode="&#x1eb5;" horiz-adv-x="1069" d="M75 275q0 290 334 338l304 43q0 219 -208 219q-183 0 -330 -126v203q162 96 374 96q388 0 388 -382v-666h-225v160h-4q-106 -184 -311 -184q-151 0 -236.5 82t-85.5 217zM221 1528q0 222 196 222q63 0 144 -37t132 -37q80 0 80 88h118q0 -103 -50 -163t-142 -60 q-67 0 -152 37q-87 36 -128 36q-82 0 -82 -86h-116zM263 1470h129q10 -119 166 -119q146 0 163 119h129q-11 -113 -94 -182.5t-201 -69.5q-127 0 -207 69t-85 183zM297 300q0 -65 46.5 -106.5t124.5 -41.5q106 0 175.5 74.5t69.5 187.5v89l-215 -30q-100 -13 -150.5 -48.5 t-50.5 -124.5z" />
<glyph unicode="&#x1eb6;" horiz-adv-x="1375" d="M17 0l537 1434h268l533 -1434h-261l-129 365h-564l-124 -365h-260zM383 1828h136q12 -146 166 -146q65 0 111 39.5t56 106.5h137q-11 -124 -97.5 -200t-209.5 -76q-130 0 -211.5 75.5t-87.5 200.5zM463 559h439l-199 572q-9 28 -19 90h-4q-9 -57 -20 -90zM558 -232 q0 48 37.5 80.5t86.5 32.5q51 0 87 -32.5t36 -80.5t-36 -82t-87 -34t-87.5 34t-36.5 82z" />
<glyph unicode="&#x1eb7;" horiz-adv-x="1069" d="M75 275q0 290 334 338l304 43q0 219 -208 219q-183 0 -330 -126v203q162 96 374 96q388 0 388 -382v-666h-225v160h-4q-106 -184 -311 -184q-151 0 -236.5 82t-85.5 217zM249 1480h136q12 -146 166 -146q65 0 111 39.5t56 106.5h137q-11 -124 -97.5 -200t-209.5 -76 q-130 0 -211.5 75.5t-87.5 200.5zM297 300q0 -65 46.5 -106.5t124.5 -41.5q106 0 175.5 74.5t69.5 187.5v89l-215 -30q-100 -13 -150.5 -48.5t-50.5 -124.5zM410 -232q0 48 37.5 80.5t86.5 32.5q51 0 87 -32.5t36 -80.5t-36 -82t-87 -34t-87.5 34t-36.5 82z" />
<glyph unicode="&#x1eb8;" horiz-adv-x="1060" d="M177 0v1434h773v-202h-535v-406h493v-201h-493v-424h567v-201h-805zM470 -232q0 48 37.5 80.5t86.5 32.5q51 0 87 -32.5t36 -80.5t-36 -82t-87 -34t-87.5 34t-36.5 82z" />
<glyph unicode="&#x1eb9;" horiz-adv-x="1088" d="M85 508q0 239 141.5 389.5t351.5 150.5t325 -135t115 -375v-89h-698q4 -142 87.5 -219t229.5 -77q164 0 301 98v-187q-140 -88 -370 -88q-226 0 -354.5 139.5t-128.5 392.5zM320 613h474q-1 125 -59 194.5t-160 69.5q-100 0 -169.5 -73t-85.5 -191zM458 -232 q0 48 37.5 80.5t86.5 32.5q51 0 87 -32.5t36 -80.5t-36 -82t-87 -34t-87.5 34t-36.5 82z" />
<glyph unicode="&#x1eba;" horiz-adv-x="1060" d="M177 0v1434h773v-202h-535v-406h493v-201h-493v-424h567v-201h-805zM447 1806v112q39 4 85 4q94 0 154.5 -42.5t60.5 -113.5q0 -60 -39.5 -101.5t-98.5 -48.5v-50h-122v119q115 0 115 71q0 59 -89 59q-20 0 -66 -9z" />
<glyph unicode="&#x1ebb;" horiz-adv-x="1088" d="M85 508q0 239 141.5 389.5t351.5 150.5t325 -135t115 -375v-89h-698q4 -142 87.5 -219t229.5 -77q164 0 301 98v-187q-140 -88 -370 -88q-226 0 -354.5 139.5t-128.5 392.5zM320 613h474q-1 125 -59 194.5t-160 69.5q-100 0 -169.5 -73t-85.5 -191zM450 1458v112 q39 4 85 4q94 0 154.5 -41.5t60.5 -112.5q0 -61 -39.5 -103t-98.5 -49v-50h-122v119q115 0 115 72q0 58 -89 58q-20 0 -66 -9z" />
<glyph unicode="&#x1ebc;" horiz-adv-x="1060" d="M177 0v1434h773v-202h-535v-406h493v-201h-493v-424h567v-201h-805zM241 1542q0 119 51 190.5t143 71.5q68 0 157 -51q72 -44 125 -44q81 0 81 114h119q0 -116 -51.5 -189.5t-139.5 -73.5q-72 0 -165 48q-78 45 -121 45q-84 0 -84 -111h-115z" />
<glyph unicode="&#x1ebd;" horiz-adv-x="1088" d="M85 508q0 239 141.5 389.5t351.5 150.5t325 -135t115 -375v-89h-698q4 -142 87.5 -219t229.5 -77q164 0 301 98v-187q-140 -88 -370 -88q-226 0 -354.5 139.5t-128.5 392.5zM227 1194q0 119 51 190.5t143 71.5q68 0 157 -51q72 -44 125 -44q81 0 81 114h119 q0 -116 -51.5 -189.5t-139.5 -73.5q-72 0 -165 48q-78 45 -121 45q-84 0 -84 -111h-115zM320 613h474q-1 125 -59 194.5t-160 69.5q-100 0 -169.5 -73t-85.5 -191z" />
<glyph unicode="&#x1ebe;" horiz-adv-x="1060" d="M177 0v1434h773v-202h-535v-406h493v-201h-493v-424h567v-201h-805zM262 1565l221 250h180l221 -250h-157l-158 143l-155 -143h-152zM807 1717l180 246h219l-241 -246h-158z" />
<glyph unicode="&#x1ebf;" horiz-adv-x="1088" d="M85 508q0 239 141.5 389.5t351.5 150.5t325 -135t115 -375v-89h-698q4 -142 87.5 -219t229.5 -77q164 0 301 98v-187q-140 -88 -370 -88q-226 0 -354.5 139.5t-128.5 392.5zM248 1218l221 250h180l221 -250h-157l-158 143l-155 -143h-152zM320 613h474q-1 125 -59 194.5 t-160 69.5q-100 0 -169.5 -73t-85.5 -191zM793 1370l180 246h219l-241 -246h-158z" />
<glyph unicode="&#x1ec0;" horiz-adv-x="1060" d="M-46 1965h219l180 -246h-158zM177 0v1434h773v-202h-535v-406h493v-201h-493v-424h567v-201h-805zM275 1567l221 250h181l221 -250h-152l-155 143l-159 -143h-157z" />
<glyph unicode="&#x1ec1;" horiz-adv-x="1088" d="M-44 1616h219l180 -246h-158zM85 508q0 239 141.5 389.5t351.5 150.5t325 -135t115 -375v-89h-698q4 -142 87.5 -219t229.5 -77q164 0 301 98v-187q-140 -88 -370 -88q-226 0 -354.5 139.5t-128.5 392.5zM277 1218l221 250h181l221 -250h-152l-155 143l-159 -143h-157z M320 613h474q-1 125 -59 194.5t-160 69.5q-100 0 -169.5 -73t-85.5 -191z" />
<glyph unicode="&#x1ec2;" horiz-adv-x="1060" d="M177 0v1434h773v-202h-535v-406h493v-201h-493v-424h567v-201h-805zM269 1566l220 250h182l219 -250h-156l-158 143l-155 -143h-152zM802 1958v111q43 5 96 5q91 0 147.5 -42t56.5 -114q0 -60 -39 -102t-98 -49v-49h-123v119q116 0 116 71q0 59 -90 59q-20 0 -66 -9z" />
<glyph unicode="&#x1ec3;" horiz-adv-x="1088" d="M85 508q0 239 141.5 389.5t351.5 150.5t325 -135t115 -375v-89h-698q4 -142 87.5 -219t229.5 -77q164 0 301 98v-187q-140 -88 -370 -88q-226 0 -354.5 139.5t-128.5 392.5zM280 1218l220 250h182l219 -250h-156l-158 143l-155 -143h-152zM320 613h474q-1 125 -59 194.5 t-160 69.5q-100 0 -169.5 -73t-85.5 -191zM813 1610v112q43 4 96 4q91 0 147.5 -42t56.5 -114q0 -60 -39 -102t-98 -49v-49h-123v119q116 0 116 70q0 60 -90 60q-20 0 -66 -9z" />
<glyph unicode="&#x1ec4;" horiz-adv-x="1060" d="M177 0v1434h773v-202h-535v-406h493v-201h-493v-424h567v-201h-805zM238 1876q0 222 196 222q63 0 144 -37t132 -37q80 0 80 88h118q0 -103 -50 -163t-142 -60q-67 0 -152 37q-87 36 -128 36q-82 0 -82 -86h-116zM263 1566l220 250h181l221 -250h-157l-159 143l-154 -143 h-152z" />
<glyph unicode="&#x1ec5;" horiz-adv-x="1088" d="M85 508q0 239 141.5 389.5t351.5 150.5t325 -135t115 -375v-89h-698q4 -142 87.5 -219t229.5 -77q164 0 301 98v-187q-140 -88 -370 -88q-226 0 -354.5 139.5t-128.5 392.5zM234 1528q0 222 196 222q63 0 144 -37t132 -37q80 0 80 88h118q0 -103 -50 -163t-142 -60 q-67 0 -152 37q-87 36 -128 36q-82 0 -82 -86h-116zM259 1218l220 250h181l221 -250h-157l-159 143l-154 -143h-152zM320 613h474q-1 125 -59 194.5t-160 69.5q-100 0 -169.5 -73t-85.5 -191z" />
<glyph unicode="&#x1ec6;" horiz-adv-x="1060" d="M177 0v1434h773v-202h-535v-406h493v-201h-493v-424h567v-201h-805zM256 1553l224 328h184l225 -328h-160l-161 211l-157 -211h-155zM465 -232q0 48 37.5 80.5t86.5 32.5q51 0 87 -32.5t36 -80.5t-36 -82t-87 -34t-87.5 34t-36.5 82z" />
<glyph unicode="&#x1ec7;" horiz-adv-x="1088" d="M85 508q0 239 141.5 389.5t351.5 150.5t325 -135t115 -375v-89h-698q4 -142 87.5 -219t229.5 -77q164 0 301 98v-187q-140 -88 -370 -88q-226 0 -354.5 139.5t-128.5 392.5zM252 1204l224 328h184l225 -328h-160l-161 211l-157 -211h-155zM320 613h474q-1 125 -59 194.5 t-160 69.5q-100 0 -169.5 -73t-85.5 -191zM466 -232q0 48 37.5 80.5t86.5 32.5q51 0 87 -32.5t36 -80.5t-36 -82t-87 -34t-87.5 34t-36.5 82z" />
<glyph unicode="&#x1ec8;" horiz-adv-x="597" d="M161 1806v112q39 4 85 4q94 0 154.5 -42.5t60.5 -113.5q0 -60 -39.5 -101.5t-98.5 -48.5v-50h-122v119q115 0 115 71q0 59 -89 59q-20 0 -66 -9zM176 0v1434h245v-1434h-245z" />
<glyph unicode="&#x1ec9;" horiz-adv-x="535" d="M144 1458v112q39 4 85 4q94 0 154.5 -41.5t60.5 -112.5q0 -61 -39.5 -103t-98.5 -49v-50h-122v119q115 0 115 72q0 58 -89 58q-20 0 -66 -9zM151 0v1024h233v-1024h-233z" />
<glyph unicode="&#x1eca;" horiz-adv-x="597" d="M176 0v1434h245v-1434h-245zM176 -232q0 48 37.5 80.5t86.5 32.5q51 0 87 -32.5t36 -80.5t-36 -82t-87 -34t-87.5 34t-36.5 82z" />
<glyph unicode="&#x1ecb;" horiz-adv-x="535" d="M130 1370q0 57 40.5 95t97.5 38q59 0 100 -38t41 -95q0 -54 -41 -92.5t-100 -38.5q-57 0 -97.5 37t-40.5 94zM145 -232q0 48 37.5 80.5t86.5 32.5q51 0 87 -32.5t36 -80.5t-36 -82t-87 -34t-87.5 34t-36.5 82zM151 0v1024h232v-1024h-232z" />
<glyph unicode="&#x1ecc;" horiz-adv-x="1548" d="M85 700q0 346 190 552t516 206q302 0 486.5 -200t184.5 -523q0 -351 -189 -555t-505 -204q-310 0 -496.5 201t-186.5 523zM335 715q0 -239 120 -385t314 -146q206 0 325 139t119 389q0 257 -115.5 397t-318.5 140q-197 0 -320.5 -147t-123.5 -387zM645 -232 q0 48 37.5 80.5t86.5 32.5q51 0 87 -32.5t36 -80.5t-36 -82t-87 -34t-87.5 34t-36.5 82z" />
<glyph unicode="&#x1ecd;" horiz-adv-x="1223" d="M85 500q0 258 147.5 403t397.5 145q240 0 374 -141t134 -391q0 -245 -144.5 -392.5t-388.5 -147.5q-237 0 -378.5 143.5t-141.5 380.5zM322 506q0 -161 80 -253.5t214 -92.5q137 0 210.5 91t73.5 259q0 169 -73.5 261t-210.5 92q-136 0 -215 -95t-79 -262zM487 -232 q0 48 37.5 80.5t86.5 32.5q51 0 87 -32.5t36 -80.5t-36 -82t-87 -34t-87.5 34t-36.5 82z" />
<glyph unicode="&#x1ece;" horiz-adv-x="1548" d="M85 700q0 346 190 552t516 206q302 0 486.5 -200t184.5 -523q0 -351 -189 -555t-505 -204q-310 0 -496.5 201t-186.5 523zM335 715q0 -239 120 -385t314 -146q206 0 325 139t119 389q0 257 -115.5 397t-318.5 140q-197 0 -320.5 -147t-123.5 -387zM663 1806v112 q39 4 85 4q94 0 154.5 -42.5t60.5 -113.5q0 -60 -39.5 -101.5t-98.5 -48.5v-50h-122v119q115 0 115 71q0 59 -89 59q-20 0 -66 -9z" />
<glyph unicode="&#x1ecf;" horiz-adv-x="1223" d="M85 500q0 258 147.5 403t397.5 145q240 0 374 -141t134 -391q0 -245 -144.5 -392.5t-388.5 -147.5q-237 0 -378.5 143.5t-141.5 380.5zM322 506q0 -161 80 -253.5t214 -92.5q137 0 210.5 91t73.5 259q0 169 -73.5 261t-210.5 92q-136 0 -215 -95t-79 -262zM492 1458v112 q39 4 85 4q94 0 154.5 -41.5t60.5 -112.5q0 -61 -39.5 -103t-98.5 -49v-50h-122v119q115 0 115 72q0 58 -89 58q-20 0 -66 -9z" />
<glyph unicode="&#x1ed0;" horiz-adv-x="1548" d="M85 700q0 346 190 552t516 206q302 0 486.5 -200t184.5 -523q0 -351 -189 -555t-505 -204q-310 0 -496.5 201t-186.5 523zM335 715q0 -239 120 -385t314 -146q206 0 325 139t119 389q0 257 -115.5 397t-318.5 140q-197 0 -320.5 -147t-123.5 -387zM474 1567l221 250h180 l221 -250h-157l-158 143l-155 -143h-152zM1019 1719l180 246h219l-241 -246h-158z" />
<glyph unicode="&#x1ed1;" horiz-adv-x="1223" d="M85 500q0 258 147.5 403t397.5 145q240 0 374 -141t134 -391q0 -245 -144.5 -392.5t-388.5 -147.5q-237 0 -378.5 143.5t-141.5 380.5zM315 1218l221 250h180l221 -250h-157l-158 143l-155 -143h-152zM322 506q0 -161 80 -253.5t214 -92.5q137 0 210.5 91t73.5 259 q0 169 -73.5 261t-210.5 92q-136 0 -215 -95t-79 -262zM860 1370l180 246h219l-241 -246h-158z" />
<glyph unicode="&#x1ed2;" horiz-adv-x="1548" d="M85 700q0 346 190 552t516 206q302 0 486.5 -200t184.5 -523q0 -351 -189 -555t-505 -204q-310 0 -496.5 201t-186.5 523zM149 1965h219l180 -246h-158zM335 715q0 -239 120 -385t314 -146q206 0 325 139t119 389q0 257 -115.5 397t-318.5 140q-197 0 -320.5 -147 t-123.5 -387zM470 1567l221 250h181l221 -250h-152l-155 143l-159 -143h-157z" />
<glyph unicode="&#x1ed3;" horiz-adv-x="1223" d="M-12 1616h219l180 -246h-158zM85 500q0 258 147.5 403t397.5 145q240 0 374 -141t134 -391q0 -245 -144.5 -392.5t-388.5 -147.5q-237 0 -378.5 143.5t-141.5 380.5zM309 1218l221 250h181l221 -250h-152l-155 143l-159 -143h-157zM322 506q0 -161 80 -253.5t214 -92.5 q137 0 210.5 91t73.5 259q0 169 -73.5 261t-210.5 92q-136 0 -215 -95t-79 -262z" />
<glyph unicode="&#x1ed4;" horiz-adv-x="1548" d="M85 700q0 346 190 552t516 206q302 0 486.5 -200t184.5 -523q0 -351 -189 -555t-505 -204q-310 0 -496.5 201t-186.5 523zM335 715q0 -239 120 -385t314 -146q206 0 325 139t119 389q0 257 -115.5 397t-318.5 140q-197 0 -320.5 -147t-123.5 -387zM466 1566l220 250h182 l219 -250h-156l-158 143l-155 -143h-152zM999 1958v111q43 5 96 5q91 0 147.5 -42t56.5 -114q0 -60 -39 -102t-98 -49v-49h-123v119q116 0 116 71q0 59 -90 59q-20 0 -66 -9z" />
<glyph unicode="&#x1ed5;" horiz-adv-x="1223" d="M85 500q0 258 147.5 403t397.5 145q240 0 374 -141t134 -391q0 -245 -144.5 -392.5t-388.5 -147.5q-237 0 -378.5 143.5t-141.5 380.5zM312 1218l220 250h182l219 -250h-156l-158 143l-155 -143h-152zM322 506q0 -161 80 -253.5t214 -92.5q137 0 210.5 91t73.5 259 q0 169 -73.5 261t-210.5 92q-136 0 -215 -95t-79 -262zM845 1610v112q43 4 96 4q91 0 147.5 -42t56.5 -114q0 -60 -39 -102t-98 -49v-49h-123v119q116 0 116 70q0 60 -90 60q-20 0 -66 -9z" />
<glyph unicode="&#x1ed6;" horiz-adv-x="1548" d="M85 700q0 346 190 552t516 206q302 0 486.5 -200t184.5 -523q0 -351 -189 -555t-505 -204q-310 0 -496.5 201t-186.5 523zM335 715q0 -239 120 -385t314 -146q206 0 325 139t119 389q0 257 -115.5 397t-318.5 140q-197 0 -320.5 -147t-123.5 -387zM452 1876 q0 222 196 222q63 0 144 -37t132 -37q80 0 80 88h118q0 -103 -50 -163t-142 -60q-67 0 -152 37q-87 36 -128 36q-82 0 -82 -86h-116zM477 1566l220 250h181l221 -250h-157l-159 143l-154 -143h-152z" />
<glyph unicode="&#x1ed7;" horiz-adv-x="1223" d="M85 500q0 258 147.5 403t397.5 145q240 0 374 -141t134 -391q0 -245 -144.5 -392.5t-388.5 -147.5q-237 0 -378.5 143.5t-141.5 380.5zM283 1528q0 222 196 222q63 0 144 -37t132 -37q80 0 80 88h118q0 -103 -50 -163t-142 -60q-67 0 -152 37q-87 36 -128 36 q-82 0 -82 -86h-116zM308 1218l220 250h181l221 -250h-157l-159 143l-154 -143h-152zM322 506q0 -161 80 -253.5t214 -92.5q137 0 210.5 91t73.5 259q0 169 -73.5 261t-210.5 92q-136 0 -215 -95t-79 -262z" />
<glyph unicode="&#x1ed8;" horiz-adv-x="1548" d="M85 700q0 346 190 552t516 206q302 0 486.5 -200t184.5 -523q0 -351 -189 -555t-505 -204q-310 0 -496.5 201t-186.5 523zM335 715q0 -239 120 -385t314 -146q206 0 325 139t119 389q0 257 -115.5 397t-318.5 140q-197 0 -320.5 -147t-123.5 -387zM476 1553l224 328h184 l225 -328h-160l-161 211l-157 -211h-155zM646 -232q0 48 37.5 80.5t86.5 32.5q51 0 87 -32.5t36 -80.5t-36 -82t-87 -34t-87.5 34t-36.5 82z" />
<glyph unicode="&#x1ed9;" horiz-adv-x="1223" d="M85 500q0 258 147.5 403t397.5 145q240 0 374 -141t134 -391q0 -245 -144.5 -392.5t-388.5 -147.5q-237 0 -378.5 143.5t-141.5 380.5zM312 1204l224 328h184l225 -328h-160l-161 211l-157 -211h-155zM322 506q0 -161 80 -253.5t214 -92.5q137 0 210.5 91t73.5 259 q0 169 -73.5 261t-210.5 92q-136 0 -215 -95t-79 -262zM482 -232q0 48 37.5 80.5t86.5 32.5q51 0 87 -32.5t36 -80.5t-36 -82t-87 -34t-87.5 34t-36.5 82z" />
<glyph unicode="&#x1eda;" horiz-adv-x="1575" d="M85 700q0 346 189.5 552t515.5 206q213 0 371 -102q48 -10 80 -10q204 0 204 131q0 67 -20 121h161q21 -54 21 -134q0 -110 -70 -178.5t-192 -68.5h-34q152 -192 152 -482q0 -351 -189.5 -555t-507.5 -204q-309 0 -495 201t-186 523zM334 715q0 -239 120 -385t312 -146 q208 0 327.5 139t119.5 389q0 257 -116 397t-319 140q-198 0 -321 -147.5t-123 -386.5zM645 1567l242 328h216l-286 -328h-172z" />
<glyph unicode="&#x1edb;" horiz-adv-x="1253" d="M85 500q0 258 146 403t394 145q45 0 126 -14q57 -10 160 -10q66 0 110.5 38t44.5 92q0 68 -19 122h160q21 -55 21 -134q0 -198 -223 -239q133 -139 133 -387q0 -245 -144.5 -392.5t-387.5 -147.5q-237 0 -379 143.5t-142 380.5zM323 506q0 -161 80 -253.5t214 -92.5 q137 0 210.5 91t73.5 259q0 169 -73.5 261t-211.5 92q-135 0 -214 -95t-79 -262zM469 1218l242 328h216l-286 -328h-172z" />
<glyph unicode="&#x1edc;" horiz-adv-x="1575" d="M85 700q0 346 189.5 552t515.5 206q213 0 371 -102q48 -10 80 -10q204 0 204 131q0 67 -20 121h161q21 -54 21 -134q0 -110 -70 -178.5t-192 -68.5h-34q152 -192 152 -482q0 -351 -189.5 -555t-507.5 -204q-309 0 -495 201t-186 523zM334 715q0 -239 120 -385t312 -146 q208 0 327.5 139t119.5 389q0 257 -116 397t-319 140q-198 0 -321 -147.5t-123 -386.5zM548 1881h214l221 -328h-173z" />
<glyph unicode="&#x1edd;" horiz-adv-x="1253" d="M85 500q0 258 146 403t394 145q45 0 126 -14q57 -10 160 -10q66 0 110.5 38t44.5 92q0 68 -19 122h160q21 -55 21 -134q0 -198 -223 -239q133 -139 133 -387q0 -245 -144.5 -392.5t-387.5 -147.5q-237 0 -379 143.5t-142 380.5zM323 506q0 -161 80 -253.5t214 -92.5 q137 0 210.5 91t73.5 259q0 169 -73.5 261t-211.5 92q-135 0 -214 -95t-79 -262zM359 1532h214l221 -328h-173z" />
<glyph unicode="&#x1ede;" horiz-adv-x="1575" d="M85 700q0 346 189.5 552t515.5 206q213 0 371 -102q48 -10 80 -10q204 0 204 131q0 67 -20 121h161q21 -54 21 -134q0 -110 -70 -178.5t-192 -68.5h-34q152 -192 152 -482q0 -351 -189.5 -555t-507.5 -204q-309 0 -495 201t-186 523zM334 715q0 -239 120 -385t312 -146 q208 0 327.5 139t119.5 389q0 257 -116 397t-319 140q-198 0 -321 -147.5t-123 -386.5zM689 1806v112q39 4 85 4q94 0 154.5 -42.5t60.5 -113.5q0 -60 -39.5 -101.5t-98.5 -48.5v-50h-122v119q115 0 115 71q0 59 -89 59q-20 0 -66 -9z" />
<glyph unicode="&#x1edf;" horiz-adv-x="1253" d="M85 500q0 258 146 403t394 145q45 0 126 -14q57 -10 160 -10q66 0 110.5 38t44.5 92q0 68 -19 122h160q21 -55 21 -134q0 -198 -223 -239q133 -139 133 -387q0 -245 -144.5 -392.5t-387.5 -147.5q-237 0 -379 143.5t-142 380.5zM323 506q0 -161 80 -253.5t214 -92.5 q137 0 210.5 91t73.5 259q0 169 -73.5 261t-211.5 92q-135 0 -214 -95t-79 -262zM494 1458v112q39 4 85 4q94 0 154.5 -41.5t60.5 -112.5q0 -61 -39.5 -103t-98.5 -49v-50h-122v119q115 0 115 72q0 58 -89 58q-20 0 -66 -9z" />
<glyph unicode="&#x1ee0;" horiz-adv-x="1575" d="M85 700q0 346 189.5 552t515.5 206q213 0 371 -102q48 -10 80 -10q204 0 204 131q0 67 -20 121h161q21 -54 21 -134q0 -110 -70 -178.5t-192 -68.5h-34q152 -192 152 -482q0 -351 -189.5 -555t-507.5 -204q-309 0 -495 201t-186 523zM334 715q0 -239 120 -385t312 -146 q208 0 327.5 139t119.5 389q0 257 -116 397t-319 140q-198 0 -321 -147.5t-123 -386.5zM453 1542q0 119 51 190.5t143 71.5q68 0 157 -51q72 -44 125 -44q81 0 81 114h119q0 -116 -51.5 -189.5t-139.5 -73.5q-72 0 -165 48q-78 45 -121 45q-84 0 -84 -111h-115z" />
<glyph unicode="&#x1ee1;" horiz-adv-x="1253" d="M85 500q0 258 146 403t394 145q45 0 126 -14q57 -10 160 -10q66 0 110.5 38t44.5 92q0 68 -19 122h160q21 -55 21 -134q0 -198 -223 -239q133 -139 133 -387q0 -245 -144.5 -392.5t-387.5 -147.5q-237 0 -379 143.5t-142 380.5zM278 1194q0 119 51 190.5t143 71.5 q68 0 157 -51q72 -44 125 -44q81 0 81 114h119q0 -116 -51.5 -189.5t-139.5 -73.5q-72 0 -165 48q-78 45 -121 45q-84 0 -84 -111h-115zM323 506q0 -161 80 -253.5t214 -92.5q137 0 210.5 91t73.5 259q0 169 -73.5 261t-211.5 92q-135 0 -214 -95t-79 -262z" />
<glyph unicode="&#x1ee2;" horiz-adv-x="1575" d="M85 700q0 346 189.5 552t515.5 206q213 0 371 -102q48 -10 80 -10q204 0 204 131q0 67 -20 121h161q21 -54 21 -134q0 -110 -70 -178.5t-192 -68.5h-34q152 -192 152 -482q0 -351 -189.5 -555t-507.5 -204q-309 0 -495 201t-186 523zM334 715q0 -239 120 -385t312 -146 q208 0 327.5 139t119.5 389q0 257 -116 397t-319 140q-198 0 -321 -147.5t-123 -386.5zM644 -232q0 48 37.5 80.5t86.5 32.5q51 0 87 -32.5t36 -80.5t-36 -82t-87 -34t-87.5 34t-36.5 82z" />
<glyph unicode="&#x1ee3;" horiz-adv-x="1253" d="M85 500q0 258 146 403t394 145q45 0 126 -14q57 -10 160 -10q66 0 110.5 38t44.5 92q0 68 -19 122h160q21 -55 21 -134q0 -198 -223 -239q133 -139 133 -387q0 -245 -144.5 -392.5t-387.5 -147.5q-237 0 -379 143.5t-142 380.5zM323 506q0 -161 80 -253.5t214 -92.5 q137 0 210.5 91t73.5 259q0 169 -73.5 261t-211.5 92q-135 0 -214 -95t-79 -262zM483 -232q0 48 37.5 80.5t86.5 32.5q51 0 87 -32.5t36 -80.5t-36 -82t-87 -34t-87.5 34t-36.5 82z" />
<glyph unicode="&#x1ee4;" horiz-adv-x="1440" d="M160 557v877h238v-828q0 -422 328 -422q316 0 316 407v843h238v-854q0 -604 -572 -604q-548 0 -548 581zM588 -232q0 48 37.5 80.5t86.5 32.5q51 0 87 -32.5t36 -80.5t-36 -82t-87 -34t-87.5 34t-36.5 82z" />
<glyph unicode="&#x1ee5;" d="M131 412v612h232v-588q0 -276 213 -276q103 0 169.5 76t66.5 199v589h232v-1024h-232v162h-4q-101 -186 -314 -186q-363 0 -363 436zM447 -232q0 48 37.5 80.5t86.5 32.5q51 0 87 -32.5t36 -80.5t-36 -82t-87 -34t-87.5 34t-36.5 82z" />
<glyph unicode="&#x1ee6;" horiz-adv-x="1440" d="M160 557v877h238v-828q0 -422 328 -422q316 0 316 407v843h238v-854q0 -604 -572 -604q-548 0 -548 581zM585 1806v112q39 4 85 4q94 0 154.5 -42.5t60.5 -113.5q0 -60 -39.5 -101.5t-98.5 -48.5v-50h-122v119q115 0 115 71q0 59 -89 59q-20 0 -66 -9z" />
<glyph unicode="&#x1ee7;" d="M131 412v612h232v-588q0 -276 213 -276q103 0 169.5 76t66.5 199v589h232v-1024h-232v162h-4q-101 -186 -314 -186q-363 0 -363 436zM462 1458v112q39 4 85 4q94 0 154.5 -41.5t60.5 -112.5q0 -61 -39.5 -103t-98.5 -49v-50h-122v119q115 0 115 72q0 58 -89 58 q-20 0 -66 -9z" />
<glyph unicode="&#x1ee8;" horiz-adv-x="1519" d="M159 579v855h238v-851q0 -399 327 -399q318 0 318 385v865h216q60 0 100 35.5t40 84.5q0 74 -19 132h161q18 -56 18 -136q0 -218 -278 -250v-702q0 -622 -574 -622q-547 0 -547 603zM568 1567l242 328h216l-286 -328h-172z" />
<glyph unicode="&#x1ee9;" horiz-adv-x="1278" d="M131 413v611h232v-588q0 -276 214 -276q103 0 169 76t66 199v589h197q56 0 94 39t38 94q0 66 -20 119h157q18 -53 18 -128q0 -212 -252 -250v-898h-232v159h-4q-100 -181 -318 -181q-359 0 -359 435zM449 1218l242 328h216l-286 -328h-172z" />
<glyph unicode="&#x1eea;" horiz-adv-x="1519" d="M159 579v855h238v-851q0 -399 327 -399q318 0 318 385v865h216q60 0 100 35.5t40 84.5q0 74 -19 132h161q18 -56 18 -136q0 -218 -278 -250v-702q0 -622 -574 -622q-547 0 -547 603zM465 1881h214l221 -328h-173z" />
<glyph unicode="&#x1eeb;" horiz-adv-x="1278" d="M131 413v611h232v-588q0 -276 214 -276q103 0 169 76t66 199v589h197q56 0 94 39t38 94q0 66 -20 119h157q18 -53 18 -128q0 -212 -252 -250v-898h-232v159h-4q-100 -181 -318 -181q-359 0 -359 435zM288 1532h214l221 -328h-173z" />
<glyph unicode="&#x1eec;" horiz-adv-x="1519" d="M159 579v855h238v-851q0 -399 327 -399q318 0 318 385v865h216q60 0 100 35.5t40 84.5q0 74 -19 132h161q18 -56 18 -136q0 -218 -278 -250v-702q0 -622 -574 -622q-547 0 -547 603zM594 1806v112q39 4 85 4q94 0 154.5 -42.5t60.5 -113.5q0 -60 -39.5 -101.5 t-98.5 -48.5v-50h-122v119q115 0 115 71q0 59 -89 59q-20 0 -66 -9z" />
<glyph unicode="&#x1eed;" horiz-adv-x="1278" d="M131 413v611h232v-588q0 -276 214 -276q103 0 169 76t66 199v589h197q56 0 94 39t38 94q0 66 -20 119h157q18 -53 18 -128q0 -212 -252 -250v-898h-232v159h-4q-100 -181 -318 -181q-359 0 -359 435zM464 1458v112q39 4 85 4q94 0 154.5 -41.5t60.5 -112.5 q0 -61 -39.5 -103t-98.5 -49v-50h-122v119q115 0 115 72q0 58 -89 58q-20 0 -66 -9z" />
<glyph unicode="&#x1eee;" horiz-adv-x="1519" d="M159 579v855h238v-851q0 -399 327 -399q318 0 318 385v865h216q60 0 100 35.5t40 84.5q0 74 -19 132h161q18 -56 18 -136q0 -218 -278 -250v-702q0 -622 -574 -622q-547 0 -547 603zM391 1542q0 119 51 190.5t143 71.5q68 0 157 -51q72 -44 125 -44q81 0 81 114h119 q0 -116 -51.5 -189.5t-139.5 -73.5q-72 0 -165 48q-78 45 -121 45q-84 0 -84 -111h-115z" />
<glyph unicode="&#x1eef;" horiz-adv-x="1278" d="M131 413v611h232v-588q0 -276 214 -276q103 0 169 76t66 199v589h197q56 0 94 39t38 94q0 66 -20 119h157q18 -53 18 -128q0 -212 -252 -250v-898h-232v159h-4q-100 -181 -318 -181q-359 0 -359 435zM256 1194q0 119 51 190.5t143 71.5q68 0 157 -51q72 -44 125 -44 q81 0 81 114h119q0 -116 -51.5 -189.5t-139.5 -73.5q-72 0 -165 48q-78 45 -121 45q-84 0 -84 -111h-115z" />
<glyph unicode="&#x1ef0;" horiz-adv-x="1519" d="M159 579v855h238v-851q0 -399 327 -399q318 0 318 385v865h216q60 0 100 35.5t40 84.5q0 74 -19 132h161q18 -56 18 -136q0 -218 -278 -250v-702q0 -622 -574 -622q-547 0 -547 603zM587 -232q0 48 37.5 80.5t86.5 32.5q51 0 87 -32.5t36 -80.5t-36 -82t-87 -34t-87.5 34 t-36.5 82z" />
</font>
</defs>
</svg>
