<?xml version="1.0" standalone="no"?>
<!DOCTYPE svg PUBLIC "-//W3C//DTD SVG 1.1//EN" "http://www.w3.org/Graphics/SVG/1.1/DTD/svg11.dtd" >
<svg xmlns="http://www.w3.org/2000/svg">
<metadata></metadata>
<defs>
<font id="weblysleek_uisemibold_italic" horiz-adv-x="1162" >
<font-face units-per-em="2048" ascent="1638" descent="-410" />
<missing-glyph horiz-adv-x="563" />
<glyph horiz-adv-x="0" />
<glyph unicode="&#xd;" horiz-adv-x="149" />
<glyph unicode=" "  horiz-adv-x="563" />
<glyph unicode="&#x09;" horiz-adv-x="563" />
<glyph unicode="&#xa0;" horiz-adv-x="563" />
<glyph unicode="!" horiz-adv-x="681" d="M114 112q0 61 43.5 102t108.5 41q59 0 101 -38.5t42 -95.5q0 -59 -42.5 -100.5t-107.5 -41.5q-61 0 -103 38.5t-42 94.5zM219 424l186 1010h252l-242 -1010h-196z" />
<glyph unicode="&#x22;" horiz-adv-x="888" d="M288 1443h200l-20 -446h-160zM627 1443h200l-20 -446h-160z" />
<glyph unicode="#" horiz-adv-x="1190" d="M77 490l29 144h227l57 272h-240l28 144h241l79 379h165l-77 -379h239l81 379h163l-78 -379h222l-31 -143h-222l-59 -273h243l-35 -144h-237l-83 -371h-164l80 371h-239l-79 -371h-163l78 371h-225zM494 634h243l59 273h-241z" />
<glyph unicode="$" horiz-adv-x="1142" d="M68 72l41 207q58 -37 153 -69t172 -40l98 456q-124 74 -184 132.5t-91 127t-31 152.5q0 117 58 209t167.5 145t254.5 55l36 171h125l-38 -176q138 -11 266 -65l-40 -199q-125 67 -263 84l-101 -474q299 -168 299 -382q0 -123 -54.5 -216t-159 -146t-255.5 -58l-43 -195 h-123l41 198q-84 5 -181 31.5t-147 51.5zM446 1053q0 -56 28.5 -102.5t104.5 -99.5l88 411q-104 -6 -162.5 -65t-58.5 -144zM560 169q96 5 153.5 63.5t57.5 147.5q0 50 -28.5 92.5t-98.5 91.5z" />
<glyph unicode="%" horiz-adv-x="1732" d="M170 1014q0 115 54 221t144 162.5t203 56.5q139 0 219 -80t80 -219q0 -122 -54.5 -228t-143.5 -161.5t-196 -55.5q-99 0 -166.5 38.5t-103.5 107.5t-36 158zM186 0l1234 1434h197l-1234 -1434h-197zM345 1013q0 -74 37 -117.5t100 -43.5q59 0 108.5 41.5t77 110 t27.5 146.5t-35.5 120t-94.5 42q-62 0 -111.5 -41.5t-79 -112.5t-29.5 -145zM938 282q0 117 55.5 224.5t145.5 162.5t200 55q141 0 220 -81t79 -219q0 -115 -50.5 -219t-140 -164.5t-202.5 -60.5q-99 0 -167 39t-104 108.5t-36 154.5zM1113 281q0 -72 36 -115.5t101 -43.5 q90 0 151.5 88t61.5 210q0 74 -34 117.5t-96 43.5t-112 -42t-79 -114t-29 -144z" />
<glyph unicode="&#x26;" horiz-adv-x="1480" d="M74 341q0 152 97 261.5t321 197.5q-97 146 -97 287q0 103 52 188t149 134t223 49q111 0 194.5 -39t128 -108.5t44.5 -156.5q0 -131 -95 -226.5t-300 -176.5l236 -326q122 143 166 336h216q-65 -278 -275 -492l198 -269h-274l-95 130q-206 -156 -469 -156 q-132 0 -227 47.5t-144 131.5t-49 188zM310 367q0 -94 61.5 -152.5t162.5 -58.5q177 0 328 119l-79 108l-198 277q-145 -60 -210 -129t-65 -164zM617 1096q0 -103 77 -210q159 67 215 123t56 131q0 65 -42 104.5t-114 39.5q-85 0 -138.5 -52t-53.5 -136z" />
<glyph unicode="'" horiz-adv-x="531" d="M283 1443h199l-22 -445h-157z" />
<glyph unicode="(" horiz-adv-x="690" d="M141 310q0 314 129 592.5t398 531.5h216q-278 -283 -405.5 -560.5t-127.5 -575.5q0 -162 39.5 -323t111.5 -282h-193q-79 125 -123.5 290.5t-44.5 326.5z" />
<glyph unicode=")" horiz-adv-x="690" d="M-192 -307q277 279 406 556.5t129 577.5q0 163 -40 323t-112 284h193q76 -119 122.5 -285.5t46.5 -332.5q0 -315 -129.5 -592t-398.5 -531h-217z" />
<glyph unicode="*" horiz-adv-x="894" d="M168 1078l57 164l256 -104l-33 296h186l-33 -296l257 104l57 -164l-274 -46l195 -227l-148 -101l-147 259l-147 -259l-146 101l195 227z" />
<glyph unicode="+" horiz-adv-x="1426" d="M257 507v169h395v394h167v-394h394v-169h-394v-394h-167v394h-395z" />
<glyph unicode="," horiz-adv-x="500" d="M-94 -259l217 498h230l-253 -498h-194z" />
<glyph unicode="-" horiz-adv-x="823" d="M125 471l38 175h547l-38 -175h-547z" />
<glyph unicode="." horiz-adv-x="500" d="M18 109q0 60 43.5 101t108.5 41q61 0 102 -39t41 -96q0 -61 -43.5 -100.5t-106.5 -39.5q-62 0 -103.5 38t-41.5 95z" />
<glyph unicode="/" horiz-adv-x="860" d="M-195 -238l1047 1672h242l-1046 -1672h-243z" />
<glyph unicode="0" horiz-adv-x="1170" d="M97 458q0 265 89 503.5t239.5 367.5t340.5 129q178 0 280.5 -116.5t102.5 -322.5q0 -288 -88.5 -538.5t-235.5 -378t-333 -127.5q-182 0 -288.5 128.5t-106.5 354.5zM336 439q0 -127 46 -199.5t130 -72.5q113 0 196.5 118.5t143 331t59.5 401.5q0 122 -42.5 186 t-120.5 64q-107 0 -194.5 -106t-152.5 -325t-65 -398z" />
<glyph unicode="1" horiz-adv-x="843" d="M151 1115l45 207l586 136l-308 -1458h-242l255 1196z" />
<glyph unicode="2" horiz-adv-x="1040" d="M-64 0l19 89q23 113 78.5 203.5t146.5 173.5t280 202q132 83 204 146t103 123t31 141q0 85 -54 134.5t-156 49.5q-99 0 -196 -40t-178 -103l52 236q156 103 385 103q183 0 287 -90.5t104 -246.5q0 -117 -39 -208t-120.5 -171t-281.5 -205q-200 -123 -273 -193.5 t-87 -139.5h635l-43 -204h-897z" />
<glyph unicode="3" horiz-adv-x="988" d="M-59 57l46 206q65 -42 156.5 -69.5t170.5 -27.5q157 0 243 66t86 188q0 102 -77 162t-239 60h-116l41 191h135q172 0 269.5 66.5t97.5 186.5q0 87 -59 134.5t-161 47.5q-158 0 -314 -78l45 210q161 58 335 58q182 0 289 -89.5t107 -241.5q0 -156 -101.5 -259t-277.5 -132 v-4q127 -22 197 -106t70 -205q0 -132 -67 -233.5t-195.5 -157t-306.5 -55.5q-97 0 -195.5 21t-178.5 61z" />
<glyph unicode="4" horiz-adv-x="1154" d="M3 315l41 195q234 212 459.5 462.5t374.5 461.5h237l-197 -926h213l-41 -193h-213l-67 -315h-225l67 315h-649zM282 508h411l127 594q-230 -293 -538 -594z" />
<glyph unicode="5" horiz-adv-x="1020" d="M-7 38l46 208q51 -34 138.5 -57t162.5 -23q111 0 190 39.5t121 106.5t42 150q0 110 -67 168.5t-220 58.5q-136 0 -248 -14l187 759h730l-43 -203h-524l-90 -354l86 4q204 0 317.5 -102t113.5 -284q0 -147 -76.5 -270.5t-211 -186.5t-311.5 -63q-92 0 -191.5 17t-151.5 46 z" />
<glyph unicode="6" horiz-adv-x="1115" d="M104 497q0 267 102 490.5t281 347t397 123.5q152 0 261 -43l-44 -207q-97 60 -235 60q-122 0 -224 -67t-176 -190.5t-108 -279.5h4q53 80 142.5 129t191.5 49q164 0 258.5 -103t94.5 -289q0 -149 -67 -277t-180.5 -196t-255.5 -68q-208 0 -325 137t-117 384zM342 429 q0 -121 58 -190.5t157 -69.5q111 0 184 94t73 233q0 109 -55.5 167.5t-153.5 58.5q-116 0 -189.5 -85.5t-73.5 -207.5z" />
<glyph unicode="7" horiz-adv-x="1027" d="M85 0q97 270 291 590.5t456 640.5h-689l44 203h956l-29 -139q-323 -416 -500.5 -722t-270.5 -573h-258z" />
<glyph unicode="8" horiz-adv-x="1142" d="M42 356q0 155 97 267.5t268 153.5q-155 97 -155 274q0 114 59.5 207.5t170.5 146.5t260 53q185 0 293 -91.5t108 -243.5q0 -137 -80 -232.5t-222 -137.5q93 -41 147 -121t54 -189q0 -128 -70 -236t-196 -169t-283 -61q-214 0 -332.5 100.5t-118.5 278.5zM290 370 q0 -96 58.5 -151.5t161.5 -55.5q121 0 202.5 82.5t81.5 207.5q0 94 -57.5 151t-150.5 57q-128 0 -212 -83t-84 -208zM486 1029q0 -81 48 -129.5t129 -48.5q96 0 169 71t73 172q0 81 -48.5 129.5t-133.5 48.5q-105 0 -171 -69t-66 -174z" />
<glyph unicode="9" horiz-adv-x="1124" d="M54 19l34 206q99 -58 233 -58q197 0 334 142t186 388h-4q-124 -180 -325 -180q-113 0 -195.5 51.5t-127 144t-44.5 204.5q0 151 70 281t184.5 195.5t259.5 65.5q204 0 320 -139.5t116 -378.5q0 -190 -54.5 -367.5t-155 -312t-243.5 -210t-332 -75.5q-87 0 -154 13 t-102 30zM384 940q0 -110 55.5 -174t149.5 -64q80 0 141 38.5t95.5 108t34.5 152.5q0 116 -58.5 190t-152.5 74q-78 0 -138.5 -44t-93.5 -119t-33 -162z" />
<glyph unicode=":" horiz-adv-x="500" d="M18 109q0 60 43.5 101t108.5 41q61 0 102 -39t41 -96q0 -61 -43.5 -100.5t-106.5 -39.5q-62 0 -103.5 38t-41.5 95zM184 899q0 62 43.5 102t107.5 40q60 0 102 -38.5t42 -95.5q0 -61 -43.5 -101t-108.5 -40q-63 0 -103 39t-40 94z" />
<glyph unicode=";" horiz-adv-x="500" d="M-120 -259l216 498h231l-254 -498h-193zM184 899q0 62 43.5 102t107.5 40q60 0 102 -38.5t42 -95.5q0 -61 -43.5 -101t-108.5 -40q-63 0 -103 39t-40 94z" />
<glyph unicode="&#x3c;" horiz-adv-x="1426" d="M233 531v112l897 463v-194l-654 -321v-4l654 -291v-192z" />
<glyph unicode="=" horiz-adv-x="1426" d="M257 291v169h956v-169h-956zM257 721v170h956v-170h-956z" />
<glyph unicode="&#x3e;" horiz-adv-x="1426" d="M318 104v193l656 289v5l-656 320v195l897 -463v-110z" />
<glyph unicode="?" horiz-adv-x="900" d="M170 112q0 61 42 102t109 41q60 0 102 -39.5t42 -94.5q0 -60 -43.5 -101t-108.5 -41q-60 0 -101.5 38.5t-41.5 94.5zM235 1179l43 223q144 64 306 64q171 0 272.5 -88.5t101.5 -238.5q0 -120 -66.5 -219.5t-210.5 -194.5q-102 -67 -147.5 -134t-64.5 -173h-206 q32 158 83.5 245t154.5 157q124 86 172.5 148.5t48.5 132.5q0 76 -54.5 122t-139.5 46q-156 0 -293 -90z" />
<glyph unicode="@" horiz-adv-x="1960" d="M179 544q0 261 122.5 470t337.5 324t475 115q224 0 388.5 -81t252 -229.5t87.5 -338.5q0 -171 -64 -315.5t-178.5 -226.5t-258.5 -82q-99 0 -157.5 47t-58.5 122q0 17 5 44h-5q-57 -103 -128.5 -157.5t-167.5 -54.5q-113 0 -182.5 87.5t-69.5 232.5q0 153 67.5 288.5 t177 211t237.5 75.5q72 0 123.5 -31t71.5 -87h4l28 102h178q-163 -554 -163 -644q0 -51 20 -70.5t62 -19.5q75 0 143 64t108 170.5t40 221.5q0 158 -67 275t-196.5 181.5t-314.5 64.5q-204 0 -375 -97.5t-267.5 -271t-96.5 -387.5q0 -281 161.5 -434t460.5 -153 q132 0 269.5 25.5t212.5 63.5l-30 -160q-64 -31 -194 -53.5t-272 -22.5q-368 0 -577 195.5t-209 535.5zM767 506q0 -86 36 -132t92 -46q57 0 108 38.5t92.5 109.5t71 167.5t29.5 153.5q0 66 -35.5 102t-92.5 36q-81 0 -149.5 -58t-110 -159t-41.5 -212z" />
<glyph unicode="A" horiz-adv-x="1367" d="M-103 0l840 1434h281l227 -1434h-253l-53 360h-561l-200 -360h-281zM481 560h432l-70 540q-4 18 -4 49v35l2 35h-5q-20 -60 -47 -110z" />
<glyph unicode="B" horiz-adv-x="1250" d="M61 0l304 1434h452q185 0 289.5 -83.5t104.5 -233.5q0 -143 -87 -240.5t-248 -128.5v-4q122 -19 191.5 -97t69.5 -194q0 -208 -153 -330.5t-419 -122.5h-504zM351 195h206q156 0 238 65.5t82 185.5q0 90 -62.5 143t-189.5 53h-180zM486 837h170q140 0 218 61.5t78 170.5 q0 84 -54 127t-154 43h-171z" />
<glyph unicode="C" horiz-adv-x="1304" d="M120 601q0 250 107.5 447.5t303.5 303.5t454 106q202 0 386 -78l-52 -239q-167 100 -347 100q-174 0 -309.5 -79.5t-209.5 -220.5t-74 -318q0 -206 113.5 -319.5t307.5 -113.5q99 0 186 22t181 73l-53 -240q-161 -70 -373 -70q-187 0 -328.5 77.5t-217 220t-75.5 328.5z " />
<glyph unicode="D" horiz-adv-x="1500" d="M61 0l305 1434h452q290 0 461 -155t171 -425q0 -255 -108 -452t-303 -299.5t-461 -102.5h-517zM353 207h232q182 0 320 78t212 222.5t74 327.5q0 192 -111 291.5t-322 99.5h-188z" />
<glyph unicode="E" horiz-adv-x="1053" d="M61 0l304 1434h777l-45 -208h-527l-86 -406h490l-45 -208h-489l-87 -405h561l-43 -207h-810z" />
<glyph unicode="F" horiz-adv-x="1034" d="M61 0l304 1434h779l-45 -212h-529l-90 -418h490l-46 -210h-489l-125 -594h-249z" />
<glyph unicode="G" horiz-adv-x="1430" d="M124 611q0 245 106 440t300.5 301t455.5 106q215 0 422 -88l-48 -235q-74 51 -177.5 81.5t-214.5 30.5q-174 0 -307.5 -77.5t-206 -218.5t-72.5 -323q0 -206 110.5 -325t301.5 -119q108 0 201 34l74 354h-312l44 204h559l-148 -694q-206 -108 -450 -108 q-192 0 -337.5 79.5t-223 225t-77.5 332.5z" />
<glyph unicode="H" horiz-adv-x="1507" d="M61 0l304 1434h250l-129 -601h662l129 601h248l-305 -1434h-248l129 613h-661l-129 -613h-250z" />
<glyph unicode="I" horiz-adv-x="597" d="M61 0l303 1434h250l-304 -1434h-249z" />
<glyph unicode="J" horiz-adv-x="808" d="M-96 14l43 229q24 -20 69 -37t87 -17q115 0 186 83.5t111 268.5l190 893h248l-190 -894q-63 -290 -199.5 -427.5t-353.5 -137.5q-43 0 -104 12.5t-87 26.5z" />
<glyph unicode="K" horiz-adv-x="1280" d="M61 0l304 1434h250l-142 -670h4l48 56l591 614h311l-713 -705l443 -729h-301l-349 615q-25 43 -41 89h-4l-152 -704h-249z" />
<glyph unicode="L" horiz-adv-x="998" d="M61 0l304 1434h250l-260 -1223h550l-44 -211h-800z" />
<glyph unicode="M" horiz-adv-x="1728" d="M61 0l304 1434h292l187 -590q30 -95 35 -179h5q55 120 113 198l429 571h319l-305 -1434h-228l193 910q28 126 76 296h-6q-51 -113 -161 -259l-406 -545h-154l-164 527q-18 55 -33 135t-17 142h-7q-35 -221 -52 -297l-194 -909h-226z" />
<glyph unicode="N" horiz-adv-x="1587" d="M61 0l303 1434h261l479 -1025q23 -51 33 -84h4q5 69 19 133l208 976h237l-304 -1434h-240l-489 1030q-6 13 -20.5 50t-17.5 53h-6l-9 -68l-12 -73l-211 -992h-235z" />
<glyph unicode="O" horiz-adv-x="1549" d="M124 589q0 188 59 348t171.5 281.5t252 180.5t304.5 59q173 0 307.5 -75.5t207.5 -215t73 -320.5q0 -232 -98.5 -434.5t-272.5 -320t-413 -117.5q-175 0 -309.5 77t-208 218t-73.5 319zM383 590q0 -183 93.5 -291.5t258.5 -108.5q143 0 257.5 84t180.5 241t66 323 q0 186 -95.5 294.5t-258.5 108.5q-136 0 -253.5 -85.5t-183 -240.5t-65.5 -325z" />
<glyph unicode="P" horiz-adv-x="1234" d="M61 0l304 1434h432q210 0 329.5 -104t119.5 -289q0 -156 -73 -274.5t-212 -183.5t-332 -65h-210l-109 -518h-249zM462 716h175q164 0 257 81t93 226q0 96 -65 153.5t-189 57.5h-161z" />
<glyph unicode="Q" horiz-adv-x="1549" d="M124 586q0 240 103.5 445t284 316t402.5 111q266 0 425.5 -168.5t159.5 -446.5q0 -195 -73 -376.5t-203.5 -302.5t-295.5 -160l306 -361h-320l-228 333q-170 7 -297 86t-195.5 216.5t-68.5 307.5zM383 589q0 -184 94.5 -291.5t257.5 -107.5q143 0 256.5 83.5t180.5 236.5 t67 325q0 190 -95 298t-254 108q-142 0 -258.5 -87t-182.5 -238t-66 -327z" />
<glyph unicode="R" horiz-adv-x="1251" d="M61 0l304 1434h443q202 0 315.5 -95t113.5 -265q0 -176 -117 -290t-308 -135v-4q113 -37 156 -209l110 -436h-265l-92 398q-21 92 -68.5 136.5t-128.5 44.5h-90l-124 -579h-249zM475 777h165q158 0 247.5 70.5t89.5 190.5q0 90 -55.5 144.5t-170.5 54.5h-178z" />
<glyph unicode="S" horiz-adv-x="1059" d="M33 71l42 229q76 -56 173 -89t189 -33q119 0 184 51.5t65 145.5q0 72 -46 126t-174 135q-136 86 -197.5 182.5t-61.5 213.5q0 121 62 219t176 152.5t270 54.5q175 0 358 -72l-44 -226q-63 43 -151.5 69t-167.5 26q-77 0 -131 -26.5t-82.5 -70t-28.5 -95.5 q0 -72 42 -128.5t161 -135.5q154 -103 213.5 -194.5t59.5 -204.5q0 -125 -63.5 -225.5t-178.5 -150t-272 -49.5q-102 0 -210 26.5t-187 69.5z" />
<glyph unicode="T" horiz-adv-x="1139" d="M179 1226l45 208h1067l-45 -208h-406l-259 -1226h-248l259 1226h-413z" />
<glyph unicode="U" horiz-adv-x="1446" d="M159 444q0 104 24 215l167 775h249l-167 -771q-27 -135 -27 -196q0 -129 74 -203t200 -74q150 0 236.5 90.5t128.5 286.5l187 867h249l-185 -861q-48 -224 -127.5 -350t-205.5 -187t-312 -61q-226 0 -358.5 127.5t-132.5 341.5z" />
<glyph unicode="V" horiz-adv-x="1326" d="M206 1434h252l128 -1058q5 -47 5 -82l-3 -50h6q20 62 59 134l569 1056h275l-830 -1434h-262z" />
<glyph unicode="W" horiz-adv-x="1983" d="M199 1434h259l42 -1022v-15q0 -57 -12 -135h5q6 21 29 77.5t32 73.5l509 1021h248l69 -1047v-17q0 -61 -6 -107h4q13 50 54 145l462 1026h262l-700 -1434h-261l-78 1016q0 49 12 130h-4q-25 -81 -57 -149l-500 -997h-276z" />
<glyph unicode="X" horiz-adv-x="1275" d="M-99 0l626 736l-290 698h288l144 -435q36 -107 38 -146h5l8 17q23 50 41 73l391 491h289l-598 -720l293 -714h-280l-157 447q-21 60 -39 147h-4l-9 -18q-21 -50 -40 -73l-399 -503h-307z" />
<glyph unicode="Y" horiz-adv-x="1190" d="M202 1434h266l146 -603l10 -54l5 -46h4q31 68 51 97l413 606h278l-662 -902l-111 -532h-249l112 527z" />
<glyph unicode="Z" horiz-adv-x="1205" d="M-74 0l24 118l998 1108h-702l44 208h1064l-25 -112l-996 -1115h750l-44 -207h-1113z" />
<glyph unicode="[" horiz-adv-x="690" d="M44 -326l374 1760h420l-33 -160h-221l-306 -1440h220l-34 -160h-420z" />
<glyph unicode="\" horiz-adv-x="843" d="M164 1434h210l343 -1673h-206z" />
<glyph unicode="]" horiz-adv-x="690" d="M-146 -326l34 160h218l307 1439h-220l33 161h421l-374 -1760h-419z" />
<glyph unicode="^" horiz-adv-x="1426" d="M256 617l426 841h114l454 -841h-196l-310 602h-6l-287 -602h-195z" />
<glyph unicode="_" horiz-adv-x="850" d="M-174 -297l24 119h850l-24 -119h-850z" />
<glyph unicode="`" horiz-adv-x="807" d="M290 1528h208l208 -326h-167z" />
<glyph unicode="a" d="M69 363q0 186 87.5 354t234 250t341.5 82q161 0 383 -48l-141 -668q-15 -71 -27 -174.5t-12 -158.5h-245q0 25 6 91.5t12 102.5h-4q-63 -92 -108.5 -133.5t-98.5 -63.5t-120 -22q-146 0 -227 103t-81 285zM312 375q0 -100 38.5 -154.5t112.5 -54.5q108 0 194.5 113 t126.5 299l59 275q-62 15 -137 15q-114 0 -201 -59.5t-140 -180.5t-53 -253z" />
<glyph unicode="b" d="M50 77l305 1439h243l-100 -471l-46 -197h5q72 105 152.5 153t176.5 48q145 0 225.5 -101t80.5 -282q0 -190 -84.5 -356.5t-229 -250.5t-331.5 -84q-105 0 -213.5 27.5t-183.5 74.5zM317 191q65 -35 163 -35q106 0 189.5 66t132 183t48.5 241q0 212 -161 212 q-102 0 -190.5 -111.5t-121.5 -270.5z" />
<glyph unicode="c" horiz-adv-x="919" d="M69 395q0 178 77 330.5t214.5 238t311.5 85.5q73 0 145 -17.5t112 -44.5l-47 -205q-38 32 -94.5 54t-124.5 22q-95 0 -173.5 -56t-128.5 -161.5t-50 -221.5q0 -124 55.5 -188.5t158.5 -64.5q62 0 131.5 25t124.5 61l-42 -203q-142 -74 -282 -74q-182 0 -285 111.5 t-103 308.5z" />
<glyph unicode="d" d="M69 362q0 187 83.5 349.5t229 250t330.5 87.5q88 0 168 -18l104 485h238l-250 -1190q-12 -51 -24.5 -157t-12.5 -169h-245q0 47 18 191h-4q-73 -112 -149.5 -164t-175.5 -52q-147 0 -228.5 101.5t-81.5 285.5zM312 377q0 -104 39.5 -157.5t114.5 -53.5q105 0 191 113 t129 307l57 264q-70 18 -136 18q-115 0 -202 -60t-140 -180.5t-53 -250.5z" />
<glyph unicode="e" horiz-adv-x="1031" d="M69 399q0 174 76 325.5t212 238t298 86.5q161 0 255 -76t94 -201q0 -185 -172 -272.5t-522 -91.5l-2 -11v-20q0 -104 62 -161.5t173 -57.5q76 0 162.5 27.5t158.5 70.5l-40 -199q-151 -82 -333 -82q-199 0 -310.5 111t-111.5 313zM328 574q442 0 442 192q0 50 -36.5 79.5 t-100.5 29.5q-106 0 -192 -87t-113 -214z" />
<glyph unicode="f" horiz-adv-x="686" d="M10 -340l253 1178h-175l41 186h174l37 168q40 181 145 264.5t274 83.5q90 0 160 -24l-38 -194q-56 27 -124 27q-77 0 -118.5 -46t-61.5 -141l-30 -138h237l-41 -186h-240l-252 -1178h-241z" />
<glyph unicode="g" d="M-34 -405l43 204q143 -93 292 -93q155 0 246 85t130 273l26 125h-4q-75 -117 -151.5 -165.5t-169.5 -48.5q-144 0 -226.5 100.5t-82.5 284.5q0 190 83.5 351.5t228.5 249.5t329 88q163 0 405 -46l-191 -905q-46 -217 -125 -337t-205.5 -181t-310.5 -61q-165 0 -317 76z M312 377q0 -103 40 -157t109 -54q70 0 133 48t115 149t75 212l59 278q-62 15 -152 15q-104 0 -192 -66t-137.5 -179t-49.5 -246z" />
<glyph unicode="h" horiz-adv-x="1183" d="M32 0l323 1516h242l-152 -711h4q83 116 184 180t202 64q128 0 193 -72.5t65 -203.5q0 -54 -30 -197l-122 -576h-242l124 592q20 107 20 131q0 135 -122 135q-65 0 -137.5 -51.5t-128 -135.5t-73.5 -171l-107 -500h-243z" />
<glyph unicode="i" horiz-adv-x="590" d="M89 197q0 52 11 102l149 725h243l-136 -645q-21 -100 -21 -129q0 -76 87 -76q51 0 91 16l-38 -184q-86 -23 -161 -23q-110 0 -167.5 55.5t-57.5 158.5zM295 1363q0 61 44 99t106 38q58 0 99.5 -36.5t41.5 -92.5q0 -60 -43 -99.5t-105 -39.5q-60 0 -101.5 36t-41.5 95z " />
<glyph unicode="j" horiz-adv-x="515" d="M-367 -450l40 198q23 -16 58.5 -27.5t60.5 -11.5q89 0 149.5 74.5t94.5 234.5l214 1006h242l-215 -1010q-56 -257 -169.5 -376t-291.5 -119q-119 0 -183 31zM295 1363q0 61 44 99t106 38q58 0 99.5 -36.5t41.5 -92.5q0 -60 -43 -99.5t-105 -39.5q-60 0 -101.5 36 t-41.5 95z" />
<glyph unicode="k" horiz-adv-x="1077" d="M32 0l323 1516h242l-199 -931h4l459 439h294l-524 -478l313 -546h-271l-281 536h-4l-114 -536h-242z" />
<glyph unicode="l" horiz-adv-x="590" d="M87 194q0 67 38 241.5t230 1080.5h243l-242 -1137q-21 -100 -21 -129q0 -76 87 -76q51 0 91 16l-38 -184q-77 -23 -161 -23q-111 0 -169 55t-58 156z" />
<glyph unicode="m" horiz-adv-x="1811" d="M32 0l155 716q36 172 53 308h236q-8 -85 -31 -220h4q79 116 177 180.5t195 64.5q235 0 252 -250q84 122 185.5 186t207.5 64q128 0 192 -71.5t64 -204.5q0 -50 -31 -197l-123 -576h-240l125 592q20 107 20 131q0 135 -119 135q-92 0 -195 -112.5t-130 -241.5l-106 -504 h-242l126 592q20 107 20 131q0 135 -119 135q-61 0 -131 -53t-124 -137.5t-70 -164.5l-108 -503h-243z" />
<glyph unicode="n" horiz-adv-x="1188" d="M36 0l155 716q36 172 53 308h236q-8 -85 -31 -220h4q80 117 182.5 181t203.5 64q124 0 191.5 -71t67.5 -204q0 -51 -31 -198l-122 -576h-242l124 592q20 107 20 131q0 60 -31.5 97.5t-89.5 37.5q-64 0 -136.5 -50.5t-128.5 -135.5t-74 -169l-107 -503h-244z" />
<glyph unicode="o" horiz-adv-x="1137" d="M69 393q0 186 74.5 338t205.5 235t304 83q190 0 302 -111.5t112 -306.5q0 -186 -74.5 -339.5t-206 -235t-303.5 -81.5q-193 0 -303.5 111t-110.5 307zM312 397q0 -108 50.5 -169.5t137.5 -61.5q93 0 167.5 62.5t115 169.5t40.5 227q0 107 -49.5 170t-137.5 63 q-91 0 -165 -62.5t-116.5 -169.5t-42.5 -229z" />
<glyph unicode="p" d="M-72 -473l248 1170q12 52 25.5 157t16.5 170h239q0 -26 -8 -92.5t-14 -102.5h4q137 220 348 220q145 0 225 -102t80 -279q0 -187 -82 -351t-224.5 -253t-319.5 -89q-102 0 -194 29l-101 -477h-243zM307 183q21 -8 73 -17.5t92 -9.5q107 0 193.5 67t135.5 181.5t49 241.5 q0 106 -41 159t-117 53q-70 0 -135 -51t-117.5 -152t-74.5 -206z" />
<glyph unicode="q" d="M69 363q0 190 87.5 356t234 248t334.5 82q190 0 389 -55l-311 -1467h-241l95 451q21 95 48 199h-4q-136 -202 -322 -202q-146 0 -228 101.5t-82 286.5zM312 379q0 -106 39.5 -159.5t113.5 -53.5q106 0 192 109.5t126 292.5l59 281q-69 19 -139 19q-111 0 -198 -60.5 t-140 -180.5t-53 -248z" />
<glyph unicode="r" horiz-adv-x="773" d="M33 0l142 666q51 249 60 358h238q-10 -97 -28 -216h4q63 114 132.5 177.5t162.5 63.5q38 0 101 -15l-47 -243q-61 32 -118 32q-104 0 -189.5 -105t-122.5 -280l-93 -438h-242z" />
<glyph unicode="s" horiz-adv-x="854" d="M10 33l40 198q55 -33 130.5 -56t145.5 -23q88 0 131 33t43 91q0 45 -29.5 78t-114.5 79q-113 61 -164.5 129t-51.5 160q0 94 48.5 168.5t140 116.5t217.5 42q75 0 146.5 -13.5t120.5 -33.5l-42 -196q-44 26 -104.5 45t-120.5 19q-84 0 -125.5 -35.5t-41.5 -91.5 q0 -50 34 -83t98 -68q130 -73 177.5 -139t47.5 -155q0 -97 -50.5 -169t-147.5 -113t-237 -41q-76 0 -161 17t-130 41z" />
<glyph unicode="t" horiz-adv-x="715" d="M80 838l44 186h159l53 245l254 67l-65 -312h251l-43 -186h-249l-98 -463q-18 -87 -18 -117q0 -46 21 -66.5t69 -20.5q46 0 140 36l-40 -189q-100 -39 -198 -39q-237 0 -237 231q0 58 21 152l100 476h-164z" />
<glyph unicode="u" horiz-adv-x="1184" d="M82 251q0 49 31 196l122 577h242l-125 -589q-21 -112 -21 -134q0 -60 30 -95t90 -35q69 0 141.5 51t128.5 137.5t74 172.5l105 492h242l-147 -688q-39 -186 -54 -336h-240l31 217h-4q-81 -114 -181 -178t-204 -64q-127 0 -194 72.5t-67 203.5z" />
<glyph unicode="v" horiz-adv-x="1030" d="M126 1024h240l66 -606q11 -88 11 -168l-1 -29h4q43 102 92 196l321 607h267l-606 -1024h-246z" />
<glyph unicode="w" horiz-adv-x="1551" d="M121 1024h230l25 -716v-12q0 -47 -7 -94h6q25 72 31 86.5t366 735.5h225l37 -760q0 -20 -6 -64h7q8 35 49 124l308 700h237l-517 -1024h-245l-40 644l-2 67q0 32 6 71h-4q-13 -54 -45 -117l-334 -665h-248z" />
<glyph unicode="x" horiz-adv-x="1027" d="M-95 0l458 514l-224 510h266l104 -298q18 -51 29 -102h4q14 21 33 48t274 352h273l-453 -517l232 -507h-266l-110 293l-32 97h-5q-21 -32 -39.5 -58.5t-260.5 -331.5h-283z" />
<glyph unicode="y" horiz-adv-x="1046" d="M-160 -460l42 194q39 -24 100 -24q126 0 214 135l103 160l-193 1019h251l96 -705l4 -65l-2 -42h5q25 64 48 106l383 706h257l-689 -1154q-114 -191 -226.5 -271t-259.5 -80q-70 0 -133 21z" />
<glyph unicode="z" horiz-adv-x="960" d="M-81 0l19 93l707 745h-494l40 186h835l-23 -105l-687 -733h529l-40 -186h-886z" />
<glyph unicode="{" horiz-adv-x="690" d="M77 475l33 150q81 3 128 47t67 142l57 270q27 125 80 201t133.5 111.5t221.5 37.5l-32 -157q-86 0 -133 -45.5t-67 -144.5l-58 -265q-53 -237 -203 -283v-4q93 -49 93 -185q0 -51 -11 -104l-52 -237q-10 -43 -10 -80q0 -59 31.5 -86.5t97.5 -29.5l-32 -154 q-145 0 -221.5 63t-76.5 185q0 47 12 101l56 261q9 40 9 74q0 126 -123 132z" />
<glyph unicode="|" horiz-adv-x="580" d="M201 -481v2048h199v-2048h-199z" />
<glyph unicode="}" horiz-adv-x="690" d="M-109 -339l33 156q81 0 130 43.5t71 147.5l55 264q23 112 74.5 186t130.5 98v4q-94 51 -94 185q0 54 12 105l50 235q10 44 10 79q0 59 -31 87t-97 30l32 154q298 -4 298 -246q0 -49 -12 -103l-56 -260q-9 -42 -9 -74q0 -129 123 -133l-33 -150q-81 -2 -127.5 -47 t-67.5 -142l-58 -269q-27 -126 -81.5 -202.5t-135 -112t-217.5 -35.5z" />
<glyph unicode="~" horiz-adv-x="1426" d="M216 419q7 158 85.5 248t213.5 90q59 0 115.5 -19.5t177.5 -98.5q42 -28 71.5 -38.5t60.5 -10.5q56 0 91.5 47.5t37.5 123.5h170q-6 -160 -85.5 -248.5t-210.5 -88.5q-54 0 -104.5 16.5t-156.5 81.5q-36 23 -76.5 44t-82.5 21q-64 0 -99 -45t-37 -123h-171z" />
<glyph unicode="&#xa2;" horiz-adv-x="1142" d="M182 572q0 269 159 452.5t418 199.5l41 193h144l-42 -199q125 -17 176 -53l-46 -213q-61 59 -171 77l-145 -678q112 13 215 84l-43 -207q-88 -55 -211 -69l-43 -202h-145l42 200q-164 19 -256.5 130.5t-92.5 284.5zM421 599q0 -99 43 -157.5t111 -79.5l141 662 q-138 -31 -216.5 -149t-78.5 -276z" />
<glyph unicode="&#xa3;" horiz-adv-x="1142" d="M11 0l40 182q115 30 179 102.5t88 185.5l33 153h-185l37 179h186l47 222q45 209 177 321.5t324 112.5q71 0 130 -13.5t94 -31.5l-44 -211q-84 61 -196 61q-207 0 -264 -275l-39 -186h280l-39 -179h-279l-32 -143q-46 -202 -217 -289h657l-40 -191h-937z" />
<glyph unicode="&#xa5;" horiz-adv-x="1142" d="M78 277l34 164h327l39 180h-329l36 164h273l-210 649h244l126 -508l23 -103h5q15 27 31.5 55t366.5 556h250l-494 -649h268l-34 -164h-320l-39 -180h320l-34 -164h-319l-61 -277h-235l59 277h-327z" />
<glyph unicode="&#xa8;" horiz-adv-x="807" d="M219 1321q0 49 36 82.5t91 33.5q54 0 90.5 -33t36.5 -83q0 -51 -37.5 -85t-89.5 -34q-51 0 -89 33.5t-38 85.5zM642 1321q0 51 36 83.5t89 32.5q54 0 90.5 -33t36.5 -83t-35 -84.5t-91 -34.5t-91 35t-35 84z" />
<glyph unicode="&#xa9;" horiz-adv-x="1827" d="M193 713q0 207 99.5 377.5t274.5 269t388 98.5q209 0 383 -94.5t272.5 -265t98.5 -379.5q0 -206 -100.5 -378t-275 -269t-384.5 -97t-383 92.5t-273 262.5t-100 383zM304 715q0 -181 86 -330.5t235.5 -233t326.5 -83.5q178 0 328.5 88t233.5 235.5t83 323.5 q0 178 -83.5 326.5t-233 233t-328.5 84.5q-183 0 -332.5 -84.5t-232.5 -233.5t-83 -326zM496 694q0 155 65.5 275t184.5 185t268 65q130 0 238 -54v-193q-42 34 -108.5 54t-140.5 20q-88 0 -160.5 -41.5t-113 -118t-40.5 -177.5q0 -147 90.5 -238t230.5 -91q70 0 139 23.5 t106 52.5v-176q-127 -68 -271 -68q-136 0 -248.5 63t-176 173.5t-63.5 245.5z" />
<glyph unicode="&#xab;" horiz-adv-x="1126" d="M71 537l370 342h230l-383 -356l235 -324h-209zM522 537l369 342h230l-383 -356l235 -324h-209z" />
<glyph unicode="&#xad;" horiz-adv-x="823" d="M125 471l38 175h547l-38 -175h-547z" />
<glyph unicode="&#xae;" horiz-adv-x="1808" d="M298 853q0 247 177.5 424t428.5 177q250 0 428 -177t178 -424q0 -248 -178 -423t-428 -175q-251 0 -428.5 175t-177.5 423zM406 852q0 -206 146.5 -351.5t352.5 -145.5q207 0 352 145.5t145 351.5t-145 354t-352 148q-206 0 -352.5 -148t-146.5 -354zM655 483v752h226 q141 0 217 -55t76 -150q0 -77 -46.5 -131.5t-137.5 -73.5v-3q63 -13 125 -139l99 -200h-177l-73 174q-56 130 -121 130h-44v-304h-144zM799 901h82q139 0 139 108q0 55 -37.5 80.5t-117.5 25.5h-66v-214z" />
<glyph unicode="&#xb4;" horiz-adv-x="807" d="M353 1202l302 326h225l-348 -326h-179z" />
<glyph unicode="&#xb8;" horiz-adv-x="807" d="M58 -440l25 113q35 -7 75 -7q77 0 116 23t39 62q0 70 -115 70l-51 -3l41 182h125l-21 -93q84 -2 132.5 -39.5t48.5 -101.5q0 -98 -84.5 -155t-231.5 -57q-30 0 -99 6z" />
<glyph unicode="&#xbb;" horiz-adv-x="1126" d="M5 202l384 355l-236 325h209l242 -338l-369 -342h-230zM455 202l384 355l-236 325h208l244 -338l-370 -342h-230z" />
<glyph unicode="&#xc2;" horiz-adv-x="1367" d="M-103 0l840 1434h281l227 -1434h-253l-53 360h-561l-200 -360h-281zM481 560h432l-70 540q-4 18 -4 49v35l2 35h-5q-20 -60 -47 -110zM567 1565l293 329h191l157 -329h-155l-115 211l-205 -211h-166z" />
<glyph unicode="&#xc7;" horiz-adv-x="1304" d="M120 601q0 250 107.5 447.5t303.5 303.5t454 106q202 0 386 -78l-52 -239q-167 100 -347 100q-174 0 -309.5 -79.5t-209.5 -220.5t-74 -318q0 -206 113.5 -319.5t307.5 -113.5q99 0 186 22t181 73l-53 -240q-161 -70 -373 -70q-187 0 -328.5 77.5t-217 220t-75.5 328.5z M505 -440l25 113q35 -7 75 -7q77 0 116 23t39 62q0 70 -115 70l-51 -3l41 182h125l-21 -93q84 -2 132.5 -39.5t48.5 -101.5q0 -98 -84.5 -155t-231.5 -57q-30 0 -99 6z" />
<glyph unicode="&#xce;" horiz-adv-x="597" d="M61 0l303 1434h250l-304 -1434h-249zM186 1565l293 329h191l157 -329h-155l-115 211l-205 -211h-166z" />
<glyph unicode="&#xd6;" horiz-adv-x="1549" d="M124 589q0 188 59 348t171.5 281.5t252 180.5t304.5 59q173 0 307.5 -75.5t207.5 -215t73 -320.5q0 -232 -98.5 -434.5t-272.5 -320t-413 -117.5q-175 0 -309.5 77t-208 218t-73.5 319zM383 590q0 -183 93.5 -291.5t258.5 -108.5q143 0 257.5 84t180.5 241t66 323 q0 186 -95.5 294.5t-258.5 108.5q-136 0 -253.5 -85.5t-183 -240.5t-65.5 -325zM606 1685q0 49 36 82.5t91 33.5q54 0 90.5 -33t36.5 -83q0 -51 -37.5 -85t-89.5 -34q-51 0 -89 33.5t-38 85.5zM1029 1685q0 51 36 83.5t89 32.5q54 0 90.5 -33t36.5 -83t-35 -84.5t-91 -34.5 t-91 35t-35 84z" />
<glyph unicode="&#xdb;" horiz-adv-x="1446" d="M159 444q0 104 24 215l167 775h249l-167 -771q-27 -135 -27 -196q0 -129 74 -203t200 -74q150 0 236.5 90.5t128.5 286.5l187 867h249l-185 -861q-48 -224 -127.5 -350t-205.5 -187t-312 -61q-226 0 -358.5 127.5t-132.5 341.5zM608 1565l293 329h191l157 -329h-155 l-115 211l-205 -211h-166z" />
<glyph unicode="&#xdc;" horiz-adv-x="1446" d="M159 444q0 104 24 215l167 775h249l-167 -771q-27 -135 -27 -196q0 -129 74 -203t200 -74q150 0 236.5 90.5t128.5 286.5l187 867h249l-185 -861q-48 -224 -127.5 -350t-205.5 -187t-312 -61q-226 0 -358.5 127.5t-132.5 341.5zM599 1685q0 49 36 82.5t91 33.5 q54 0 90.5 -33t36.5 -83q0 -51 -37.5 -85t-89.5 -34q-51 0 -89 33.5t-38 85.5zM1022 1685q0 51 36 83.5t89 32.5q54 0 90.5 -33t36.5 -83t-35 -84.5t-91 -34.5t-91 35t-35 84z" />
<glyph unicode="&#xe2;" d="M69 363q0 186 87.5 354t234 250t341.5 82q161 0 383 -48l-141 -668q-15 -71 -27 -174.5t-12 -158.5h-245q0 25 6 91.5t12 102.5h-4q-63 -92 -108.5 -133.5t-98.5 -63.5t-120 -22q-146 0 -227 103t-81 285zM312 375q0 -100 38.5 -154.5t112.5 -54.5q108 0 194.5 113 t126.5 299l59 275q-62 15 -137 15q-114 0 -201 -59.5t-140 -180.5t-53 -253zM401 1202l293 329h191l157 -329h-155l-115 211l-205 -211h-166z" />
<glyph unicode="&#xe7;" horiz-adv-x="919" d="M69 395q0 178 77 330.5t214.5 238t311.5 85.5q73 0 145 -17.5t112 -44.5l-47 -205q-38 32 -94.5 54t-124.5 22q-95 0 -173.5 -56t-128.5 -161.5t-50 -221.5q0 -124 55.5 -188.5t158.5 -64.5q62 0 131.5 25t124.5 61l-42 -203q-142 -74 -282 -74q-182 0 -285 111.5 t-103 308.5zM219 -440l25 113q35 -7 75 -7q77 0 116 23t39 62q0 70 -115 70l-51 -3l41 182h125l-21 -93q84 -2 132.5 -39.5t48.5 -101.5q0 -98 -84.5 -155t-231.5 -57q-30 0 -99 6z" />
<glyph unicode="&#xee;" horiz-adv-x="590" d="M76 1202l293 329h191l157 -329h-155l-115 211l-205 -211h-166zM87 194q0 67 26 184l136 646h243l-136 -645q-21 -100 -21 -129q0 -76 87 -76q51 0 91 16l-38 -184q-77 -23 -161 -23q-111 0 -169 55t-58 156z" />
<glyph unicode="&#xf6;" horiz-adv-x="1137" d="M69 393q0 186 74.5 338t205.5 235t304 83q190 0 302 -111.5t112 -306.5q0 -186 -74.5 -339.5t-206 -235t-303.5 -81.5q-193 0 -303.5 111t-110.5 307zM312 397q0 -108 50.5 -169.5t137.5 -61.5q93 0 167.5 62.5t115 169.5t40.5 227q0 107 -49.5 170t-137.5 63 q-91 0 -165 -62.5t-116.5 -169.5t-42.5 -229zM353 1321q0 49 36 82.5t91 33.5q54 0 90.5 -33t36.5 -83q0 -51 -37.5 -85t-89.5 -34q-51 0 -89 33.5t-38 85.5zM776 1321q0 51 36 83.5t89 32.5q54 0 90.5 -33t36.5 -83t-35 -84.5t-91 -34.5t-91 35t-35 84z" />
<glyph unicode="&#xfb;" horiz-adv-x="1184" d="M82 251q0 49 31 196l122 577h242l-125 -589q-21 -112 -21 -134q0 -60 30 -95t90 -35q69 0 141.5 51t128.5 137.5t74 172.5l105 492h242l-147 -688q-39 -186 -54 -336h-240l31 217h-4q-81 -114 -181 -178t-204 -64q-127 0 -194 72.5t-67 203.5zM382 1202l293 329h191 l157 -329h-155l-115 211l-205 -211h-166z" />
<glyph unicode="&#xfc;" horiz-adv-x="1184" d="M82 251q0 49 31 196l122 577h242l-125 -589q-21 -112 -21 -134q0 -60 30 -95t90 -35q69 0 141.5 51t128.5 137.5t74 172.5l105 492h242l-147 -688q-39 -186 -54 -336h-240l31 217h-4q-81 -114 -181 -178t-204 -64q-127 0 -194 72.5t-67 203.5zM388 1321q0 49 36 82.5 t91 33.5q54 0 90.5 -33t36.5 -83q0 -51 -37.5 -85t-89.5 -34q-51 0 -89 33.5t-38 85.5zM811 1321q0 51 36 83.5t89 32.5q54 0 90.5 -33t36.5 -83t-35 -84.5t-91 -34.5t-91 35t-35 84z" />
<glyph unicode="&#x11e;" horiz-adv-x="1430" d="M124 611q0 245 106 440t300.5 301t455.5 106q215 0 422 -88l-48 -235q-74 51 -177.5 81.5t-214.5 30.5q-174 0 -307.5 -77.5t-206 -218.5t-72.5 -323q0 -206 110.5 -325t301.5 -119q108 0 201 34l74 354h-312l44 204h559l-148 -694q-206 -108 -450 -108 q-192 0 -337.5 79.5t-223 225t-77.5 332.5zM740 1793q0 30 8 54h133l-3 -31q0 -56 35.5 -86t89.5 -30q142 0 191 147h140q-40 -134 -130.5 -207.5t-213.5 -73.5q-109 0 -179.5 61.5t-70.5 165.5z" />
<glyph unicode="&#x11f;" d="M-34 -405l43 204q143 -93 292 -93q155 0 246 85t130 273l26 125h-4q-75 -117 -151.5 -165.5t-169.5 -48.5q-144 0 -226.5 100.5t-82.5 284.5q0 190 83.5 351.5t228.5 249.5t329 88q163 0 405 -46l-191 -905q-46 -217 -125 -337t-205.5 -181t-310.5 -61q-165 0 -317 76z M312 377q0 -103 40 -157t109 -54q70 0 133 48t115 149t75 212l59 278q-62 15 -152 15q-104 0 -192 -66t-137.5 -179t-49.5 -246zM518 1429q0 30 8 54h133l-3 -31q0 -56 35.5 -86t89.5 -30q142 0 191 147h140q-40 -134 -130.5 -207.5t-213.5 -73.5q-109 0 -179.5 61.5 t-70.5 165.5z" />
<glyph unicode="&#x130;" horiz-adv-x="597" d="M61 0l303 1434h250l-304 -1434h-249zM406 1686q0 51 36 82.5t89 31.5q54 0 89.5 -31.5t35.5 -82.5t-35 -85.5t-90 -34.5q-53 0 -89 34.5t-36 85.5z" />
<glyph unicode="&#x131;" horiz-adv-x="590" d="M87 194q0 67 26 184l136 646h243l-136 -645q-21 -100 -21 -129q0 -76 87 -76q51 0 91 16l-38 -184q-77 -23 -161 -23q-111 0 -169 55t-58 156z" />
<glyph unicode="&#x15e;" horiz-adv-x="1059" d="M33 71l42 229q76 -56 173 -89t189 -33q119 0 184 51.5t65 145.5q0 72 -46 126t-174 135q-136 86 -197.5 182.5t-61.5 213.5q0 121 62 219t176 152.5t270 54.5q175 0 358 -72l-44 -226q-63 43 -151.5 69t-167.5 26q-77 0 -131 -26.5t-82.5 -70t-28.5 -95.5 q0 -72 42 -128.5t161 -135.5q154 -103 213.5 -194.5t59.5 -204.5q0 -125 -63.5 -225.5t-178.5 -150t-272 -49.5q-102 0 -210 26.5t-187 69.5zM248 -440l25 113q35 -7 75 -7q77 0 116 23t39 62q0 70 -115 70l-51 -3l41 182h125l-21 -93q84 -2 132.5 -39.5t48.5 -101.5 q0 -98 -84.5 -155t-231.5 -57q-30 0 -99 6z" />
<glyph unicode="&#x15f;" horiz-adv-x="854" d="M10 33l40 198q55 -33 130.5 -56t145.5 -23q88 0 131 33t43 91q0 45 -29.5 78t-114.5 79q-113 61 -164.5 129t-51.5 160q0 94 48.5 168.5t140 116.5t217.5 42q75 0 146.5 -13.5t120.5 -33.5l-42 -196q-44 26 -104.5 45t-120.5 19q-84 0 -125.5 -35.5t-41.5 -91.5 q0 -50 34 -83t98 -68q130 -73 177.5 -139t47.5 -155q0 -97 -50.5 -169t-147.5 -113t-237 -41q-76 0 -161 17t-130 41zM128 -440l25 113q35 -7 75 -7q77 0 116 23t39 62q0 70 -115 70l-51 -3l41 182h125l-21 -93q84 -2 132.5 -39.5t48.5 -101.5q0 -98 -84.5 -155t-231.5 -57 q-30 0 -99 6z" />
<glyph unicode="&#x18f;" horiz-adv-x="1547" d="M97 513q0 116 43 309h1090q4 20 4 48q0 184 -97.5 282t-292.5 98q-226 0 -439 -115l51 233q176 90 434 90q285 0 446 -153.5t161 -426.5q0 -264 -106.5 -472.5t-294 -319t-430.5 -110.5q-264 0 -416.5 144t-152.5 393zM354 519q0 -155 89 -245.5t244 -90.5 q193 0 327.5 113.5t187.5 321.5h-838q-10 -54 -10 -99z" />
<glyph unicode="&#x259;" horiz-adv-x="1031" d="M26 252q0 184 171.5 271.5t522.5 91.5l2 12v20q0 103 -62 161t-173 58q-66 0 -152 -24.5t-169 -73.5l40 199q151 82 333 82q199 0 310.5 -111t111.5 -313q0 -174 -76 -325.5t-212 -238t-298 -86.5q-164 0 -256.5 76.5t-92.5 200.5zM260 258q0 -51 36.5 -80.5t100.5 -29.5 q106 0 192 87t113 214q-221 0 -331.5 -46.5t-110.5 -144.5z" />
<glyph unicode="&#x2c6;" horiz-adv-x="807" d="M212 1202l293 329h191l157 -329h-155l-115 211l-205 -211h-166z" />
<glyph unicode="&#x2da;" horiz-adv-x="807" d="M351 1369q0 94 64 152t160 58q98 0 159 -56t61 -147q0 -92 -65.5 -151t-159.5 -59t-156.5 56t-62.5 147zM466 1374q0 -48 28 -76.5t76 -28.5q47 0 78 29.5t31 75.5q0 45 -30.5 73.5t-78.5 28.5q-45 0 -74.5 -30t-29.5 -72z" />
<glyph unicode="&#x2dc;" horiz-adv-x="807" d="M197 1202q10 111 78 181.5t168 70.5q46 0 78 -14t58 -31t51 -31t59 -14q43 0 71.5 30t35.5 78h125q-12 -114 -78.5 -182.5t-159.5 -68.5q-50 0 -83.5 13.5t-60.5 30t-51 30t-54 13.5q-51 0 -78.5 -32t-33.5 -74h-125z" />
<glyph unicode="&#x2000;" horiz-adv-x="947" />
<glyph unicode="&#x2001;" horiz-adv-x="1894" />
<glyph unicode="&#x2002;" horiz-adv-x="947" />
<glyph unicode="&#x2003;" horiz-adv-x="1894" />
<glyph unicode="&#x2004;" horiz-adv-x="631" />
<glyph unicode="&#x2005;" horiz-adv-x="473" />
<glyph unicode="&#x2006;" horiz-adv-x="315" />
<glyph unicode="&#x2007;" horiz-adv-x="315" />
<glyph unicode="&#x2008;" horiz-adv-x="236" />
<glyph unicode="&#x2009;" horiz-adv-x="378" />
<glyph unicode="&#x200a;" horiz-adv-x="105" />
<glyph unicode="&#x2010;" horiz-adv-x="823" d="M125 471l38 175h547l-38 -175h-547z" />
<glyph unicode="&#x2011;" horiz-adv-x="823" d="M125 471l38 175h547l-38 -175h-547z" />
<glyph unicode="&#x2012;" horiz-adv-x="823" d="M125 471l38 175h547l-38 -175h-547z" />
<glyph unicode="&#x2013;" horiz-adv-x="1024" d="M-8 471l36 175h1024l-36 -175h-1024z" />
<glyph unicode="&#x2014;" horiz-adv-x="2048" d="M-8 471l36 175h2048l-36 -175h-2048z" />
<glyph unicode="&#x2018;" horiz-adv-x="514" d="M205 997l208 446h159l-166 -446h-201z" />
<glyph unicode="&#x2019;" horiz-adv-x="514" d="M224 997l167 446h199l-211 -446h-155z" />
<glyph unicode="&#x201a;" horiz-adv-x="514" d="M-37 -225l167 444h198l-210 -444h-155z" />
<glyph unicode="&#x201c;" horiz-adv-x="888" d="M205 997l208 446h158l-165 -446h-201zM579 997l210 446h157l-166 -446h-201z" />
<glyph unicode="&#x201d;" horiz-adv-x="888" d="M224 997l167 446h199l-211 -446h-155zM598 997l167 446h199l-211 -446h-155z" />
<glyph unicode="&#x201e;" horiz-adv-x="888" d="M-37 -228l167 445h198l-210 -445h-155zM336 -228l168 445h199l-211 -445h-156z" />
<glyph unicode="&#x2026;" horiz-adv-x="1689" d="M53 112q0 61 43.5 102.5t107.5 41.5q61 0 102 -39.5t41 -95.5q0 -61 -44 -101.5t-107 -40.5q-59 0 -101 38.5t-42 94.5zM614 112q0 62 44.5 103t107.5 41q61 0 102 -39.5t41 -95.5q0 -61 -44 -101.5t-106 -40.5q-61 0 -103 38.5t-42 94.5zM1177 112q0 61 43.5 102.5 t107.5 41.5q61 0 102 -39.5t41 -95.5q0 -61 -44 -101.5t-106 -40.5q-60 0 -102 38.5t-42 94.5z" />
<glyph unicode="&#x202f;" horiz-adv-x="378" />
<glyph unicode="&#x2039;" horiz-adv-x="676" d="M72 537l369 342h231l-383 -356l235 -324h-210z" />
<glyph unicode="&#x203a;" horiz-adv-x="676" d="M5 202l383 355l-236 325h210l242 -338l-369 -342h-230z" />
<glyph unicode="&#x205f;" horiz-adv-x="473" />
<glyph unicode="&#x20ac;" horiz-adv-x="1142" d="M45 470l30 140h123q8 121 23 186h-105l28 139h114q85 249 271.5 386t440.5 137q81 0 158.5 -18t119.5 -42l-42 -222q-120 91 -250 91q-162 0 -278.5 -85.5t-178.5 -246.5h526l-31 -139h-542q-18 -83 -22 -186h524l-29 -140h-490q20 -155 102 -229t211 -74q134 0 273 78 l-34 -212q-136 -59 -279 -59q-218 0 -353 132.5t-153 363.5h-157z" />
<glyph unicode="&#x2122;" horiz-adv-x="1581" d="M159 1322v112h515v-111h-192v-551h-134v550h-189zM750 772v662h171l192 -475h4l199 475h163v-662h-129v461h-5l-189 -461h-97l-180 461h-4v-461h-125z" />
<glyph unicode="&#x25fc;" horiz-adv-x="1025" d="M0 0v1025h1025v-1025h-1025z" />
</font>
</defs>
</svg>
