<?xml version="1.0" standalone="no"?>
<!DOCTYPE svg PUBLIC "-//W3C//DTD SVG 1.1//EN" "http://www.w3.org/Graphics/SVG/1.1/DTD/svg11.dtd" >
<svg xmlns="http://www.w3.org/2000/svg">
<metadata></metadata>
<defs>
<font id="weblysleek_uisemilight_italic" horiz-adv-x="1089" >
<font-face units-per-em="2048" ascent="1638" descent="-410" />
<missing-glyph horiz-adv-x="563" />
<glyph horiz-adv-x="0" />
<glyph unicode="&#xd;" horiz-adv-x="0" />
<glyph unicode=" "  horiz-adv-x="563" />
<glyph unicode="&#x09;" horiz-adv-x="563" />
<glyph unicode="&#xa0;" horiz-adv-x="563" />
<glyph unicode="!" horiz-adv-x="590" d="M112 76q0 41 27 68t67 27q38 0 66.5 -27t28.5 -68q0 -40 -28 -67t-67 -27q-40 0 -67 27.5t-27 66.5zM210 403l205 1031h137l-232 -1031h-110z" />
<glyph unicode="&#x22;" horiz-adv-x="710" d="M281 1434h115l-10 -448h-95zM545 1434h115l-10 -448h-96z" />
<glyph unicode="#" horiz-adv-x="1225" d="M107 521l19 91h273l69 324h-285l19 92h285l86 406h101l-85 -406h260l87 406h100l-86 -406h268l-20 -91h-267l-70 -325h282l-21 -91h-280l-87 -398h-101l86 398h-260l-85 -398h-101l85 398h-272zM499 612h261l70 325h-261z" />
<glyph unicode="$" horiz-adv-x="1078" d="M72 72l22 129q59 -38 141 -64.5t164 -34.5l123 568q-151 110 -207 195t-56 195q0 158 117.5 265.5t308.5 115.5l37 174h91l-38 -177q124 -8 245 -54l-24 -124q-106 62 -244 72l-125 -585q147 -108 205 -191t58 -180q0 -168 -112 -272t-309 -111l-45 -202h-89l43 204 q-81 4 -167 26t-139 51zM389 1066q0 -73 35 -132t126 -130l111 528q-124 -10 -198 -84t-74 -182zM492 102q128 10 198.5 80t70.5 179q0 66 -37.5 125t-123.5 126z" />
<glyph unicode="%" horiz-adv-x="1657" d="M161 1004q0 120 51.5 225t141 165t195.5 60q122 0 195.5 -75.5t73.5 -208.5q0 -122 -49 -226t-137.5 -165t-194.5 -61q-128 0 -202 77.5t-74 208.5zM209 0l1197 1434h126l-1196 -1434h-127zM273 1007q0 -91 45 -143t124 -52q113 0 189 102t76 249q0 94 -43.5 145.5 t-121.5 51.5q-113 0 -191 -104t-78 -249zM912 265q0 120 51.5 225t141 165.5t195.5 60.5q125 0 197 -77t72 -208q0 -189 -109.5 -320t-271.5 -131q-128 0 -202 78t-74 207zM1025 268q0 -91 44.5 -143t123.5 -52q114 0 189.5 103.5t75.5 248.5q0 93 -43 144.5t-121 51.5 q-113 0 -191 -104t-78 -249z" />
<glyph unicode="&#x26;" horiz-adv-x="1530" d="M92 333q0 153 102.5 260.5t336.5 195.5q-74 105 -99.5 174.5t-25.5 140.5q0 153 111 254t278 101q155 0 249.5 -80.5t94.5 -212.5q0 -140 -104 -237t-325 -181l306 -418q160 179 232 429h121q-83 -308 -287 -520l177 -239h-155l-114 156q-216 -184 -492 -184 q-186 0 -296 101t-110 260zM220 339q0 -113 80 -185t211 -72q227 0 415 161l-335 460q-214 -84 -292.5 -162.5t-78.5 -201.5zM531 1104q0 -57 25.5 -119.5t89.5 -152.5q200 73 284 145.5t84 181.5q0 87 -58.5 140t-163.5 53q-115 0 -188 -68.5t-73 -179.5z" />
<glyph unicode="'" horiz-adv-x="437" d="M278 1434h114l-10 -448h-93z" />
<glyph unicode="(" horiz-adv-x="604" d="M125 311q0 321 126 589t400 534h130q-278 -274 -408.5 -541.5t-130.5 -570.5q0 -165 44 -324t122 -287h-116q-167 275 -167 600z" />
<glyph unicode=")" horiz-adv-x="604" d="M-162 -289q282 278 410.5 545.5t128.5 565.5q0 335 -166 612h117q167 -288 167 -601q0 -314 -122.5 -580t-404.5 -542h-130z" />
<glyph unicode="*" horiz-adv-x="843" d="M187 1116l33 104l277 -101l-19 315h114l-18 -315l275 101l34 -104l-284 -66l195 -256l-92 -63l-166 271l-168 -271l-91 63l196 256z" />
<glyph unicode="+" horiz-adv-x="1364" d="M244 543v108h409v407h105v-407h408v-108h-408v-407h-105v407h-409z" />
<glyph unicode="," horiz-adv-x="451" d="M-49 -255l192 482h133l-220 -482h-105z" />
<glyph unicode="-" horiz-adv-x="817" d="M137 532l25 108h547l-25 -108h-547z" />
<glyph unicode="." horiz-adv-x="451" d="M45 75q0 40 27 67t66 27q40 0 68 -27t28 -67q0 -39 -28.5 -67t-67.5 -28q-37 0 -65 27t-28 68z" />
<glyph unicode="/" horiz-adv-x="800" d="M-165 -238l1040 1672h132l-1041 -1672h-131z" />
<glyph unicode="0" horiz-adv-x="1111" d="M115 447q0 269 88 511t230 371t317 129q162 0 250.5 -109.5t88.5 -313.5q0 -290 -82 -536t-224 -385t-319 -139q-169 0 -259 123.5t-90 348.5zM245 450q0 -189 62.5 -277t172.5 -88q130 0 236 123t176 354.5t70 462.5q0 156 -58 240t-166 84q-105 0 -194.5 -74.5 t-155.5 -210.5t-104.5 -303t-38.5 -311z" />
<glyph unicode="1" horiz-adv-x="818" d="M183 1187l26 126l499 145l-308 -1458h-127l276 1293z" />
<glyph unicode="2" horiz-adv-x="978" d="M-73 0l14 69q24 110 54.5 171t81 116t143 124t235.5 158q174 110 251.5 180t111.5 141.5t34 167.5q0 101 -64.5 161.5t-178.5 60.5q-167 0 -360 -139l31 144q153 104 352 104q161 0 256 -84.5t95 -230.5q0 -123 -37.5 -208t-124.5 -166t-280 -203q-158 -98 -252.5 -167.5 t-139.5 -130.5t-66 -155h711l-24 -113h-843z" />
<glyph unicode="3" horiz-adv-x="940" d="M-55 54l29 126q64 -43 155 -69t168 -26q183 0 285.5 84t102.5 241q0 134 -89 204.5t-269 70.5h-106l26 114h105q223 0 336.5 84.5t113.5 239.5q0 105 -65.5 165.5t-177.5 60.5q-151 0 -309 -87l25 130q143 66 302 66q164 0 259.5 -86.5t95.5 -231.5q0 -157 -98.5 -262 t-277.5 -138v-4q115 -20 186 -106.5t71 -210.5q0 -202 -141.5 -323t-383.5 -121q-86 0 -181.5 22.5t-161.5 56.5z" />
<glyph unicode="4" horiz-adv-x="1087" d="M21 357l24 114q228 208 470.5 476t400.5 487h136l-205 -963h224l-24 -114h-224l-76 -357h-124l76 357h-678zM195 471h528l159 748q-299 -377 -687 -748z" />
<glyph unicode="5" horiz-adv-x="962" d="M11 26l29 127q50 -30 129 -49t151 -19q128 0 221.5 47t143.5 134t50 201q0 279 -320 279q-114 0 -234 -12l190 700h626l-24 -117h-514l-128 -465l117 5q197 0 307 -97t110 -272q0 -150 -66.5 -267.5t-191.5 -181.5t-296 -64q-181 0 -300 51z" />
<glyph unicode="6" horiz-adv-x="1063" d="M129 479q0 266 99 496t267 356.5t375 126.5q122 0 226 -40l-25 -120q-100 51 -218 51q-142 0 -264.5 -85.5t-209 -245t-113.5 -338.5h4q58 100 153 158t211 58q165 0 260.5 -102t95.5 -281q0 -149 -61 -273.5t-168.5 -194.5t-240.5 -70q-185 0 -288 132.5t-103 371.5z M260 426q0 -154 72.5 -247.5t193.5 -93.5q94 0 171 54.5t120.5 152.5t43.5 210q0 131 -70 207.5t-191 76.5q-96 0 -174 -47.5t-122 -131t-44 -181.5z" />
<glyph unicode="7" horiz-adv-x="964" d="M97 0q99 271 286.5 585t510.5 732h-732l24 117h896l-14 -68q-279 -365 -419 -575t-241 -403t-169 -388h-142z" />
<glyph unicode="8" horiz-adv-x="1049" d="M46 339q0 157 98 277t266 161q-72 41 -115.5 111t-43.5 166q0 109 57 202.5t159.5 147.5t225.5 54q155 0 252 -86.5t97 -224.5q0 -139 -77.5 -236t-213.5 -142q93 -40 145.5 -124.5t52.5 -187.5q0 -131 -67.5 -242t-185.5 -174.5t-254 -63.5q-186 0 -291 96t-105 266z M181 343q0 -118 73.5 -186.5t198.5 -68.5q96 0 180 50t132.5 135.5t48.5 184.5q0 115 -70 185t-185 70q-101 0 -188.5 -48.5t-138.5 -134t-51 -187.5zM380 1043q0 -99 60 -160.5t157 -61.5q78 0 151.5 42t117.5 114.5t44 155.5q0 96 -63.5 156t-164.5 60q-124 0 -213 -90.5 t-89 -215.5z" />
<glyph unicode="9" horiz-adv-x="1072" d="M61 15l20 120q100 -50 212 -50q229 0 389.5 178.5t210.5 476.5h-4q-58 -102 -152.5 -159t-205.5 -57q-109 0 -192 52t-128 144.5t-45 204.5q0 141 61 265t171 196t243 72q185 0 286.5 -132t101.5 -369q0 -266 -100.5 -501t-267.5 -358t-377 -123q-132 0 -223 40zM295 937 q0 -136 71.5 -219.5t187.5 -83.5q99 0 178.5 49t123.5 134.5t44 182.5q0 161 -71 255t-193 94q-95 0 -174 -56t-123 -151t-44 -205z" />
<glyph unicode=":" horiz-adv-x="451" d="M45 75q0 40 27 67t66 27q40 0 68 -27t28 -67q0 -39 -28.5 -67t-67.5 -28q-37 0 -65 27t-28 68zM229 951q0 40 28 66.5t65 26.5q39 0 67.5 -27t28.5 -66q0 -41 -29 -68.5t-67 -27.5q-37 0 -65 27t-28 69z" />
<glyph unicode=";" horiz-adv-x="451" d="M-70 -255l192 482h133l-219 -482h-106zM229 951q0 40 28 66.5t65 26.5q39 0 67.5 -27t28.5 -66q0 -41 -29 -68.5t-67 -27.5q-37 0 -65 27t-28 69z" />
<glyph unicode="&#x3c;" horiz-adv-x="1364" d="M227 570v37l846 474v-120l-662 -368v-4l662 -325v-120z" />
<glyph unicode="=" horiz-adv-x="1364" d="M244 341v107h922v-107h-922zM244 747v107h922v-107h-922zM357 651z" />
<glyph unicode="&#x3e;" horiz-adv-x="1364" d="M308 144v120l662 324v5l-662 367v121l844 -474v-37z" />
<glyph unicode="?" horiz-adv-x="814" d="M187 76q0 41 27.5 68t66.5 27q38 0 66.5 -27t28.5 -68q0 -40 -28 -67t-67 -27t-66.5 27.5t-27.5 66.5zM257 1268l23 132q134 60 272 60q146 0 236 -85.5t90 -224.5q0 -123 -63.5 -222.5t-205.5 -198.5q-103 -71 -145.5 -133.5t-67.5 -192.5h-119q27 153 79.5 236.5 t166.5 161.5q131 90 180.5 167t49.5 169q0 98 -60.5 156t-160.5 58q-131 0 -275 -83z" />
<glyph unicode="@" horiz-adv-x="1966" d="M217 567q0 248 117 452.5t324.5 320.5t452.5 116q215 0 378 -83t250 -235.5t87 -349.5q0 -159 -59 -299t-161.5 -222.5t-226.5 -82.5q-100 0 -154.5 52t-54.5 142l4 45h-4q-66 -118 -143 -178t-180 -60q-110 0 -177.5 81t-67.5 217q0 157 63 297t171 221.5t234 81.5 q162 0 211 -142h4l34 128h108l-125 -498q-27 -103 -27 -159q0 -68 26 -98.5t90 -30.5q134 0 230 145.5t96 342.5q0 275 -161 430t-459 155q-214 0 -391 -103t-276.5 -283t-99.5 -403q0 -313 175.5 -484t501.5 -171q131 0 260.5 28.5t210.5 67.5l-23 -111q-196 -84 -455 -84 q-366 0 -574.5 199t-208.5 555zM720 487q0 -92 42 -147.5t109 -55.5q98 0 177.5 77t130.5 216.5t51 231.5q0 88 -42.5 133.5t-120.5 45.5q-91 0 -171.5 -66.5t-128 -183t-47.5 -251.5z" />
<glyph unicode="A" horiz-adv-x="1247" d="M-93 0l842 1434h131l240 -1434h-135l-69 425h-612l-250 -425h-147zM370 544h527l-98 639q-7 54 -7 103h-4l-9 -22q-6 -16 -28 -57.5t-381 -662.5z" />
<glyph unicode="B" horiz-adv-x="1137" d="M75 0l303 1434h370q158 0 250 -84t92 -224q0 -151 -84.5 -253t-236.5 -131v-4q111 -21 175 -99.5t64 -194.5q0 -210 -136 -327t-377 -117h-420zM234 119h255q382 0 382 315q0 119 -80.5 184.5t-238.5 65.5h-201zM376 802h210q174 0 270.5 81t96.5 223q0 96 -61.5 152.5 t-176.5 56.5h-228z" />
<glyph unicode="C" horiz-adv-x="1301" d="M145 592q0 253 103.5 450.5t289.5 306.5t418 109q213 0 387 -93l-28 -138q-157 113 -370 113q-191 0 -342.5 -93.5t-236.5 -261.5t-85 -376q0 -243 124.5 -379t343.5 -136q207 0 384 101l-31 -141q-91 -42 -178 -60.5t-196 -18.5h-6q-265 0 -421 167.5t-156 449.5z" />
<glyph unicode="D" horiz-adv-x="1419" d="M75 0l306 1434h363q296 0 459 -153.5t163 -428.5q0 -255 -104 -448.5t-299.5 -298.5t-458.5 -105h-429zM232 119h279q334 0 526.5 192.5t192.5 530.5q0 473 -515 473h-228z" />
<glyph unicode="E" horiz-adv-x="1004" d="M75 0l303 1434h696l-25 -119h-563l-114 -535h522l-25 -119h-523l-115 -542h597l-24 -119h-729z" />
<glyph unicode="F" horiz-adv-x="975" d="M75 0l303 1434h696l-25 -121h-563l-116 -541h523l-25 -120h-524l-137 -652h-132z" />
<glyph unicode="G" horiz-adv-x="1415" d="M145 609q0 250 102 444t289 299.5t428 105.5q215 0 415 -94l-28 -134q-190 110 -408 110q-300 0 -481 -198t-181 -521q0 -248 129.5 -387.5t360.5 -139.5q149 0 280 54l97 460h-348l26 117h482l-138 -648q-193 -103 -412 -103q-184 0 -323.5 78t-214.5 224.5t-75 332.5z " />
<glyph unicode="H" horiz-adv-x="1415" d="M75 0l303 1434h133l-137 -644h780l138 644h132l-304 -1434h-132l141 669h-781l-140 -669h-133z" />
<glyph unicode="I" horiz-adv-x="503" d="M75 0l303 1434h133l-304 -1434h-132z" />
<glyph unicode="J" horiz-adv-x="680" d="M-102 6l24 126q19 -16 61.5 -27.5t69.5 -11.5q129 0 202 89.5t116 293.5l204 958h132l-203 -952q-59 -273 -165.5 -390t-292.5 -117q-29 0 -79.5 10.5t-68.5 20.5z" />
<glyph unicode="K" horiz-adv-x="1148" d="M75 0l303 1434h133l-143 -675h4l21 22l714 653h177l-788 -706l508 -728h-163l-452 666l-27 50h-4l-151 -716h-132z" />
<glyph unicode="L" horiz-adv-x="905" d="M75 0l303 1434h133l-278 -1314h573l-25 -120h-706z" />
<glyph unicode="M" horiz-adv-x="1692" d="M75 0l304 1434h137l277 -742q31 -86 37 -139h6q58 89 91 129l618 752h154l-305 -1434h-127l220 1034q24 109 56 224h-4q-4 -9 -11 -20.5t-82 -117.5l-614 -746h-56l-277 742q-3 10 -8.5 26.5t-10.5 35.5t-9.5 39.5t-5.5 40.5h-4q-5 -40 -19 -118t-241 -1140h-126z" />
<glyph unicode="N" horiz-adv-x="1492" d="M75 0l303 1434h129l564 -1138q24 -46 40 -94h4l19 123l236 1109h131l-305 -1434h-116l-578 1154q-20 40 -34 89h-5l-13 -84l-247 -1159h-128z" />
<glyph unicode="O" horiz-adv-x="1544" d="M145 590q0 245 101.5 443.5t277.5 311.5t393 113q259 0 415 -168.5t156 -440.5q0 -241 -98 -443.5t-272.5 -316.5t-395.5 -114q-265 0 -421 169.5t-156 445.5zM281 590q0 -231 119.5 -363.5t327.5 -132.5q180 0 320.5 94t221.5 273t81 382q0 230 -120 363.5t-322 133.5 q-177 0 -322.5 -97.5t-225.5 -271.5t-80 -381z" />
<glyph unicode="P" horiz-adv-x="1143" d="M75 0l303 1434h340q199 0 309.5 -99.5t110.5 -275.5q0 -231 -152.5 -365t-415.5 -134h-244l-119 -560h-132zM351 679h230q205 0 313 97t108 272q0 125 -79 196t-232 71h-205z" />
<glyph unicode="Q" horiz-adv-x="1544" d="M145 588q0 246 104.5 450.5t278.5 312t391 107.5q258 0 413.5 -166.5t155.5 -444.5q0 -209 -79 -395t-221.5 -308.5t-322.5 -154.5l266 -335h-173l-234 321q-268 2 -423.5 168t-155.5 445zM281 590q0 -231 118.5 -363.5t328.5 -132.5q179 0 321 96t222 270.5t80 380.5 q0 228 -119 363.5t-321 135.5q-177 0 -320.5 -96t-226.5 -270t-83 -384z" />
<glyph unicode="R" horiz-adv-x="1162" d="M75 0l303 1434h379q182 0 281.5 -92.5t99.5 -259.5q0 -178 -120 -294.5t-315 -130.5v-4q98 -37 137 -195l117 -458h-141l-106 430q-25 100 -78 148t-149 48h-143l-133 -626h-132zM365 744h235q188 0 295 88t107 240q0 111 -68 177t-199 66h-249z" />
<glyph unicode="S" horiz-adv-x="1018" d="M41 62l23 137q64 -44 158 -74.5t187 -30.5q152 0 235 68.5t83 190.5q0 85 -48.5 152.5t-183.5 165.5q-136 98 -192.5 189.5t-56.5 202.5q0 174 129.5 284.5t334.5 110.5q155 0 305 -59l-26 -135q-119 76 -290 76q-142 0 -228.5 -73t-86.5 -190q0 -93 46 -160t173 -160 q149 -108 205 -194t56 -193q0 -116 -55.5 -206t-160 -139.5t-247.5 -49.5q-92 0 -187 23t-173 64z" />
<glyph unicode="T" horiz-adv-x="1061" d="M217 1315l25 119h958l-26 -119h-410l-278 -1315h-133l279 1315h-415z" />
<glyph unicode="U" horiz-adv-x="1366" d="M165 413q0 107 22 209l173 812h133l-168 -789q-28 -127 -28 -217q0 -167 88.5 -250.5t244.5 -83.5q181 0 285 104t154 334l192 902h132l-187 -880q-67 -314 -205 -446.5t-390 -132.5q-206 0 -326 118t-120 320z" />
<glyph unicode="V" horiz-adv-x="1284" d="M238 1434h138l165 -1136q7 -43 7 -130h4q11 30 37.5 78t689.5 1188h151l-856 -1434h-117z" />
<glyph unicode="W" horiz-adv-x="1830" d="M207 1434h138l81 -1123l4 -126h4q22 63 55 126l579 1123h98l85 -1126l6 -124h4q34 84 73 164l526 1086h146l-719 -1434h-126l-91 1072l-3 137h-5q-19 -77 -50 -135l-557 -1074h-129z" />
<glyph unicode="X" horiz-adv-x="1179" d="M-71 0l626 730q-19 56 -147 367l-138 337h152l201 -537q16 -40 28 -88h4q23 43 62 89l443 536h157l-597 -712l17 -44l271 -678h-151l-208 548l-14 45l-13 46h-4q-29 -51 -65 -93l-456 -546h-168z" />
<glyph unicode="Y" horiz-adv-x="1119" d="M231 1434h140l182 -674l22 -98h4l53 83l493 689h151l-654 -889l-114 -545h-134l114 542z" />
<glyph unicode="Z" horiz-adv-x="1167" d="M-60 0l9 46l1110 1268h-772l25 120h986l-8 -40l-1117 -1274h829l-25 -120h-1037z" />
<glyph unicode="[" horiz-adv-x="604" d="M34 -326l374 1760h340l-20 -100h-224l-333 -1560h224l-21 -100h-340z" />
<glyph unicode="\" horiz-adv-x="791" d="M181 1434h115l344 -1674h-111z" />
<glyph unicode="]" horiz-adv-x="604" d="M-143 -326l20 100h223l333 1559h-223l20 101h341l-374 -1760h-340z" />
<glyph unicode="^" horiz-adv-x="1364" d="M279 667l402 791h52l418 -791h-121l-319 615h-5l-307 -615h-120z" />
<glyph unicode="_" horiz-adv-x="850" d="M-173 -297l24 119h850l-24 -119h-850z" />
<glyph unicode="`" horiz-adv-x="661" d="M285 1530h123l199 -328h-101z" />
<glyph unicode="a" d="M80 347q0 191 82.5 357.5t225 255.5t318.5 89q129 0 322 -39l-137 -661q-14 -66 -28.5 -180t-14.5 -169h-130q4 105 34 276h-4q-92 -162 -180.5 -231.5t-196.5 -69.5q-138 0 -214.5 97.5t-76.5 274.5zM209 356q0 -271 192 -271q81 0 166 70.5t155 199.5t99 260l62 303 q-95 21 -193 21q-136 0 -245 -74t-172.5 -210t-63.5 -299z" />
<glyph unicode="b" d="M67 63l308 1453h126l-109 -512l-53 -236h3q154 281 376 281q143 0 217 -96.5t74 -277.5q0 -195 -81 -359.5t-219.5 -252.5t-310.5 -88q-81 0 -174.5 24.5t-156.5 63.5zM209 136q89 -51 203 -51q131 0 238.5 77.5t168.5 212.5t61 291q0 139 -48.5 206t-150.5 67 q-84 0 -168.5 -71.5t-151.5 -196.5t-91 -247z" />
<glyph unicode="c" horiz-adv-x="863" d="M80 387q0 182 72.5 335.5t201.5 240t284 86.5q145 0 244 -68l-30 -130q-90 88 -228 88q-117 0 -213.5 -74t-150.5 -201t-54 -269q0 -148 68 -229t189 -81q123 0 265 103l-30 -138q-80 -43 -135 -59t-120 -16q-170 0 -266.5 110.5t-96.5 301.5z" />
<glyph unicode="d" d="M80 349q0 191 81 355t222.5 254.5t315.5 90.5q96 0 206 -28l105 495h124l-252 -1196q-9 -38 -21.5 -156t-12.5 -164h-130q4 100 33 273h-4q-84 -148 -173 -223t-203 -75q-137 0 -214 96.5t-77 277.5zM209 361q0 -276 193 -276q80 0 164.5 70.5t154 196t100.5 268.5 l61 289q-92 30 -193 30q-136 0 -243.5 -73.5t-172 -209.5t-64.5 -295z" />
<glyph unicode="e" horiz-adv-x="975" d="M80 401q0 173 74.5 323.5t201.5 237.5t273 87q139 0 222.5 -69.5t83.5 -185.5q0 -177 -173.5 -263t-550.5 -90l-2 -53q0 -144 76 -223.5t210 -79.5q137 0 294 92l-24 -126q-135 -76 -288 -76q-191 0 -294 112t-103 314zM226 549q298 0 439 57t141 179q0 75 -50.5 114.5 t-141.5 39.5q-136 0 -245 -109.5t-143 -280.5z" />
<glyph unicode="f" horiz-adv-x="563" d="M10 -340l269 1255h-181l25 109h180l41 192q69 324 354 324q65 0 123 -18l-22 -116q-41 25 -113 25q-88 0 -141.5 -58.5t-79.5 -182.5l-36 -166h258l-26 -109h-257l-268 -1255h-126z" />
<glyph unicode="g" d="M-29 -407l24 123q146 -85 281 -85q170 0 271 95.5t152 316.5l51 230h-4q-87 -152 -175 -225t-199 -73q-138 0 -215 96t-77 279q0 191 80.5 352.5t222.5 254t313 92.5q69 0 166 -11.5t166 -26.5l-199 -938q-65 -299 -200.5 -426.5t-369.5 -127.5q-152 0 -288 74zM209 362 q0 -277 187 -277q87 0 174.5 73.5t155.5 202t95 253.5l62 304q-88 21 -202 21q-130 0 -238.5 -74.5t-171 -209t-62.5 -293.5z" />
<glyph unicode="h" horiz-adv-x="1120" d="M53 0l324 1516h125l-161 -758h4q183 291 409 291q128 0 192 -72.5t64 -209.5q0 -14 -4 -42t-12 -76.5t-134 -648.5h-127l123 594q25 116 25 158q0 187 -162 187q-81 0 -176 -67.5t-166 -173.5t-93 -212l-104 -486h-127z" />
<glyph unicode="i" horiz-adv-x="475" d="M90 142q0 55 23 165l152 717h127l-153 -721q-20 -102 -20 -141q0 -71 77 -71q46 0 83 14l-21 -102q-50 -20 -107 -20q-78 0 -119.5 40.5t-41.5 118.5zM311 1373q0 39 27 63.5t64 24.5t64 -24.5t27 -63.5t-27.5 -65.5t-63.5 -26.5q-38 0 -64.5 27.5t-26.5 64.5z" />
<glyph unicode="j" horiz-adv-x="457" d="M-402 -446l24 122q66 -48 137 -48q116 0 185.5 90.5t112.5 295.5l215 1010h126l-208 -979q-61 -285 -164 -405.5t-281 -120.5q-40 0 -83.5 11.5t-63.5 23.5zM316 1373q0 39 27.5 63.5t64.5 24.5t63.5 -24.5t26.5 -63.5q0 -38 -26 -65t-64 -27q-20 0 -36 14 q-24 8 -40 28.5t-16 49.5z" />
<glyph unicode="k" horiz-adv-x="943" d="M53 0l324 1516h125l-203 -952h4l542 460h169l-587 -489l384 -535h-150l-365 529h-4l-112 -529h-127z" />
<glyph unicode="l" horiz-adv-x="475" d="M90 142q0 62 23 165l257 1209h127l-258 -1213q-20 -102 -20 -141q0 -71 77 -71q46 0 83 14l-21 -102q-50 -20 -107 -20q-78 0 -119.5 40.5t-41.5 118.5z" />
<glyph unicode="m" horiz-adv-x="1728" d="M53 0l158 735q40 194 48 289h123q-14 -107 -43 -268h4q182 293 391 293q124 0 180.5 -74t58.5 -218q87 139 191 215.5t213 76.5q241 0 241 -278q0 -59 -30 -204l-121 -567h-125l122 594q25 115 25 167q0 178 -147 178q-73 0 -160.5 -65t-159 -173t-94.5 -210l-104 -491 h-127l124 594q25 115 25 158q0 187 -147 187q-73 0 -161.5 -66t-160.5 -175.5t-93 -209.5l-104 -488h-127z" />
<glyph unicode="n" horiz-adv-x="1126" d="M57 0l158 735q28 139 48 289h123q-14 -107 -43 -268h4q87 141 193 217t218 76q257 0 257 -278q0 -55 -32 -204l-120 -567h-126l123 594q24 122 24 158q0 187 -161 187q-80 0 -175 -67.5t-166.5 -173t-93.5 -210.5l-104 -488h-127z" />
<glyph unicode="o" horiz-adv-x="1077" d="M80 375q0 186 70.5 341.5t198 244t280.5 88.5q170 0 269 -106.5t99 -292.5q0 -189 -70.5 -344.5t-196 -243t-281.5 -87.5q-171 0 -270 105.5t-99 294.5zM209 383q0 -140 67 -219t182 -79q113 0 208 74t148.5 202t53.5 280q0 145 -66.5 221.5t-182.5 76.5 q-171 0 -290.5 -160.5t-119.5 -395.5z" />
<glyph unicode="p" d="M-49 -478l250 1182q12 62 22.5 172.5t10.5 147.5h128q0 -35 -13 -135t-21 -141h4q166 301 387 301q139 0 214.5 -95t75.5 -279q0 -191 -82.5 -355.5t-222 -254.5t-307.5 -90q-112 0 -216 39l-104 -492h-126zM203 125q88 -40 208 -40q131 0 239 77t169 210.5t61 290.5 q0 276 -196 276q-82 0 -169.5 -74t-156 -199t-95.5 -256z" />
<glyph unicode="q" d="M80 349q0 191 82 355.5t222.5 254.5t319.5 90q154 0 323 -50l-313 -1477h-126q142 667 160 735h-3q-81 -139 -171.5 -210.5t-201.5 -71.5q-140 0 -216 96t-76 278zM209 361q0 -276 193 -276q81 0 168 73t154 195.5t97 260.5l61 295q-99 30 -194 30q-135 0 -244 -75.5 t-172 -211.5t-63 -291z" />
<glyph unicode="r" horiz-adv-x="704" d="M55 0l143 672q47 211 58 352h125l-34 -234h4q68 130 142.5 194.5t171.5 64.5q57 0 107 -21l-23 -135h-4q-54 35 -111 35q-109 0 -210.5 -135.5t-146.5 -342.5l-96 -450h-126z" />
<glyph unicode="s" horiz-adv-x="801" d="M22 41l26 125q47 -35 117.5 -58t134.5 -23q110 0 167.5 44.5t57.5 130.5q0 59 -36 101.5t-131 100.5q-107 64 -155.5 129t-48.5 152q0 132 97 219t252 87q57 0 124 -13t118 -38l-26 -123q-99 64 -222 64q-97 0 -155.5 -50.5t-58.5 -131.5q0 -59 32 -102t128 -100 q116 -71 163.5 -135.5t47.5 -147.5q0 -136 -99 -216.5t-270 -80.5q-69 0 -141.5 18.5t-121.5 47.5z" />
<glyph unicode="t" horiz-adv-x="633" d="M98 915l25 109h176l55 259l135 41l-64 -300h267l-25 -109h-265l-127 -597q-18 -81 -18 -132q0 -50 21 -73t70 -23q47 0 153 47l-25 -114q-34 -17 -81.5 -29.5t-81.5 -12.5q-184 0 -184 190q0 59 19 142l129 602h-179z" />
<glyph unicode="u" horiz-adv-x="1122" d="M108 257q0 29 10.5 94t20.5 105l121 568h126l-124 -594q-24 -122 -24 -158q0 -187 161 -187q78 0 168.5 62.5t167 171.5t100.5 217l104 488h126l-157 -736q-34 -156 -48 -288h-123l43 268h-4q-87 -141 -193 -217t-217 -76q-130 0 -194 73.5t-64 208.5z" />
<glyph unicode="v" horiz-adv-x="947" d="M138 1024h127l114 -733q12 -79 12 -142h4q31 71 60 120l437 755h143l-617 -1024h-109z" />
<glyph unicode="w" horiz-adv-x="1427" d="M134 1024h124l58 -805v-12v-14l-4 -53h7q16 51 37 92l418 792h101l59 -823l-5 -62h8q16 55 36 92l395 793h130l-531 -1024h-119l-61 748l-2 38l4 58h-4q-5 -14 -14.5 -36.5t-424.5 -807.5h-120z" />
<glyph unicode="x" horiz-adv-x="906" d="M-75 0l456 507l-229 517h138l158 -398l14 -44h5l58 76l308 366h147l-461 -525l234 -499l-142 -1q-135 326 -174 426h-5l-58 -76l-294 -349h-155z" />
<glyph unicode="y" horiz-adv-x="957" d="M-164 -466l25 118q32 -18 79 -18q72 0 129.5 42t112.5 130l129 203l-183 1015h129l134 -809l7 -77h4l27 53l496 833h142l-742 -1205q-107 -171 -195.5 -235.5t-201.5 -64.5q-56 0 -92 15z" />
<glyph unicode="z" horiz-adv-x="939" d="M-63 0l9 48l822 867h-584l24 109h788l-7 -40l-828 -875h625l-24 -109h-825z" />
<glyph unicode="{" horiz-adv-x="604" d="M76 519l20 86q89 12 136 60.5t72 164.5l64 298q32 155 113 229t228 76l-20 -97q-86 -2 -134 -53t-71 -161l-63 -292q-25 -115 -73 -181.5t-128 -91.5v-4q96 -38 96 -175q0 -47 -11 -97l-59 -271q-14 -59 -14 -104q0 -56 29 -87t98 -36l-20 -93q-116 5 -170 60.5 t-54 147.5q0 31 11 90l61 290q11 50 11 91q0 131 -122 150z" />
<glyph unicode="|" horiz-adv-x="476" d="M179 -481v2048h118v-2048h-118z" />
<glyph unicode="}" horiz-adv-x="604" d="M-104 -309l19 95q88 4 135.5 55t70.5 160l61 291q24 114 72.5 181t130.5 93v4q-97 38 -97 175q0 39 11 98l58 270q14 58 14 103q0 57 -28 88t-98 35l19 94q225 -10 225 -208q0 -40 -11 -90l-61 -290q-11 -48 -11 -91q0 -133 122 -149l-20 -88q-90 -10 -136.5 -60.5 t-71.5 -164.5l-64 -297q-36 -163 -117.5 -233.5t-222.5 -70.5z" />
<glyph unicode="~" horiz-adv-x="1364" d="M247 461q6 128 73.5 200.5t182.5 72.5q62 0 112.5 -23.5t100.5 -59.5q87 -65 118 -78t72 -13q65 0 102.5 45.5t42.5 123.5h104q-6 -128 -74 -200.5t-181 -72.5q-63 0 -117 26t-112 69q-50 38 -88.5 57t-80.5 19q-140 0 -151 -166h-104z" />
<glyph unicode="&#xa2;" horiz-adv-x="1078" d="M194 567q0 177 69 326.5t190.5 238t270.5 96.5l39 181h108l-39 -185q125 -17 190 -62l-32 -135q-64 72 -182 88l-181 -845q119 12 239 100l-29 -139q-116 -67 -233 -74l-44 -210h-109l46 215q-139 23 -221 132t-82 273zM323 575q0 -123 52.5 -199.5t145.5 -97.5l180 835 q-164 -22 -271 -178.5t-107 -359.5zM659 1434z" />
<glyph unicode="&#xa3;" horiz-adv-x="1078" d="M7 0l24 109q252 81 307 341l42 200h-213l23 113h214l60 276q45 202 161 310.5t285 108.5q121 0 205 -40l-26 -121q-79 52 -185 52q-251 0 -320 -331l-55 -255h303l-24 -113h-302l-43 -196q-57 -251 -258 -345h709l-24 -109h-883z" />
<glyph unicode="&#xa5;" horiz-adv-x="1078" d="M74 314l23 109h359l47 228h-358l24 109h318l-223 674h132l168 -551q15 -52 25 -102h9q22 43 68 107l395 546h144l-515 -674h317l-23 -109h-355l-48 -228h355l-23 -109h-355l-67 -314h-125l66 314h-358z" />
<glyph unicode="&#xa8;" horiz-adv-x="661" d="M220 1286q0 33 24.5 58t58.5 25q36 0 62 -24t26 -59t-25.5 -59.5t-61.5 -24.5q-34 0 -59 23.5t-25 60.5zM579 1286q0 32 23 57.5t59 25.5q35 0 61 -24t26 -59q0 -36 -25 -60t-60 -24t-59.5 23t-24.5 61z" />
<glyph unicode="&#xa9;" horiz-adv-x="1897" d="M239 714q0 206 101 377t274 269t374 98q204 0 377 -98.5t272 -269.5t99 -372q0 -202 -99 -373t-271.5 -270.5t-377.5 -99.5q-206 0 -378.5 97t-271.5 268t-99 374zM323 715q0 -180 89 -334t242.5 -242t332.5 -88q174 0 327 86t245 241t92 337q0 180 -88.5 333t-243.5 242 t-332 89q-182 0 -335 -89t-241 -243.5t-88 -331.5zM525 697q0 154 64.5 275.5t182 189t262.5 67.5q59 0 129.5 -15.5t108.5 -38.5v-115q-45 29 -116 46.5t-138 17.5q-105 0 -192.5 -51.5t-136.5 -145t-49 -211.5q0 -184 110.5 -299t281.5 -115q64 0 134 21.5t110 50.5v-106 q-74 -39 -130.5 -54.5t-127.5 -15.5q-209 0 -351 141.5t-142 357.5z" />
<glyph unicode="&#xab;" horiz-adv-x="996" d="M96 538l356 344h146l-369 -354l212 -326h-129zM454 538l357 344h146l-371 -354l212 -326h-128z" />
<glyph unicode="&#xad;" horiz-adv-x="817" d="M137 532l25 108h547l-25 -108h-547z" />
<glyph unicode="&#xae;" horiz-adv-x="1813" d="M256 853q0 251 176.5 426t423.5 175q248 0 425 -175.5t177 -422.5q0 -250 -175.5 -425.5t-425.5 -175.5t-425.5 175t-175.5 423zM345 853q0 -213 147.5 -364.5t360.5 -151.5q214 0 365 151.5t151 364.5q0 214 -151.5 366.5t-364.5 152.5q-211 0 -359.5 -152.5 t-148.5 -366.5zM619 482v772h226q128 0 202 -55.5t74 -147.5q0 -177 -202 -214v-3q58 -14 128 -140l102 -212h-109l-92 190q-40 86 -77.5 115.5t-84.5 29.5h-70v-335h-97zM716 898h132q78 0 125 35t47 105q0 136 -191 136h-113v-276z" />
<glyph unicode="&#xb4;" horiz-adv-x="661" d="M323 1202l289 328h134l-314 -328h-109z" />
<glyph unicode="&#xb8;" horiz-adv-x="661" d="M38 -427l16 81q43 -9 83 -9q168 0 168 92q0 82 -125 82l-59 -4l39 185h83l-24 -111q86 0 137 -36t51 -105q0 -86 -69.5 -134.5t-206.5 -48.5q-40 0 -93 8z" />
<glyph unicode="&#xbb;" horiz-adv-x="996" d="M39 202l371 353l-212 327h129l215 -336l-356 -344h-147zM398 202l370 353l-214 327h128l219 -336l-357 -344h-146z" />
<glyph unicode="&#xc2;" horiz-adv-x="1247" d="M-93 0l842 1434h131l240 -1434h-135l-69 425h-612l-250 -425h-147zM370 544h527l-98 639q-7 54 -7 103h-4l-9 -22q-6 -16 -28 -57.5t-381 -662.5zM563 1549l282 334h86l151 -334h-95l-113 239l-209 -239h-102z" />
<glyph unicode="&#xc7;" horiz-adv-x="1301" d="M145 592q0 253 103.5 450.5t289.5 306.5t418 109q213 0 387 -93l-28 -138q-157 113 -370 113q-191 0 -342.5 -93.5t-236.5 -261.5t-85 -376q0 -243 124.5 -379t343.5 -136q207 0 384 101l-31 -141q-91 -42 -178 -60.5t-196 -18.5h-6q-265 0 -421 167.5t-156 449.5z M499 -427l16 81q43 -9 83 -9q168 0 168 92q0 82 -125 82l-59 -4l39 185h83l-24 -111q86 0 137 -36t51 -105q0 -86 -69.5 -134.5t-206.5 -48.5q-40 0 -93 8z" />
<glyph unicode="&#xce;" horiz-adv-x="503" d="M75 0l303 1434h133l-304 -1434h-132zM199 1551l282 334h86l151 -334h-95l-113 239l-209 -239h-102z" />
<glyph unicode="&#xd6;" horiz-adv-x="1544" d="M145 590q0 245 101.5 443.5t277.5 311.5t393 113q259 0 415 -168.5t156 -440.5q0 -241 -98 -443.5t-272.5 -316.5t-395.5 -114q-265 0 -421 169.5t-156 445.5zM281 590q0 -231 119.5 -363.5t327.5 -132.5q180 0 320.5 94t221.5 273t81 382q0 230 -120 363.5t-322 133.5 q-177 0 -322.5 -97.5t-225.5 -271.5t-80 -381zM675 1632q0 33 24.5 58t58.5 25q36 0 62 -24t26 -59t-25.5 -59.5t-61.5 -24.5q-34 0 -59 23.5t-25 60.5zM1034 1632q0 32 23 57.5t59 25.5q35 0 61 -24t26 -59q0 -36 -25 -60t-60 -24t-59.5 23t-24.5 61z" />
<glyph unicode="&#xdb;" horiz-adv-x="1366" d="M165 413q0 107 22 209l173 812h133l-168 -789q-28 -127 -28 -217q0 -167 88.5 -250.5t244.5 -83.5q181 0 285 104t154 334l192 902h132l-187 -880q-67 -314 -205 -446.5t-390 -132.5q-206 0 -326 118t-120 320zM630 1551l282 334h86l151 -334h-95l-113 239l-209 -239 h-102z" />
<glyph unicode="&#xdc;" horiz-adv-x="1366" d="M165 413q0 107 22 209l173 812h133l-168 -789q-28 -127 -28 -217q0 -167 88.5 -250.5t244.5 -83.5q181 0 285 104t154 334l192 902h132l-187 -880q-67 -314 -205 -446.5t-390 -132.5q-206 0 -326 118t-120 320zM623 1635q0 33 24.5 58t58.5 25q36 0 62 -24t26 -59 t-25.5 -59.5t-61.5 -24.5q-34 0 -59 23.5t-25 60.5zM982 1635q0 32 23 57.5t59 25.5q35 0 61 -24t26 -59q0 -36 -25 -60t-60 -24t-59.5 23t-24.5 61z" />
<glyph unicode="&#xe2;" d="M80 347q0 191 82.5 357.5t225 255.5t318.5 89q129 0 322 -39l-137 -661q-14 -66 -28.5 -180t-14.5 -169h-130q4 105 34 276h-4q-92 -162 -180.5 -231.5t-196.5 -69.5q-138 0 -214.5 97.5t-76.5 274.5zM209 356q0 -271 192 -271q81 0 166 70.5t155 199.5t99 260l62 303 q-95 21 -193 21q-136 0 -245 -74t-172.5 -210t-63.5 -299zM451 1202l282 334h86l151 -334h-95l-113 239l-209 -239h-102z" />
<glyph unicode="&#xe7;" horiz-adv-x="863" d="M80 387q0 182 72.5 335.5t201.5 240t284 86.5q145 0 244 -68l-30 -130q-90 88 -228 88q-117 0 -213.5 -74t-150.5 -201t-54 -269q0 -148 68 -229t189 -81q123 0 265 103l-30 -138q-80 -43 -135 -59t-120 -16q-170 0 -266.5 110.5t-96.5 301.5zM228 -427l16 81 q43 -9 83 -9q168 0 168 92q0 82 -125 82l-59 -4l39 185h83l-24 -111q86 0 137 -36t51 -105q0 -86 -69.5 -134.5t-206.5 -48.5q-40 0 -93 8z" />
<glyph unicode="&#xee;" horiz-adv-x="475" d="M90 142q0 62 23 165l152 717h127l-153 -721q-20 -102 -20 -141q0 -71 77 -71q46 0 83 14l-21 -102q-50 -20 -107 -20q-78 0 -119.5 40.5t-41.5 118.5zM105 1202l282 334h86l151 -334h-95l-113 239l-209 -239h-102z" />
<glyph unicode="&#xf6;" horiz-adv-x="1077" d="M80 375q0 186 70.5 341.5t198 244t280.5 88.5q170 0 269 -106.5t99 -292.5q0 -189 -70.5 -344.5t-196 -243t-281.5 -87.5q-171 0 -270 105.5t-99 294.5zM209 383q0 -140 67 -219t182 -79q113 0 208 74t148.5 202t53.5 280q0 145 -66.5 221.5t-182.5 76.5 q-171 0 -290.5 -160.5t-119.5 -395.5zM393 1286q0 33 24.5 58t58.5 25q36 0 62 -24t26 -59t-25.5 -59.5t-61.5 -24.5q-34 0 -59 23.5t-25 60.5zM752 1286q0 32 23 57.5t59 25.5q35 0 61 -24t26 -59q0 -36 -25 -60t-60 -24t-59.5 23t-24.5 61z" />
<glyph unicode="&#xfb;" horiz-adv-x="1122" d="M108 257q0 29 10.5 94t20.5 105l121 568h126l-124 -594q-24 -122 -24 -158q0 -187 161 -187q78 0 168.5 62.5t167 171.5t100.5 217l104 488h126l-157 -736q-34 -156 -48 -288h-123l43 268h-4q-87 -141 -193 -217t-217 -76q-130 0 -194 73.5t-64 208.5zM446 1202l282 334 h86l151 -334h-95l-113 239l-209 -239h-102z" />
<glyph unicode="&#xfc;" horiz-adv-x="1122" d="M108 257q0 29 10.5 94t20.5 105l121 568h126l-124 -594q-24 -122 -24 -158q0 -187 161 -187q78 0 168.5 62.5t167 171.5t100.5 217l104 488h126l-157 -736q-34 -156 -48 -288h-123l43 268h-4q-87 -141 -193 -217t-217 -76q-130 0 -194 73.5t-64 208.5zM455 1286 q0 33 24.5 58t58.5 25q36 0 62 -24t26 -59t-25.5 -59.5t-61.5 -24.5q-34 0 -59 23.5t-25 60.5zM814 1286q0 32 23 57.5t59 25.5q35 0 61 -24t26 -59q0 -36 -25 -60t-60 -24t-59.5 23t-24.5 61z" />
<glyph unicode="&#x11e;" horiz-adv-x="1415" d="M145 609q0 250 102 444t289 299.5t428 105.5q215 0 415 -94l-28 -134q-190 110 -408 110q-300 0 -481 -198t-181 -521q0 -248 129.5 -387.5t360.5 -139.5q149 0 280 54l97 460h-348l26 117h482l-138 -648q-193 -103 -412 -103q-184 0 -323.5 78t-214.5 224.5t-75 332.5z M732 1765l3 33h93l-2 -23q0 -65 40.5 -99.5t108.5 -34.5q79 0 129 36.5t79 120.5h98q-36 -119 -115.5 -181.5t-194.5 -62.5q-109 0 -174 56.5t-65 154.5z" />
<glyph unicode="&#x11f;" d="M-29 -407l24 123q146 -85 281 -85q170 0 271 95.5t152 316.5l51 230h-4q-87 -152 -175 -225t-199 -73q-138 0 -215 96t-77 279q0 191 80.5 352.5t222.5 254t313 92.5q69 0 166 -11.5t166 -26.5l-199 -938q-65 -299 -200.5 -426.5t-369.5 -127.5q-152 0 -288 74zM209 362 q0 -277 187 -277q87 0 174.5 73.5t155.5 202t95 253.5l62 304q-88 21 -202 21q-130 0 -238.5 -74.5t-171 -209t-62.5 -293.5zM484 1413l3 33h93l-2 -23q0 -65 40.5 -99.5t108.5 -34.5q79 0 129 36.5t79 120.5h98q-36 -119 -115.5 -181.5t-194.5 -62.5q-109 0 -174 56.5 t-65 154.5z" />
<glyph unicode="&#x130;" horiz-adv-x="503" d="M75 0l303 1434h133l-304 -1434h-132zM391 1659q0 38 26 61t60 23q35 0 61.5 -23t26.5 -61q0 -37 -25 -62.5t-62 -25.5t-62 26t-25 62z" />
<glyph unicode="&#x131;" horiz-adv-x="475" d="M90 142q0 62 23 165l152 717h127l-153 -721q-20 -102 -20 -141q0 -71 77 -71q46 0 83 14l-21 -102q-50 -20 -107 -20q-78 0 -119.5 40.5t-41.5 118.5z" />
<glyph unicode="&#x15e;" horiz-adv-x="1018" d="M41 62l23 137q64 -44 158 -74.5t187 -30.5q152 0 235 68.5t83 190.5q0 85 -48.5 152.5t-183.5 165.5q-136 98 -192.5 189.5t-56.5 202.5q0 174 129.5 284.5t334.5 110.5q155 0 305 -59l-26 -135q-119 76 -290 76q-142 0 -228.5 -73t-86.5 -190q0 -93 46 -160t173 -160 q149 -108 205 -194t56 -193q0 -116 -55.5 -206t-160 -139.5t-247.5 -49.5q-92 0 -187 23t-173 64zM258 -427l16 81q43 -9 83 -9q168 0 168 92q0 82 -125 82l-59 -4l39 185h83l-24 -111q86 0 137 -36t51 -105q0 -86 -69.5 -134.5t-206.5 -48.5q-40 0 -93 8z" />
<glyph unicode="&#x15f;" horiz-adv-x="801" d="M22 41l26 125q47 -35 117.5 -58t134.5 -23q110 0 167.5 44.5t57.5 130.5q0 59 -36 101.5t-131 100.5q-107 64 -155.5 129t-48.5 152q0 132 97 219t252 87q57 0 124 -13t118 -38l-26 -123q-99 64 -222 64q-97 0 -155.5 -50.5t-58.5 -131.5q0 -59 32 -102t128 -100 q116 -71 163.5 -135.5t47.5 -147.5q0 -136 -99 -216.5t-270 -80.5q-69 0 -141.5 18.5t-121.5 47.5zM135 -427l16 81q43 -9 83 -9q168 0 168 92q0 82 -125 82l-59 -4l39 185h83l-24 -111q86 0 137 -36t51 -105q0 -86 -69.5 -134.5t-206.5 -48.5q-40 0 -93 8z" />
<glyph unicode="&#x18f;" horiz-adv-x="1489" d="M120 525q0 120 28 252h1142l6 87q0 218 -115 346.5t-317 128.5q-225 0 -407 -91l30 139q161 71 395 71q256 0 403.5 -157t147.5 -428q0 -253 -99 -462t-276.5 -322.5t-403.5 -113.5q-253 0 -393.5 146t-140.5 404zM253 526q0 -199 107.5 -315.5t297.5 -116.5 q239 0 402.5 150.5t213.5 414.5h-1009q-12 -62 -12 -133z" />
<glyph unicode="&#x259;" horiz-adv-x="975" d="M40 230q0 178 173 263.5t550 89.5l2 27v26q0 144 -76 223.5t-209 79.5q-139 0 -294 -92l24 126q132 76 288 76q187 0 291.5 -111t104.5 -315q0 -175 -73 -323t-200 -236.5t-275 -88.5q-141 0 -223.5 70t-82.5 185zM168 239q0 -75 50.5 -114.5t141.5 -39.5q135 0 245 109 t144 281q-300 0 -440.5 -57.5t-140.5 -178.5z" />
<glyph unicode="&#x2c6;" horiz-adv-x="661" d="M211 1202l282 334h86l151 -334h-95l-113 239l-209 -239h-102z" />
<glyph unicode="&#x2da;" horiz-adv-x="661" d="M305 1369q0 84 58 137.5t147 53.5t144.5 -53t55.5 -134t-58.5 -136t-144.5 -55q-88 0 -145 52.5t-57 134.5zM387 1372q0 -54 34.5 -85t85.5 -31q53 0 87.5 33t34.5 83q0 52 -34 83t-88 31t-87 -31.5t-33 -82.5z" />
<glyph unicode="&#x2dc;" horiz-adv-x="661" d="M161 1202q14 105 72 163t148 58q43 0 73 -18t55.5 -39.5t51.5 -39.5t61 -18q45 0 77 34.5t43 96.5h84q-16 -103 -72.5 -162t-142.5 -59q-47 0 -77.5 17.5t-56 39t-50.5 39t-59 17.5q-101 0 -124 -129h-83z" />
<glyph unicode="&#x2000;" horiz-adv-x="942" />
<glyph unicode="&#x2001;" horiz-adv-x="1885" />
<glyph unicode="&#x2002;" horiz-adv-x="942" />
<glyph unicode="&#x2003;" horiz-adv-x="1885" />
<glyph unicode="&#x2004;" horiz-adv-x="628" />
<glyph unicode="&#x2005;" horiz-adv-x="471" />
<glyph unicode="&#x2006;" horiz-adv-x="314" />
<glyph unicode="&#x2007;" horiz-adv-x="314" />
<glyph unicode="&#x2008;" horiz-adv-x="235" />
<glyph unicode="&#x2009;" horiz-adv-x="377" />
<glyph unicode="&#x200a;" horiz-adv-x="104" />
<glyph unicode="&#x2010;" horiz-adv-x="817" d="M137 532l25 108h547l-25 -108h-547z" />
<glyph unicode="&#x2011;" horiz-adv-x="817" d="M137 532l25 108h547l-25 -108h-547z" />
<glyph unicode="&#x2012;" horiz-adv-x="817" d="M137 532l25 108h547l-25 -108h-547z" />
<glyph unicode="&#x2013;" horiz-adv-x="1024" d="M6 532l22 108h1024l-22 -108h-1024z" />
<glyph unicode="&#x2014;" horiz-adv-x="2048" d="M6 532l22 108h2048l-22 -108h-2048z" />
<glyph unicode="&#x2018;" horiz-adv-x="422" d="M219 986l177 448h96l-147 -448h-126z" />
<glyph unicode="&#x2019;" horiz-adv-x="422" d="M223 986l149 448h123l-179 -448h-93z" />
<glyph unicode="&#x201a;" horiz-adv-x="422" d="M-35 -225l149 444h123l-179 -444h-93z" />
<glyph unicode="&#x201c;" horiz-adv-x="710" d="M219 986l177 448h96l-147 -448h-126zM506 986l180 448h93l-147 -448h-126z" />
<glyph unicode="&#x201d;" horiz-adv-x="710" d="M223 986l149 448h123l-179 -448h-93zM510 986l148 448h125l-178 -448h-95z" />
<glyph unicode="&#x201e;" horiz-adv-x="710" d="M-35 -229l149 447h123l-179 -447h-93zM252 -229l148 447h125l-178 -447h-95z" />
<glyph unicode="&#x2026;" horiz-adv-x="1430" d="M50 78q0 41 28 68t65 27q39 0 67 -28.5t28 -66.5q0 -41 -28.5 -68t-66.5 -27q-39 0 -66 27.5t-27 67.5zM527 78q0 41 28 68t66 27q39 0 67 -28.5t28 -66.5q0 -41 -28.5 -68t-66.5 -27q-40 0 -67 27.5t-27 67.5zM1007 78q0 41 28 68t65 27q41 0 68 -28.5t27 -66.5 q0 -40 -27 -67.5t-68 -27.5q-39 0 -66 27.5t-27 67.5z" />
<glyph unicode="&#x202f;" horiz-adv-x="377" />
<glyph unicode="&#x2039;" horiz-adv-x="637" d="M96 538l356 344h146l-369 -354l212 -326h-129z" />
<glyph unicode="&#x203a;" horiz-adv-x="637" d="M39 202l369 353l-212 327h129l216 -336l-355 -344h-147z" />
<glyph unicode="&#x205f;" horiz-adv-x="471" />
<glyph unicode="&#x20ac;" horiz-adv-x="1078" d="M59 493l22 97h143q4 123 26 225h-121l20 96h126q80 262 257 404.5t417 142.5q125 0 255 -57l-25 -131q-116 74 -242 74q-188 0 -325 -113t-204 -320h570l-21 -96h-575q-22 -94 -26 -225h553l-20 -97h-531q28 -403 351 -403q111 0 253 71l-19 -128q-71 -31 -127 -45 t-131 -14q-204 0 -326 136t-135 383h-165z" />
<glyph unicode="&#x2122;" horiz-adv-x="1584" d="M169 1345v89h526v-88h-217v-574h-96v573h-213zM786 772v662h120l224 -522h4l232 522h115v-662h-93v507h-4l-224 -507h-64l-215 507h-4v-507h-91z" />
<glyph unicode="&#x25fc;" horiz-adv-x="1025" d="M0 0v1025h1025v-1025h-1025z" />
</font>
</defs>
</svg>
